<?xml version="1.0" standalone="no"?>
<!DOCTYPE svg PUBLIC "-//W3C//DTD SVG 1.1//EN" "http://www.w3.org/Graphics/SVG/1.1/DTD/svg11.dtd" >
<svg xmlns="http://www.w3.org/2000/svg" xmlns:xlink="http://www.w3.org/1999/xlink" version="1.1">
<metadata>
Created by FontForge 20201107 at Fri Apr 12 13:35:01 2024
 By 
Copyright 2021 The Monda Project Authors (https://github.com/googlefonts/mondaFont)
</metadata>
<defs>
<font id="Monda-Bold" horiz-adv-x="0" >
  <font-face 
    font-family="Monda"
    font-weight="700"
    font-stretch="normal"
    units-per-em="2048"
    panose-1="0 0 0 0 0 0 0 0 0 0"
    ascent="1638"
    descent="-410"
    x-height="1074"
    cap-height="1476"
    bbox="-591 -772 2670 2470"
    underline-thickness="50"
    underline-position="-125"
    unicode-range="U+000D-FB02"
  />
<missing-glyph horiz-adv-x="748" 
d="M646 0h-544v1365h544v-1365zM210 1257v-1149h328v1149h-328z" />
    <glyph glyph-name="fi" unicode="fi" horiz-adv-x="1281" 
d="M229 0v901h-143v173h143v51q0 191 85.5 291t276.5 100h126l13 -189h-90q-88 0 -113.5 -36t-25.5 -105v-112h434v-173h-434v-901h-272zM875 0v1074h272v-1074h-272zM873 1250v265h275v-265h-275z" />
    <glyph glyph-name="fl" unicode="fl" horiz-adv-x="1419" 
d="M229 901h-143v173h143v51q0 191 85.5 291t276.5 100h382v-189h-333q-88 0 -113.5 -36t-25.5 -105v-112h214v-173h-214v-901h-272v901zM875 353v1162h272v-1158q0 -59 17.5 -96t59.5 -54t115 -17h34l-21 -202h-114q-119 0 -200 35t-122 115t-41 215z" />
    <glyph glyph-name="f_f" unicode="ff" horiz-adv-x="1422" 
d="M229 901h-143v173h143v31q0 191 85.5 291t276.5 100h126l13 -189h-90q-88 0 -113.5 -37.5t-25.5 -91.5v-104h314v-173h-314v-901h-272v901zM875 901h-143v173h143v51q0 191 85.5 291t276.5 100h126l13 -189h-90q-88 0 -113.5 -36t-25.5 -105v-112h214v-173h-214v-901
h-272v901z" />
    <glyph glyph-name="f_f_i" unicode="ffi" horiz-adv-x="1917" 
d="M875 0v901h-143v173h143v51q0 191 85.5 291t276.5 100h126l13 -189h-90q-88 0 -113.5 -36t-25.5 -105v-112h434v-173h-434v-901h-272zM229 0v901h-143v173h143v31q0 191 85.5 291t276.5 100h126l13 -189h-90q-88 0 -113.5 -37.5t-25.5 -91.5v-104h314v-173h-314v-901
h-272zM1521 0v1074h272v-1074h-272zM1519 1250v265h275v-265h-275z" />
    <glyph glyph-name="f_f_l" unicode="ffl" horiz-adv-x="2065" 
d="M875 0v901h-143v173h143v51q0 191 85.5 291t276.5 100h382v-189h-333q-88 0 -113.5 -36t-25.5 -105v-112h214v-173h-214v-901h-272zM229 0v901h-143v173h143v31q0 191 85.5 291t276.5 100h126l13 -189h-90q-88 0 -113.5 -37.5t-25.5 -91.5v-104h314v-173h-314v-901h-272z
M1884 -12q-119 0 -200 35t-122 115t-41 215v1162h272v-1158q0 -59 17.5 -96t59.5 -54t115 -17h34l-21 -202h-114z" />
    <glyph glyph-name=".notdef" horiz-adv-x="748" 
d="M646 0h-544v1365h544v-1365zM210 1257v-1149h328v1149h-328z" />
    <glyph glyph-name=".null" 
 />
    <glyph glyph-name="nonmarkingreturn" horiz-adv-x="682" 
 />
    <glyph glyph-name="CR" unicode="&#xd;" horiz-adv-x="600" 
 />
    <glyph glyph-name="space" unicode=" " horiz-adv-x="516" 
 />
    <glyph glyph-name="exclam" unicode="!" horiz-adv-x="648" 
d="M280 410q-17 197 -32 377.5t-26.5 326.5t-18 241.5t-6.5 121.5h259q0 -25 -7.5 -117t-21 -236t-31.5 -326t-40 -388h-76zM177 0v266h280v-266h-280z" />
    <glyph glyph-name="quotedbl" unicode="&#x22;" horiz-adv-x="1024" 
d="M630 872l-58 644h254l-77 -644h-119zM277 872l-79 644h253l-55 -644h-119z" />
    <glyph glyph-name="numbersign" unicode="#" horiz-adv-x="1372" 
d="M223 0l86 478h-205v140h230l50 278h-256v140h280l79 441h198l-76 -441h259l79 441h198l-76 -441h199v-140h-224l-48 -278h248v-140h-273l-82 -478h-206l86 478h-257l-83 -478h-206zM536 618h257l50 278h-259z" />
    <glyph glyph-name="dollar" unicode="$" horiz-adv-x="1281" 
d="M604 -217v1909h106v-1909h-106zM688 -26q-151 0 -304 36t-264 98l102 217q85 -45 203.5 -81.5t255.5 -36.5q91 0 137.5 26t63 72.5t16.5 106.5q0 41 -14 75.5t-57.5 64t-132.5 55.5l-252 74q-120 36 -186.5 96.5t-93 141.5t-26.5 175q0 138 67.5 228t184 134.5
t261.5 44.5q146 0 269 -28t225 -87l-84 -209q-82 39 -179 65t-205 26q-113 0 -180 -34.5t-67 -129.5q0 -76 39.5 -117t151.5 -75l251 -75q149 -45 224 -143t75 -272q0 -125 -50 -226.5t-156 -161.5t-275 -60z" />
    <glyph glyph-name="percent" unicode="%" horiz-adv-x="1808" 
d="M428 664q-115 0 -180.5 47.5t-92.5 132.5t-27 199v53q0 175 63.5 273t236.5 98t239 -97.5t66 -272.5v-54q0 -114 -28.5 -199.5t-95 -132.5t-181.5 -47zM428 794q64 0 94 30.5t39 84t9 120.5v87q0 66 -8 115.5t-37.5 77.5t-96.5 28q-65 0 -95 -27.5t-37.5 -77t-7.5 -114.5
v-89q0 -67 8.5 -120.5t38.5 -84t93 -30.5zM546 0l543 1446h173l-538 -1446h-178zM1376 -19q-115 0 -180.5 47t-93 132.5t-27.5 199.5v53q0 175 64 273t237 98t238.5 -97.5t65.5 -272.5v-54q0 -114 -28 -199.5t-94.5 -132.5t-181.5 -47zM1376 111q63 0 93 30.5t39 84t9 120.5
v87q0 66 -7.5 116t-37.5 77.5t-96 27.5t-95.5 -27.5t-37.5 -77t-8 -114.5v-89q0 -67 8.5 -120.5t39 -84t93.5 -30.5z" />
    <glyph glyph-name="ampersand" unicode="&#x26;" horiz-adv-x="1526" 
d="M148 460q0 151 69 236.5t215 128.5q-79 73 -127 149t-48 191t48.5 190.5t157 113t288.5 37.5q175 0 282 -29t156 -97.5t49 -186.5v-83h-238v42q0 69 -21 101.5t-73.5 42t-146.5 9.5q-101 0 -152.5 -19t-68.5 -54t-17 -83q0 -39 9.5 -66t34.5 -56.5t72 -75.5l458 -451
q1 11 1 15v16v291h235v-273q0 -65 -6 -130.5t-20 -109.5l169 -159l-160 -173l-128 126q-56 -64 -159 -97t-293 -33q-166 0 -279 27t-180.5 84.5t-97 150.5t-29.5 225zM993 279l-434 425q-68 -18 -97 -50.5t-35.5 -79.5t-6.5 -108q0 -103 25 -162t93 -84t196 -25
q55 0 107.5 4t93 22t58.5 58z" />
    <glyph glyph-name="quotesingle" unicode="'" horiz-adv-x="649" 
d="M198 1516h253l-55 -644h-119z" />
    <glyph glyph-name="parenleft" unicode="(" horiz-adv-x="946" 
d="M782 -160q-196 0 -323.5 62.5t-189 191t-61.5 326.5v566q0 178 52.5 310.5t177.5 206t344 73.5v-217q-103 0 -168 -28.5t-96 -101.5t-31 -209v-630q0 -135 30.5 -207t95.5 -99.5t169 -27.5v-216z" />
    <glyph glyph-name="parenright" unicode=")" horiz-adv-x="946" 
d="M181 -160v217q111 0 175.5 32t92 106t27.5 200v630q0 127 -27.5 199.5t-91.5 103.5t-176 31v217q197 0 323.5 -62t188 -190.5t61.5 -327.5v-566q0 -201 -61.5 -332t-188.5 -194.5t-323 -63.5z" />
    <glyph glyph-name="asterisk" unicode="*" horiz-adv-x="998" 
d="M410 629l29 325l-273 -174l-80 161l290 117l-280 142l95 153l247 -190l-28 313h178l-30 -325l273 174l81 -161l-291 -117l280 -142l-95 -153l-247 190l29 -313h-178z" />
    <glyph glyph-name="plus" unicode="+" horiz-adv-x="966" 
d="M401 487h-269v162h269v319h164v-319h269v-162h-269v-331h-164v331z" />
    <glyph glyph-name="comma" unicode="," horiz-adv-x="768" 
d="M242 -343q26 29 60 83.5t60 122.5t26 137h-165v276h322v-223q0 -100 -36 -190.5t-82.5 -157t-77.5 -94.5z" />
    <glyph glyph-name="hyphen" unicode="-" horiz-adv-x="868" 
d="M132 474v188h604v-188h-604z" />
    <glyph glyph-name="period" unicode="." horiz-adv-x="768" 
d="M235 284h298v-284h-298v284z" />
    <glyph glyph-name="slash" unicode="/" horiz-adv-x="1024" 
d="M675 1516h243l-569 -1516h-243z" />
    <glyph glyph-name="zero" unicode="0" horiz-adv-x="1420" 
d="M719 -27q-120 0 -213 28.5t-160.5 79t-110.5 117.5t-64 143.5t-21 156.5v473q0 82 20 159.5t63 145t110 118.5t160.5 80t215.5 29q120 0 211 -29t156 -81t105.5 -120t59.5 -146t19 -160v-465q0 -79 -20 -156t-61.5 -144t-106.5 -118.5t-155 -81t-208 -29.5zM719 198
q80 0 131 27.5t80 71.5t40.5 96t11.5 100v486q0 49 -11 101t-39 97t-79.5 72.5t-133.5 27.5t-135 -27.5t-82 -72.5t-40.5 -97t-11.5 -101v-486q0 -48 12.5 -100t43 -96t82.5 -71.5t131 -27.5z" />
    <glyph glyph-name="one" unicode="1" horiz-adv-x="1420" 
d="M203 220h432v1066l46 -49l-455 -60l-27 227l528 72h205v-1256h379v-220h-1108v220z" />
    <glyph glyph-name="two" unicode="2" horiz-adv-x="1420" 
d="M245 0l-36 226l547 493q78 70 121 124t60.5 106.5t17.5 115.5q0 103 -52 158.5t-176 55.5q-95 0 -152 -27t-82.5 -89.5t-25.5 -170.5h-305q0 264 126.5 387.5t425.5 123.5q190 0 306 -58.5t169.5 -157t53.5 -220.5q0 -108 -35 -196.5t-103 -169.5t-169 -167l-404 -346
l-11 39h697v-227h-973z" />
    <glyph glyph-name="three" unicode="3" horiz-adv-x="1420" 
d="M720 -27q-188 0 -307 55.5t-175 159t-56 248.5h268q0 -92 28.5 -144t88.5 -73t156 -21q134 0 194.5 61.5t60.5 179.5q0 91 -27 143t-97.5 74t-199.5 22v199q108 0 171.5 12.5t94.5 38t40.5 65.5t9.5 94q0 92 -54 142t-199 50q-100 0 -157 -23t-81 -76.5t-24 -146.5h-267
q0 177 65 280t183 146.5t278 43.5q158 0 278 -47t187.5 -137t67.5 -218q0 -74 -19.5 -144.5t-76.5 -120t-170 -63.5l6 15q104 -19 163.5 -71t84.5 -127t25 -164q0 -129 -54.5 -231.5t-173 -162t-312.5 -59.5z" />
    <glyph glyph-name="four" unicode="4" horiz-adv-x="1420" 
d="M839 0v282h-669v249l449 945h305l-449 -989l-26 41h390v334h237v-334h240v-246h-240v-282h-237z" />
    <glyph glyph-name="five" unicode="5" horiz-adv-x="1420" 
d="M726 -24q-104 0 -207.5 21.5t-188.5 55t-135 69.5l79 199q68 -40 139 -67.5t145.5 -41t151.5 -13.5q134 0 212.5 63.5t78.5 188.5q0 95 -35 149.5t-92.5 77t-126.5 22.5q-87 0 -156 -24.5t-130 -78.5l-214 107l81 772h842v-246h-618l-46 -415l-42 14q65 64 143.5 92.5
t196.5 28.5q139 0 247 -57t170 -168.5t62 -274.5q0 -136 -67 -243.5t-191.5 -169t-298.5 -61.5z" />
    <glyph glyph-name="six" unicode="6" horiz-adv-x="1420" 
d="M755 -27q-196 0 -315 64.5t-172.5 173t-53.5 241.5q0 101 17 191t55 184.5t102 206.5l251 443h320l-364 -648l-39 49q50 25 111.5 38t136.5 13q172 0 276 -63.5t151 -171.5t47 -242q0 -129 -48.5 -238t-163 -175t-311.5 -66zM750 192q100 0 154 38t75.5 98.5t21.5 126.5
q0 67 -20 127.5t-74.5 99t-158.5 38.5q-103 0 -158.5 -38.5t-76.5 -99t-21 -127.5q0 -66 23.5 -126.5t79.5 -98.5t155 -38z" />
    <glyph glyph-name="seven" unicode="7" horiz-adv-x="1420" 
d="M360 0l562 1285l27 -55h-719v246h998v-206l-554 -1270h-314z" />
    <glyph glyph-name="eight" unicode="8" horiz-adv-x="1420" 
d="M707 -22q-199 0 -318 54.5t-172 148t-53 208.5q0 140 97.5 243t257.5 160l-4 -27q-86 37 -159 85.5t-117 117t-44 166.5q0 95 51.5 178.5t164.5 135.5t296 52q200 0 312.5 -53.5t158.5 -135.5t46 -169q0 -86 -44 -159t-113.5 -126.5t-146.5 -80.5l-24 25
q95 -41 177 -95.5t132 -130.5t50 -185q0 -115 -54 -208.5t-174 -148.5t-320 -55zM715 187q109 0 166 29t77.5 79.5t20.5 113.5q0 65 -46.5 116.5t-120.5 92t-159 72.5l70 -10q-143 -50 -214 -120.5t-71 -150.5q0 -63 23.5 -113.5t84 -79.5t169.5 -29zM691 872
q60 20 118.5 55t96.5 83t38 106q0 44 -15 85t-64 68t-152 27q-91 0 -144 -24.5t-75 -64.5t-22 -85q0 -62 40.5 -107t106 -79t141.5 -64h-69z" />
    <glyph glyph-name="nine" unicode="9" horiz-adv-x="1420" 
d="M499 0l364 648l39 -49q-49 -25 -111 -38t-137 -13q-172 0 -276 63.5t-151 172t-47 241.5q0 130 48.5 238.5t163 174.5t311.5 66t315.5 -64.5t172 -173t53.5 -241.5q0 -100 -17 -190.5t-55 -184.5t-102 -207l-251 -443h-320zM710 757q103 0 158.5 38.5t76.5 99.5t21 127
q0 67 -23 127t-79.5 98t-155.5 38t-153.5 -38t-76 -98t-21.5 -127q0 -66 20 -127t75 -99.5t158 -38.5z" />
    <glyph glyph-name="colon" unicode=":" horiz-adv-x="769" 
d="M241 284h298v-284h-298v284zM241 941h298v-284h-298v284z" />
    <glyph glyph-name="semicolon" unicode=";" horiz-adv-x="769" 
d="M256 -342q26 29 60 83.5t60 122.5t26 137h-165v276h322v-223q0 -100 -36 -190.5t-82.5 -157t-77.5 -94.5zM241 941h298v-284h-298v284z" />
    <glyph glyph-name="less" unicode="&#x3c;" horiz-adv-x="966" 
d="M834 127l-702 350v172l702 350v-176l-590 -286v52l590 -286v-176z" />
    <glyph glyph-name="equal" unicode="=" horiz-adv-x="966" 
d="M132 667v162h702v-162h-702zM132 317v162h702v-162h-702z" />
    <glyph glyph-name="greater" unicode="&#x3e;" horiz-adv-x="966" 
d="M132 127v176l590 286v-52l-590 286v176l702 -350v-172z" />
    <glyph glyph-name="question" unicode="?" horiz-adv-x="1244" 
d="M693 740q72 90 102.5 158t30.5 158q0 55 -13 106t-57 84t-137 33q-101 0 -146.5 -28.5t-57 -80.5t-11.5 -123v-85h-274v74q0 102 16.5 187.5t66 147.5t147 96t259.5 34q161 0 259.5 -36t150.5 -97.5t70.5 -139.5t18.5 -161q0 -102 -27.5 -183.5t-85.5 -153.5t-149 -148
l-182 -151h-229zM413 0v266h280v-266h-280z" />
    <glyph glyph-name="at" unicode="@" horiz-adv-x="1592" 
d="M832 -353q-370 0 -539 158.5t-169 440.5v379q0 251 162 383t483 132q311 0 457 -97.5t146 -299.5v-359q0 -73 28 -97t108 -24l-23 -200h-132q-106 0 -162.5 45.5t-56.5 127.5l73 -3q-53 -93 -147 -140.5t-232 -47.5q-110 0 -181.5 40.5t-105.5 107.5t-34 145
q0 126 74 207.5t235 115.5l312 65q0 70 -25.5 117t-102 70.5t-231.5 23.5q-217 0 -309 -82t-92 -239v-365q0 -202 122.5 -293.5t341.5 -91.5q123 0 253 32.5t238 83.5l59 -213q-115 -52 -263 -87t-287 -35zM897 246q78 0 140.5 23t90.5 68v227l-222 -46q-86 -18 -115 -56.5
t-29 -91.5q0 -57 35.5 -90.5t99.5 -33.5z" />
    <glyph glyph-name="A" unicode="A" horiz-adv-x="1512" 
d="M70 0l486 1476h394l492 -1476h-315l-380 1298h26l-393 -1298h-310zM351 281l59 230h694l57 -230h-810z" />
    <glyph glyph-name="B" unicode="B" horiz-adv-x="1456" 
d="M190 0v1476h568q207 0 320.5 -42t158 -127.5t44.5 -218.5q0 -121 -44 -194.5t-184 -97.5v12q119 -8 182 -54.5t86 -124.5t23 -181q0 -232 -119.5 -340t-394.5 -108h-640zM487 208h288q116 0 174.5 19t78.5 72.5t20 155.5q0 74 -14.5 129.5t-66 87t-162.5 31.5h-318v-495z
M487 882h307q87 0 125.5 23t48.5 68.5t10 111.5q0 78 -18 118.5t-69 55t-152 14.5h-252v-391z" />
    <glyph glyph-name="C" unicode="C" horiz-adv-x="1490" 
d="M780 -26q-197 0 -319.5 38.5t-187.5 107.5t-89 162t-24 202v493q0 112 23.5 207.5t88 166.5t187.5 110.5t321 39.5q189 0 304.5 -38.5t175.5 -108.5t81 -164.5t21 -206.5v-18l-291 -34v75q0 104 -26 160.5t-89 79t-176 22.5q-110 0 -181.5 -21.5t-106.5 -77t-35 -157.5
v-558q0 -101 35 -154.5t106.5 -73t182.5 -19.5q113 0 176 19.5t88.5 74t25.5 159.5v47h291v-27q0 -109 -20 -201t-79 -160.5t-175 -106.5t-308 -38z" />
    <glyph glyph-name="D" unicode="D" horiz-adv-x="1534" 
d="M190 0v1476h640q214 0 332 -68.5t165 -185t47 -261.5v-453q0 -147 -49.5 -262t-167.5 -180.5t-326 -65.5h-641zM487 231h318q105 0 164 25.5t83.5 78.5t24.5 135v530q0 80 -25 134.5t-84.5 82.5t-162.5 28h-318v-1014z" />
    <glyph glyph-name="E" unicode="E" horiz-adv-x="1294" 
d="M190 1476h967v-224h-671v-392h595v-214h-595v-422h682v-224h-978v1476z" />
    <glyph glyph-name="F" unicode="F" horiz-adv-x="1173" 
d="M190 1476h893v-227h-596v-402h555v-213h-555v-634h-297v1476z" />
    <glyph glyph-name="G" unicode="G" horiz-adv-x="1607" 
d="M813 -26q-197 0 -324.5 38.5t-199 107.5t-100.5 162t-29 202v493q0 112 28.5 207.5t100 166.5t199 110.5t325.5 39.5q192 0 311.5 -37t183 -104t87 -157t23.5 -196v-23l-292 -22v59q0 99 -32 152.5t-101 74t-180 20.5q-110 0 -189.5 -21.5t-122.5 -77t-43 -157.5v-558
q0 -101 42.5 -154.5t122 -73t190.5 -19.5q113 0 188 19.5t112.5 73t37.5 154.5v108h-298v195h566v-757h-157l-47 170q-6 -18 -25 -50t-62 -65.5t-119 -57t-196 -23.5z" />
    <glyph glyph-name="H" unicode="H" horiz-adv-x="1624" 
d="M190 1476h298v-628h648v628h298v-1476h-298v615h-648v-615h-298v1476z" />
    <glyph glyph-name="I" unicode="I" horiz-adv-x="1148" 
d="M158 222h269v1033h-269v221h832v-221h-267v-1033h267v-222h-832v222z" />
    <glyph glyph-name="J" unicode="J" horiz-adv-x="1222" 
d="M70 67l69 220q49 -22 109.5 -40t122.5 -28t114 -10q140 0 197 68t57 164v809h-508v226h805v-1054q0 -213 -142 -330t-390 -117q-72 0 -147.5 10.5t-148.5 31t-138 50.5z" />
    <glyph glyph-name="K" unicode="K" horiz-adv-x="1448" 
d="M779 715h-73l-219 -273v-442h-297v1476h297v-716l574 716h328zM616 696l209 173l601 -869h-335z" />
    <glyph glyph-name="L" unicode="L" horiz-adv-x="1172" 
d="M190 1476h297v-1244h617v-232h-914v1476z" />
    <glyph glyph-name="M" unicode="M" horiz-adv-x="1874" 
d="M190 0v1476h327l438 -754h-41l437 754h333v-1476h-278v1136l22 -6l-391 -701h-199l-405 697l35 6v-1132h-278z" />
    <glyph glyph-name="N" unicode="N" horiz-adv-x="1634" 
d="M190 1476h223l794 -1048l-27 -9v1057h264v-1476h-223l-791 1032l27 9v-1041h-267v1476z" />
    <glyph glyph-name="O" unicode="O" horiz-adv-x="1606" 
d="M814 -26q-199 0 -327 41t-199 113t-99.5 168t-28.5 205v462q0 112 28 209.5t99 171.5t199 115.5t328 41.5q191 0 314.5 -44t193 -120.5t97 -176.5t27.5 -212v-431q0 -109 -28 -206.5t-97.5 -173.5t-192.5 -119.5t-314 -43.5zM814 207q112 0 186 23t111 80t37 158v535
q0 99 -37 157t-111.5 83t-185.5 25q-110 0 -190 -24t-123 -82t-43 -159v-535q0 -101 42.5 -158t122.5 -80t191 -23z" />
    <glyph glyph-name="P" unicode="P" horiz-adv-x="1336" 
d="M190 1476h579q243 0 362 -110.5t119 -360.5q0 -171 -47 -280.5t-158.5 -162.5t-304.5 -53h-253v-509h-297v1476zM787 726q75 0 115 29t55 88t15 147q0 78 -14.5 140t-52.5 98.5t-108 36.5h-310v-539h300z" />
    <glyph glyph-name="Q" unicode="Q" horiz-adv-x="1606" 
d="M1010 -534l-322 513q-212 18 -326.5 91t-158 185.5t-43.5 245.5v462q0 112 28 209.5t99 171.5t199 115.5t328 41.5q191 0 314.5 -44t193 -120.5t97 -176.5t27.5 -212v-431q0 -130 -41.5 -244t-148 -192t-302.5 -100l253 -399zM814 207q112 0 186 23t111 80t37 158v535
q0 99 -37 157t-111.5 83t-185.5 25q-110 0 -190 -24t-123 -82t-43 -159v-535q0 -101 42.5 -158t122.5 -80t191 -23z" />
    <glyph glyph-name="R" unicode="R" horiz-adv-x="1484" 
d="M190 0v1476h637q196 0 303 -55t148.5 -154t41.5 -232q0 -91 -16.5 -170.5t-63.5 -140.5t-137 -98l285 -626h-308l-259 583h-334v-583h-297zM487 795h365q76 0 115.5 30.5t54 82t14.5 114.5q0 60 -12.5 116t-49 91.5t-110.5 35.5h-377v-470z" />
    <glyph glyph-name="S" unicode="S" horiz-adv-x="1281" 
d="M688 -26q-151 0 -304 36t-264 98l102 217q85 -45 203.5 -81.5t255.5 -36.5q91 0 137.5 26t63 72.5t16.5 106.5q0 41 -14 75.5t-57.5 64t-132.5 55.5l-252 74q-120 36 -186.5 96.5t-93 141.5t-26.5 175q0 138 67.5 228t184 134.5t261.5 44.5q146 0 269 -28t225 -87
l-84 -209q-82 39 -179 65t-205 26q-113 0 -180 -34.5t-67 -129.5q0 -76 39.5 -117t151.5 -75l251 -75q149 -45 224 -143t75 -272q0 -125 -50 -226.5t-156 -161.5t-275 -60z" />
    <glyph glyph-name="T" unicode="T" horiz-adv-x="1194" 
d="M449 0v1250h-411v226h1118v-226h-411v-1250h-296z" />
    <glyph glyph-name="U" unicode="U" horiz-adv-x="1574" 
d="M796 -26q-189 0 -310.5 37t-189 104t-94 157t-26.5 196v1009h297v-1022q0 -97 38 -151t110.5 -75.5t174.5 -21.5q104 0 171.5 22t100.5 76t33 150v1022h297v-997q0 -105 -25 -197t-89.5 -161.5t-182.5 -108.5t-305 -39z" />
    <glyph glyph-name="V" unicode="V" horiz-adv-x="1484" 
d="M40 1476h318l390 -1193l378 1193h318l-520 -1476h-360z" />
    <glyph glyph-name="W" unicode="W" horiz-adv-x="1954" 
d="M40 1476h288l255 -1021l259 1021h251l296 -1010l240 1010h285l-382 -1476h-249l-310 1053l-284 -1053h-266z" />
    <glyph glyph-name="X" unicode="X" horiz-adv-x="1352" 
d="M50 1476h321l943 -1476h-321zM816 736l-147 242l310 498h318zM523 793l147 -242l-322 -551h-318z" />
    <glyph glyph-name="Y" unicode="Y" horiz-adv-x="1304" 
d="M509 567l-509 909h313l368 -674h-44l367 674h300l-499 -909v-567h-296v567z" />
    <glyph glyph-name="Z" unicode="Z" horiz-adv-x="1184" 
d="M126 177l620 1081h-592v218h936v-179l-618 -1087h630v-210h-976v177z" />
    <glyph glyph-name="bracketleft" unicode="[" horiz-adv-x="842" 
d="M212 1592h482v-161h-209v-1359h209v-161h-482v1681z" />
    <glyph glyph-name="backslash" unicode="\" horiz-adv-x="1024" 
d="M106 1516h243l569 -1516h-243z" />
    <glyph glyph-name="bracketright" unicode="]" horiz-adv-x="842" 
d="M146 72h210v1359h-210v161h482v-1681h-482v161z" />
    <glyph glyph-name="asciicircum" unicode="^" horiz-adv-x="1257" 
d="M498 1283h259l408 -772h-227l-324 641h40l-325 -641h-237z" />
    <glyph glyph-name="underscore" unicode="_" horiz-adv-x="874" 
d="M0 -282v188h874v-188h-874z" />
    <glyph glyph-name="grave" unicode="`" horiz-adv-x="510" 
d="M301 1256l-241 365h268l122 -365h-149z" />
    <glyph glyph-name="a" unicode="a" horiz-adv-x="1174" 
d="M423 -23q-92 0 -162 36t-109.5 102t-39.5 155q0 76 31 135t113 109.5t235 98.5q84 27 138 50t80 50t26 64q0 43 -17 72t-54 43.5t-98 14.5q-68 0 -104 -18t-49.5 -50t-13.5 -74v-42h-255v32q0 156 104 249t324 93q161 0 255 -45t135 -126.5t41 -192.5v-425
q0 -73 18.5 -95.5t68.5 -22.5l-11 -198h-57q-112 0 -174 31t-91 96q-29 -38 -77.5 -70.5t-113 -52t-143.5 -19.5zM514 158q33 0 75 12.5t81.5 37.5t64.5 64v272q-27 -22 -86 -48.5t-127 -51.5q-89 -33 -117 -73t-28 -86q0 -65 38 -96t99 -31z" />
    <glyph glyph-name="b" unicode="b" horiz-adv-x="1206" 
d="M655 -23q-88 0 -158.5 27t-122.5 61l-27 -65h-187v1516h272v-476q49 26 105 41.5t124 15.5q156 0 248.5 -48t132.5 -126.5t40 -169.5v-424q0 -105 -52.5 -184t-148 -123.5t-226.5 -44.5zM610 168q88 0 144 37t56 118v435q0 80 -48 114.5t-139 34.5q-73 0 -124 -20.5
t-67 -29.5v-641q31 -23 77 -35.5t101 -12.5z" />
    <glyph glyph-name="c" unicode="c" horiz-adv-x="1111" 
d="M573 -23q-183 0 -280 48.5t-133 128.5t-36 173v430q0 161 117 250.5t328 89.5q145 0 242.5 -35.5t147.5 -122t50 -240.5l-256 -20q0 98 -14.5 146.5t-52 65t-107.5 16.5q-87 0 -135 -34t-48 -117v-434q0 -86 45 -120t138 -34q71 0 109 15t52 60.5t14 136.5h254
q0 -148 -37.5 -236.5t-132 -127.5t-265.5 -39z" />
    <glyph glyph-name="d" unicode="d" horiz-adv-x="1198" 
d="M124 324v429q0 149 105.5 246.5t340.5 97.5q46 0 99.5 -10.5t100.5 -27.5v456h272v-1515h-184l-29 63q-52 -37 -123.5 -61.5t-154.5 -24.5q-145 0 -240 42t-141 119.5t-46 185.5zM770 211v659q-27 13 -73.5 25t-103.5 12q-93 0 -145 -33t-52 -115v-439q0 -82 48.5 -117
t138.5 -35q56 0 106 12t81 31z" />
    <glyph glyph-name="e" unicode="e" horiz-adv-x="1149" 
d="M124 336v419q0 164 124.5 253t333.5 89q248 0 352.5 -95t104.5 -257v-260h-643v-175q0 -95 49 -119.5t146 -24.5q78 0 120 13.5t58.5 49t16.5 101.5h252q0 -133 -49.5 -210t-150 -110t-252.5 -33q-131 0 -236 32.5t-165.5 110.5t-60.5 216zM782 651v126q0 60 -25.5 87.5
t-69 35t-98.5 7.5q-82 0 -137.5 -24.5t-55.5 -110.5v-121h386z" />
    <glyph glyph-name="f" unicode="f" horiz-adv-x="770" 
d="M229 901h-143v173h143v51q0 191 85.5 291t276.5 100h126l7 -189h-84q-88 0 -113.5 -43.5t-25.5 -97.5v-112h214v-173h-214v-901h-272v901z" />
    <glyph glyph-name="g" unicode="g" horiz-adv-x="1211" 
d="M574 -441q-100 0 -199.5 14.5t-155.5 41.5l56 185q76 -21 151.5 -31.5t137.5 -10.5q117 0 170 50.5t53 161.5v118q-32 -19 -73.5 -31.5t-85.5 -18.5t-85 -6q-194 0 -306.5 88t-112.5 246v385q0 92 39 171t129 127t241 48q59 0 115.5 -13.5t104.5 -36t81 -50.5l23 78h202
v-1087q0 -132 -49.5 -228.5t-156 -148.5t-279.5 -52zM588 213q69 0 120 14t79 34v571q0 21 -53.5 48t-145.5 27q-93 0 -142.5 -34.5t-49.5 -115.5v-401q0 -81 53.5 -112t138.5 -31z" />
    <glyph glyph-name="h" unicode="h" horiz-adv-x="1254" 
d="M162 1515h272v-545q35 56 129.5 91.5t206.5 35.5q103 0 177.5 -38t114.5 -105.5t40 -158.5v-795h-272v756q0 57 -28 86.5t-70 40.5t-85 11q-49 0 -98 -17.5t-82 -52t-33 -86.5v-738h-272v1515z" />
    <glyph glyph-name="i" unicode="i" horiz-adv-x="519" 
d="M124 1074h271v-1074h-271v1074zM122 1250v265h274v-265h-274z" />
    <glyph glyph-name="j" unicode="j" horiz-adv-x="650" 
d="M-18 -168h45q70 0 107 27.5t50.5 68.5t13.5 82v1064h273v-1077q0 -106 -38 -187t-120 -126.5t-216 -45.5h-101zM197 1250v265h274v-265h-274z" />
    <glyph glyph-name="k" unicode="k" horiz-adv-x="1199" 
d="M162 1516h272v-914l425 472h310l-404 -463l422 -611h-297l-336 497l-120 -123v-374h-272v1516z" />
    <glyph glyph-name="l" unicode="l" horiz-adv-x="708" 
d="M164 353v1162h272v-1158q0 -59 17.5 -96t59.5 -54t115 -17h34l-21 -202h-114q-119 0 -200 35t-122 115t-41 215z" />
    <glyph glyph-name="m" unicode="m" horiz-adv-x="1894" 
d="M160 1074h272v-96q16 17 56.5 45t106 51t154.5 23q104 0 179 -32t116 -101q59 59 144.5 96t212.5 37q103 0 179.5 -38t119 -106t42.5 -159v-794h-272v762q0 85 -45 110t-108 25q-48 0 -99.5 -16.5t-88 -49.5t-40.5 -81v-750h-272v762q0 85 -48 110t-112 25
q-49 0 -101 -17.5t-88 -52.5t-36 -88v-739h-272v1074z" />
    <glyph glyph-name="n" unicode="n" horiz-adv-x="1254" 
d="M160 1074h272v-95q62 53 137 86t192 33q121 0 196 -44.5t110 -118.5t35 -165v-770h-272v755q0 57 -29.5 87t-73 41t-86.5 11q-49 0 -97 -18t-80 -53t-32 -88v-735h-272v1074z" />
    <glyph glyph-name="o" unicode="o" horiz-adv-x="1180" 
d="M590 -23q-169 0 -271.5 42.5t-148.5 120.5t-46 185v423q0 110 55 188t159.5 119.5t251.5 41.5t251 -41.5t159.5 -119.5t55.5 -188v-423q0 -106 -44 -184.5t-145.5 -121t-276.5 -42.5zM590 166q87 0 140.5 32.5t53.5 114.5v447q0 82 -51 114.5t-143 32.5q-88 0 -141 -32.5
t-53 -114.5v-447q0 -82 50 -114.5t144 -32.5z" />
    <glyph glyph-name="p" unicode="p" horiz-adv-x="1202" 
d="M160 -410v1484h190l27 -70q53 39 129 66t171 27q189 0 295 -95.5t106 -250.5v-425q0 -92 -47 -171.5t-144.5 -128.5t-249.5 -49q-64 0 -115 11.5t-90 28.5v-427h-272zM614 166q93 0 142.5 36t49.5 118v435q0 81 -48.5 116.5t-134.5 35.5q-43 0 -81 -10t-66 -25t-44 -31
v-628q25 -16 70.5 -31.5t111.5 -15.5z" />
    <glyph glyph-name="q" unicode="q" horiz-adv-x="1194" 
d="M770 33q-49 -28 -110 -42t-123 -14q-151 0 -241.5 47.5t-131 125t-40.5 167.5v433q0 158 111.5 252.5t307.5 94.5q56 0 108 -12.5t95.5 -33t73.5 -46.5l19 69h203v-1484h-272v443zM588 166q86 0 133 24.5t49 29.5v619q-19 29 -64 48.5t-118 19.5q-87 0 -139.5 -34.5
t-52.5 -116.5v-448q0 -81 50.5 -111.5t141.5 -30.5z" />
    <glyph glyph-name="r" unicode="r" horiz-adv-x="831" 
d="M160 1074h272v-128q24 42 84.5 74.5t138.5 51t156 18.5l-6 -231q-52 -3 -113 -13t-117.5 -27t-95.5 -42t-47 -57v-720h-272v1074z" />
    <glyph glyph-name="s" unicode="s" horiz-adv-x="994" 
d="M108 61l55 185q86 -37 180.5 -58.5t173.5 -21.5q74 0 110 35.5t36 97.5q0 47 -20.5 73.5t-70.5 42.5l-236 74q-127 40 -174.5 118t-47.5 186q0 154 108.5 229t277.5 75q138 0 234 -29t154 -62l-64 -169q-31 17 -82 33t-108.5 26.5t-108.5 10.5q-86 0 -118 -30t-32 -83
q0 -34 16 -59.5t57 -38.5l222 -70q91 -28 143.5 -71.5t75.5 -105.5t23 -146q0 -90 -42.5 -164t-128 -118t-214.5 -44q-136 0 -235.5 20.5t-183.5 63.5z" />
    <glyph glyph-name="t" unicode="t" horiz-adv-x="812" 
d="M206 347v554h-142v173h150l25 345h239v-345h255v-173h-255v-534q0 -100 43.5 -138.5t166.5 -38.5h52l-10 -202h-74q-162 0 -261 32t-144 110.5t-45 216.5z" />
    <glyph glyph-name="u" unicode="u" horiz-adv-x="1251" 
d="M485 -23q-103 0 -177.5 41t-115 112t-40.5 161v783h272v-739q0 -56 28 -89.5t70 -48.5t84 -15q50 0 99 17t81.5 54t32.5 97v724h272v-1074h-256l-8 118q-32 -67 -131 -104t-211 -37z" />
    <glyph glyph-name="v" unicode="v" horiz-adv-x="1103" 
d="M34 1074h271l269 -851h-27l265 851h257l-364 -1074h-289z" />
    <glyph glyph-name="w" unicode="w" horiz-adv-x="1648" 
d="M46 1074h254l203 -814l-24 1l238 813h221l245 -822l-23 -1l189 823h253l-286 -1074h-266l-233 784h26l-242 -784h-258z" />
    <glyph glyph-name="x" unicode="x" horiz-adv-x="1082" 
d="M754 0l-301 464l-414 610h292l284 -435l431 -639h-292zM28 0l378 564l132 -205l-221 -359h-289zM675 510l-138 205l222 359h285z" />
    <glyph glyph-name="y" unicode="y" horiz-adv-x="1103" 
d="M148 -485l-20 225q101 15 174.5 75.5t119.5 181.5l24 63l25 -101l-437 1115h271l329 -896h-114l278 896h271l-371 -1062q-87 -249 -221.5 -361.5t-328.5 -135.5z" />
    <glyph glyph-name="z" unicode="z" horiz-adv-x="906" 
d="M104 167l445 760l22 -26h-457v173h704v-164l-442 -759l-22 24h459v-175h-709v167z" />
    <glyph glyph-name="braceleft" unicode="{" horiz-adv-x="992" 
d="M846 -128q-141 0 -232 23.5t-142.5 76.5t-72 139t-20.5 211v87q0 59 -9 96t-29 56.5t-54.5 26.5t-85.5 7h-13v238h14q51 0 85 9.5t54.5 32.5t29 62.5t8.5 98.5v103q0 141 23 224.5t76.5 125t143.5 54.5t224 13v-174q-66 0 -104 -7.5t-56 -26.5t-23 -52.5t-5 -85.5v-130
q0 -138 -37.5 -234.5t-122.5 -123.5q89 -31 125 -117t36 -236v-117q0 -57 5.5 -96t23.5 -63.5t55.5 -35.5t102.5 -11v-174z" />
    <glyph glyph-name="bar" unicode="|" horiz-adv-x="692" 
d="M224 1608h244v-1734h-244v1734z" />
    <glyph glyph-name="braceright" unicode="}" horiz-adv-x="991" 
d="M174 -128v174q65 0 102.5 11t55.5 35.5t23.5 63.5t5.5 96v128q0 150 36.5 236t124.5 117q-85 27 -122.5 123.5t-37.5 234.5v119q0 52 -5 85.5t-23 52.5t-56 26.5t-104 7.5v174q134 0 224 -13t143.5 -54.5t76.5 -125t23 -224.5v-92q0 -59 8.5 -98t28.5 -62t54 -33t84 -10
h16v-238h-16q-50 0 -83.5 -7t-53.5 -27t-29 -56.5t-9 -95.5v-98q0 -125 -20.5 -211t-72 -139t-142.5 -76.5t-232 -23.5z" />
    <glyph glyph-name="asciitilde" unicode="~" horiz-adv-x="1083" 
d="M743 1115q-61 0 -117 20.5t-107 48t-97.5 48t-88.5 20.5q-64 0 -88 -29t-24 -75h-131q0 140 75 208.5t175 68.5q62 0 116.5 -20.5t104 -47.5t94 -47.5t84.5 -20.5q67 0 95 28t28 75h131q0 -140 -74.5 -208.5t-175.5 -68.5z" />
    <glyph glyph-name="uni00A0" unicode="&#xa0;" horiz-adv-x="516" 
 />
    <glyph glyph-name="exclamdown" unicode="&#xa1;" horiz-adv-x="648" 
d="M368 664q17 -196 32 -377t26.5 -327t18 -241.5t6.5 -121.5h-259q0 26 7.5 117.5t21 235.5t31.5 326t40 388h76zM471 1074v-266h-280v266h280z" />
    <glyph glyph-name="cent" unicode="&#xa2;" horiz-adv-x="1111" 
d="M528 -217v1508h95v-1508h-95zM573 -23q-183 0 -280 48.5t-133 128.5t-36 173v430q0 161 117 250.5t328 89.5q145 0 242.5 -35.5t147.5 -122t50 -240.5l-256 -20q0 98 -14.5 146.5t-52 65t-107.5 16.5q-87 0 -135 -34t-48 -117v-434q0 -86 45 -120t138 -34q71 0 109 15
t52 60.5t14 136.5h254q0 -148 -37.5 -236.5t-132 -127.5t-265.5 -39z" />
    <glyph glyph-name="sterling" unicode="&#xa3;" horiz-adv-x="1285" 
d="M200 0l91 1061q12 142 62 243.5t151.5 156t266.5 54.5q107 0 204 -30.5t155 -69.5l-71 -201q-53 24 -100 38.5t-87.5 21.5t-76.5 7q-117 0 -158.5 -67.5t-50.5 -169.5l-70 -818h608v-226h-924zM139 640v160h862v-160h-862z" />
    <glyph glyph-name="currency" unicode="&#xa4;" horiz-adv-x="1126" 
d="M560 381q-82 0 -145 27t-106 72l-135 -97l-48 84l128 92q-38 74 -38 164q0 89 40 169l-132 95l53 80l134 -99q43 44 105.5 70t143.5 26q82 0 144 -27t105 -73l143 103l47 -81l-137 -100q19 -37 28 -79t9 -84t-8.5 -83t-26.5 -77l138 -98l-52 -81l-139 101
q-43 -46 -106 -75t-145 -29zM560 528q97 0 142.5 59.5t45.5 135.5t-45.5 135.5t-142.5 59.5q-98 0 -145 -59.5t-47 -135.5t47 -135.5t145 -59.5z" />
    <glyph glyph-name="yen" unicode="&#xa5;" horiz-adv-x="1304" 
d="M495 968l41 -130h-450v130h409zM86 540v130h1142v-130h-1142zM773 838l52 130h403v-130h-455zM509 567l-509 909h313l368 -674h-44l367 674h300l-499 -909v-567h-296v567z" />
    <glyph glyph-name="brokenbar" unicode="&#xa6;" horiz-adv-x="687" 
d="M224 584h239v-710h-239v710zM224 1608h239v-676h-239v676z" />
    <glyph glyph-name="section" unicode="&#xa7;" horiz-adv-x="1008" 
d="M784 438l-124 152q31 17 44 42.5t13 56.5q0 47 -20.5 73.5t-69.5 41.5l-277 87q-127 40 -174.5 117t-47.5 185q0 154 108.5 229t277.5 75q138 0 234 -34t154 -67l-64 -169q-31 17 -82 35.5t-108.5 31.5t-108.5 13q-86 0 -118 -30t-32 -83q0 -34 16 -59.5t57 -38.5
l222 -70q91 -28 143.5 -71.5t75.5 -105.5t23 -146q0 -82 -35.5 -151.5t-106.5 -113.5zM520 -14q-138 0 -234 30.5t-154 70.5l64 159q32 -16 82.5 -32.5t108 -27t108.5 -10.5q86 0 118 30t32 83q0 34 -16 59.5t-57 38.5l-222 70q-90 29 -143 72t-76 105t-23 146
q0 83 35.5 152.5t106.5 112.5l124 -152q-31 -16 -44 -41.5t-13 -57.5q0 -47 20.5 -73.5t69.5 -41.5l277 -87q127 -40 174.5 -117t47.5 -185q0 -154 -108 -229t-278 -75z" />
    <glyph glyph-name="dieresis" unicode="&#xa8;" horiz-adv-x="794" 
d="M469 1311v233h265v-233h-265zM60 1311v233h264v-233h-264z" />
    <glyph glyph-name="copyright" unicode="&#xa9;" horiz-adv-x="1776" 
d="M888 -14q-155 0 -288.5 55.5t-234 155.5t-157 234t-56.5 291q0 156 56.5 290t157 233.5t234 155t288.5 55.5q156 0 290 -55.5t234 -155t156 -233.5t56 -290q0 -157 -56 -291t-156 -234t-234 -155.5t-290 -55.5zM890 82q183 0 325 84t222.5 229t80.5 327t-80.5 326.5
t-222.5 228.5t-325 84q-182 0 -324 -84t-223.5 -228.5t-81.5 -326.5t81.5 -327t223.5 -229t324 -84zM899 287q-143 0 -219.5 38.5t-104.5 107t-28 157.5v278q0 91 28 162t103.5 111.5t219.5 40.5q139 0 208.5 -42.5t93.5 -115t24 -163.5v-25l-116 -10v64q0 114 -48 157.5
t-162 43.5q-113 0 -172 -43.5t-59 -157.5v-319q0 -114 59 -154.5t173 -40.5q115 0 162 40.5t47 154.5v61h116v-34q0 -88 -24 -158.5t-93.5 -111.5t-207.5 -41z" />
    <glyph glyph-name="ordfeminine" unicode="&#xaa;" horiz-adv-x="1024" 
d="M385 525q-114 0 -183 70t-69 188q0 61 17.5 105t76.5 81t181 76q97 31 145 52.5t64 47t16 67.5q0 56 -29.5 84t-103.5 28q-55 0 -84 -15.5t-40 -43t-11 -63.5v-36h-205v27q0 134 83.5 213.5t261.5 79.5q194 0 271 -84.5t77 -227.5v-354q0 -63 17 -87t69 -24l-18 -170h-85
q-90 0 -125.5 35t-58.5 90q-23 -32 -61.5 -64.5t-90 -53.5t-115.5 -21zM457 692q27 0 60 8t64 27t51 51v232q-20 -19 -67.5 -40t-102.5 -38q-70 -21 -94.5 -55.5t-24.5 -75.5q0 -52 29.5 -80.5t84.5 -28.5z" />
    <glyph glyph-name="guillemotleft" unicode="&#xab;" horiz-adv-x="1024" 
d="M67 530l273 450l147 -70l-229 -420v80l229 -420l-140 -70zM481 530l273 450l145 -70l-226 -420v80l226 -420l-138 -70z" />
    <glyph glyph-name="logicalnot" unicode="&#xac;" horiz-adv-x="966" 
d="M671 487h-539v162h703v-393h-164v231z" />
    <glyph glyph-name="registered" unicode="&#xae;" horiz-adv-x="1776" 
d="M892 -14q-155 0 -288.5 55.5t-234 155.5t-157 234t-56.5 291q0 156 56.5 290t157 233.5t234 155t288.5 55.5q156 0 290 -55.5t234 -155t156 -233.5t56 -290q0 -157 -56 -291t-156 -234t-234 -155.5t-290 -55.5zM894 82q183 0 325 84t222.5 229t80.5 327t-80.5 326.5
t-222.5 228.5t-325 84q-182 0 -324 -84t-223.5 -228.5t-81.5 -326.5t81.5 -327t223.5 -229t324 -84zM585 319v834h423q125 0 184 -61t59 -184v-14q0 -108 -41.5 -158.5t-110.5 -69.5l184 -347h-128l-180 333h-259v-333h-131zM716 742h267q72 0 104 39t32 106v24
q0 39 -7 73.5t-34 56t-86 21.5h-276v-320z" />
    <glyph glyph-name="macron" unicode="&#xaf;" horiz-adv-x="704" 
d="M60 1336v167h584v-167h-584z" />
    <glyph glyph-name="degree" unicode="&#xb0;" horiz-adv-x="842" 
d="M421 850q-172 0 -261.5 93.5t-89.5 236.5t89.5 237t261.5 94q173 0 262 -94t89 -237t-89 -236.5t-262 -93.5zM421 1023q80 0 119.5 42.5t39.5 115.5q0 74 -39.5 116t-119.5 42t-119.5 -42t-39.5 -116q0 -73 40 -115.5t119 -42.5z" />
    <glyph glyph-name="plusminus" unicode="&#xb1;" horiz-adv-x="966" 
d="M401 587h-269v162h269v219h164v-219h269v-162h-269v-231h-164v231zM132 85v162h702v-162h-702z" />
    <glyph glyph-name="uni00B2" unicode="&#xb2;" horiz-adv-x="829" 
d="M140 890l-22 136l311 294q68 65 92.5 107.5t24.5 91.5q0 47 -30 78t-97 31q-78 0 -112 -34t-34 -108h-183q0 151 79.5 231.5t251.5 80.5q171 0 244.5 -79t73.5 -188q0 -65 -22 -117t-63 -100t-99 -103l-220 -208l-29 39h418v-152h-584z" />
    <glyph glyph-name="uni00B3" unicode="&#xb3;" horiz-adv-x="827" 
d="M413 873q-169 0 -246 74t-77 204h181q0 -57 36 -82.5t104 -25.5q65 0 99 26t34 93q0 45 -15.5 72.5t-52.5 39.5t-103 12v140q94 0 128.5 23t34.5 75q0 46 -28 71.5t-97 25.5q-72 0 -104.5 -28t-32.5 -84h-180q0 160 85.5 221t229.5 61q143 0 231.5 -62.5t88.5 -178.5
q0 -44 -11.5 -87t-45.5 -75t-102 -45l3 29q93 -25 128.5 -86t35.5 -141q0 -116 -75 -194t-249 -78z" />
    <glyph glyph-name="acute" unicode="&#xb4;" horiz-adv-x="510" 
d="M60 1255l122 365h268l-241 -365h-149z" />
    <glyph glyph-name="uni00B5" unicode="&#xb5;" horiz-adv-x="1246" 
d="M148 -236v1310h272v-766q0 -56 28 -87t70 -43t84 -12q50 0 99 17t81.5 50.5t32.5 83.5v757h273v-1074h-267l-6 135q-28 -70 -93 -112t-160 -42q-41 0 -80.5 5.5t-81.5 15.5v-238h-252z" />
    <glyph glyph-name="paragraph" unicode="&#xb6;" horiz-adv-x="1222" 
d="M447 0v859q-166 0 -259 76t-93 238t95 232.5t272 70.5h560v-1476h-212v1274h-151v-1274h-212z" />
    <glyph glyph-name="periodcentered" unicode="&#xb7;" horiz-adv-x="448" 
d="M100 865h248v-245h-248v245z" />
    <glyph glyph-name="cedilla" unicode="&#xb8;" horiz-adv-x="512" 
d="M60 -485v122h178q32 0 44 13.5t12 32.5v58q0 20 -14 33t-42 13h-90v243h131v-166l-65 46q125 0 181.5 -42t56.5 -130v-50q0 -71 -46 -122t-159 -51h-187z" />
    <glyph glyph-name="uni00B9" unicode="&#xb9;" horiz-adv-x="778" 
d="M93 1042h224v620l46 -49l-253 -36l-20 156l297 43h123v-734h208v-152h-625v152z" />
    <glyph glyph-name="ordmasculine" unicode="&#xba;" horiz-adv-x="1024" 
d="M513 523q-206 0 -291.5 80.5t-85.5 218.5v364q0 141 98.5 220.5t277.5 79.5q178 0 277 -79.5t99 -220.5v-364q0 -137 -82 -218t-293 -81zM511 686q79 0 117.5 31.5t38.5 95.5v385q0 71 -40.5 99t-114.5 28q-70 0 -113 -28t-43 -99v-385q0 -70 40.5 -98.5t114.5 -28.5z
" />
    <glyph glyph-name="guillemotright" unicode="&#xbb;" horiz-adv-x="1024" 
d="M154 150l226 420v-80l-226 420l138 70l280 -450l-273 -450zM566 150l229 420v-80l-229 420l140 70l280 -450l-273 -450z" />
    <glyph glyph-name="onequarter" unicode="&#xbc;" horiz-adv-x="1891" 
d="M93 742h224v620l46 -49l-253 -36l-20 156l297 43h123v-734h208v-152h-625v152zM1219 1505h174l-641 -1505h-174zM1545 0v170h-392v149l255 567h205l-267 -593l-25 29h224v208h192v-208h104v-152h-104v-170h-192z" />
    <glyph glyph-name="onehalf" unicode="&#xbd;" horiz-adv-x="1917" 
d="M93 742h224v620l46 -49l-253 -36l-20 156l297 43h123v-734h208v-152h-625v152zM1219 1505h174l-641 -1505h-174zM1228 0l-22 136l311 294q68 65 92.5 107.5t24.5 91.5q0 47 -30 78t-97 31q-78 0 -112 -34t-34 -108h-183q0 151 79.5 231.5t251.5 80.5q171 0 244.5 -79
t73.5 -188q0 -65 -22 -117t-63 -100t-99 -103l-220 -208l-29 39h418v-152h-584z" />
    <glyph glyph-name="threequarters" unicode="&#xbe;" horiz-adv-x="1940" 
d="M413 573q-169 0 -246 74t-77 204h181q0 -57 36 -82.5t104 -25.5q65 0 99 26t34 93q0 45 -15.5 72.5t-52.5 39.5t-103 12v140q94 0 128.5 23t34.5 75q0 46 -28 71.5t-97 25.5q-72 0 -104.5 -28t-32.5 -84h-180q0 160 85.5 221t229.5 61q143 0 231.5 -62.5t88.5 -178.5
q0 -44 -11.5 -87t-45.5 -75t-102 -45l3 29q93 -25 128.5 -86t35.5 -141q0 -116 -75 -194t-249 -78zM1268 1505h174l-641 -1505h-174zM1594 0v170h-392v149l255 567h205l-267 -593l-25 29h224v208h192v-208h104v-152h-104v-170h-192z" />
    <glyph glyph-name="questiondown" unicode="&#xbf;" horiz-adv-x="1244" 
d="M555 334q-72 -90 -102.5 -158t-30.5 -158q0 -55 13 -106t57 -84t137 -33q101 0 146.5 28.5t57 81t11.5 122.5v85h274v-74q0 -102 -16.5 -187.5t-66 -147.5t-147 -96t-259.5 -34q-160 0 -259 36t-151 97.5t-70.5 139.5t-18.5 161q0 103 27.5 184t85.5 153.5t149 147.5
l182 151h229zM835 1074v-266h-280v266h280z" />
    <glyph glyph-name="Agrave" unicode="&#xc0;" horiz-adv-x="1512" 
d="M70 0l486 1476h394l492 -1476h-315l-380 1298h26l-393 -1298h-310zM351 281l59 230h694l57 -230h-810zM717 1657l-281 365h318l162 -365h-199z" />
    <glyph glyph-name="Aacute" unicode="&#xc1;" horiz-adv-x="1512" 
d="M70 0l486 1476h394l492 -1476h-315l-380 1298h26l-393 -1298h-310zM351 281l59 230h694l57 -230h-810zM596 1657l162 365h318l-281 -365h-199z" />
    <glyph glyph-name="Acircumflex" unicode="&#xc2;" horiz-adv-x="1512" 
d="M70 0l486 1476h394l492 -1476h-315l-380 1298h26l-393 -1298h-310zM351 281l59 230h694l57 -230h-810zM380 1638l277 355h198l277 -355h-179l-230 205h67l-231 -205h-179z" />
    <glyph glyph-name="Atilde" unicode="&#xc3;" horiz-adv-x="1512" 
d="M70 0l486 1476h394l492 -1476h-315l-380 1298h26l-393 -1298h-310zM351 281l59 230h694l57 -230h-810zM882 1648q-65 0 -106.5 15.5t-69.5 36t-51.5 36t-53.5 15.5q-28 0 -46 -20.5t-18 -66.5h-134q0 140 62.5 200t164.5 60q66 0 106.5 -15.5t67 -35.5t48.5 -35.5
t51 -15.5q30 0 51 19.5t21 66.5h134q0 -140 -62.5 -200t-164.5 -60z" />
    <glyph glyph-name="Adieresis" unicode="&#xc4;" horiz-adv-x="1512" 
d="M70 0l486 1476h394l492 -1476h-315l-380 1298h26l-393 -1298h-310zM351 281l59 230h694l57 -230h-810zM828 1683v233h265v-233h-265zM419 1683v233h264v-233h-264z" />
    <glyph glyph-name="Aring" unicode="&#xc5;" horiz-adv-x="1512" 
d="M70 0l486 1476h394l492 -1476h-315l-380 1298h26l-393 -1298h-310zM351 281l59 230h694l57 -230h-810zM756 1540q-126 0 -198 65t-72 185q0 119 72 183.5t198 64.5q125 0 197.5 -64.5t72.5 -183.5q0 -120 -72 -185t-198 -65zM756 1699q37 0 61.5 18.5t24.5 71.5
t-24.5 72.5t-61.5 19.5q-38 0 -62 -18.5t-24 -71.5q0 -54 24 -73t62 -19z" />
    <glyph glyph-name="AE" unicode="&#xc6;" horiz-adv-x="1834" 
d="M396 414l55 230h442v605h-136l-364 -1249h-310l456 1477h1161v-228h-527v-391h457v-213h-457v-418h537v-227h-817v414h-497z" />
    <glyph glyph-name="Ccedilla" unicode="&#xc7;" horiz-adv-x="1490" 
d="M780 -26q-197 0 -319.5 38.5t-187.5 107.5t-89 162t-24 202v493q0 112 23.5 207.5t88 166.5t187.5 110.5t321 39.5q189 0 304.5 -38.5t175.5 -108.5t81 -164.5t21 -206.5v-18l-291 -34v75q0 104 -26 160.5t-89 79t-176 22.5q-110 0 -181.5 -21.5t-106.5 -77t-35 -157.5
v-558q0 -101 35 -154.5t106.5 -73t182.5 -19.5q113 0 176 19.5t88.5 74t25.5 159.5v47h291v-27q0 -109 -20 -201t-79 -160.5t-175 -106.5t-308 -38zM622 -485v122h178q32 0 44 13.5t12 32.5v58q0 20 -14 33t-42 13h-90v243h131v-166l-65 46q125 0 181.5 -42t56.5 -130v-50
q0 -71 -46 -122t-159 -51h-187z" />
    <glyph glyph-name="Egrave" unicode="&#xc8;" horiz-adv-x="1294" 
d="M190 1476h967v-224h-671v-392h595v-214h-595v-422h682v-224h-978v1476zM636 1657l-281 365h318l162 -365h-199z" />
    <glyph glyph-name="Eacute" unicode="&#xc9;" horiz-adv-x="1294" 
d="M190 1476h967v-224h-671v-392h595v-214h-595v-422h682v-224h-978v1476zM515 1657l162 365h318l-281 -365h-199z" />
    <glyph glyph-name="Ecircumflex" unicode="&#xca;" horiz-adv-x="1294" 
d="M190 1476h967v-224h-671v-392h595v-214h-595v-422h682v-224h-978v1476zM299 1638l277 355h198l277 -355h-179l-230 205h67l-231 -205h-179z" />
    <glyph glyph-name="Edieresis" unicode="&#xcb;" horiz-adv-x="1294" 
d="M190 1476h967v-224h-671v-392h595v-214h-595v-422h682v-224h-978v1476zM747 1683v233h265v-233h-265zM338 1683v233h264v-233h-264z" />
    <glyph glyph-name="Igrave" unicode="&#xcc;" horiz-adv-x="1148" 
d="M158 222h269v1033h-269v221h832v-221h-267v-1033h267v-222h-832v222zM535 1657l-281 365h318l162 -365h-199z" />
    <glyph glyph-name="Iacute" unicode="&#xcd;" horiz-adv-x="1148" 
d="M158 222h269v1033h-269v221h832v-221h-267v-1033h267v-222h-832v222zM414 1657l162 365h318l-281 -365h-199z" />
    <glyph glyph-name="Icircumflex" unicode="&#xce;" horiz-adv-x="1148" 
d="M158 222h269v1033h-269v221h832v-221h-267v-1033h267v-222h-832v222zM198 1638l277 355h198l277 -355h-179l-230 205h67l-231 -205h-179z" />
    <glyph glyph-name="Idieresis" unicode="&#xcf;" horiz-adv-x="1148" 
d="M158 222h269v1033h-269v221h832v-221h-267v-1033h267v-222h-832v222zM646 1683v233h265v-233h-265zM237 1683v233h264v-233h-264z" />
    <glyph glyph-name="Eth" unicode="&#xd0;" horiz-adv-x="1534" 
d="M190 0v1476h640q214 0 332 -68.5t165 -185t47 -261.5v-453q0 -147 -49.5 -262t-167.5 -180.5t-326 -65.5h-641zM487 231h318q105 0 164 25.5t83.5 78.5t24.5 135v530q0 80 -25 134.5t-84.5 82.5t-162.5 28h-318v-1014zM9 706v148h704v-148h-704z" />
    <glyph glyph-name="Ntilde" unicode="&#xd1;" horiz-adv-x="1634" 
d="M190 1476h223l794 -1048l-27 -9v1057h264v-1476h-223l-791 1032l27 9v-1041h-267v1476zM943 1648q-65 0 -106.5 15.5t-69.5 36t-51.5 36t-53.5 15.5q-28 0 -46 -20.5t-18 -66.5h-134q0 140 62.5 200t164.5 60q66 0 106.5 -15.5t67 -35.5t48.5 -35.5t51 -15.5
q30 0 51 19.5t21 66.5h134q0 -140 -62.5 -200t-164.5 -60z" />
    <glyph glyph-name="Ograve" unicode="&#xd2;" horiz-adv-x="1606" 
d="M814 -26q-199 0 -327 41t-199 113t-99.5 168t-28.5 205v462q0 112 28 209.5t99 171.5t199 115.5t328 41.5q191 0 314.5 -44t193 -120.5t97 -176.5t27.5 -212v-431q0 -109 -28 -206.5t-97.5 -173.5t-192.5 -119.5t-314 -43.5zM814 207q112 0 186 23t111 80t37 158v535
q0 99 -37 157t-111.5 83t-185.5 25q-110 0 -190 -24t-123 -82t-43 -159v-535q0 -101 42.5 -158t122.5 -80t191 -23zM764 1657l-281 365h318l162 -365h-199z" />
    <glyph glyph-name="Oacute" unicode="&#xd3;" horiz-adv-x="1606" 
d="M814 -26q-199 0 -327 41t-199 113t-99.5 168t-28.5 205v462q0 112 28 209.5t99 171.5t199 115.5t328 41.5q191 0 314.5 -44t193 -120.5t97 -176.5t27.5 -212v-431q0 -109 -28 -206.5t-97.5 -173.5t-192.5 -119.5t-314 -43.5zM814 207q112 0 186 23t111 80t37 158v535
q0 99 -37 157t-111.5 83t-185.5 25q-110 0 -190 -24t-123 -82t-43 -159v-535q0 -101 42.5 -158t122.5 -80t191 -23zM643 1657l162 365h318l-281 -365h-199z" />
    <glyph glyph-name="Ocircumflex" unicode="&#xd4;" horiz-adv-x="1606" 
d="M814 -26q-199 0 -327 41t-199 113t-99.5 168t-28.5 205v462q0 112 28 209.5t99 171.5t199 115.5t328 41.5q191 0 314.5 -44t193 -120.5t97 -176.5t27.5 -212v-431q0 -109 -28 -206.5t-97.5 -173.5t-192.5 -119.5t-314 -43.5zM814 207q112 0 186 23t111 80t37 158v535
q0 99 -37 157t-111.5 83t-185.5 25q-110 0 -190 -24t-123 -82t-43 -159v-535q0 -101 42.5 -158t122.5 -80t191 -23zM427 1638l277 355h198l277 -355h-179l-230 205h67l-231 -205h-179z" />
    <glyph glyph-name="Otilde" unicode="&#xd5;" horiz-adv-x="1606" 
d="M814 -26q-199 0 -327 41t-199 113t-99.5 168t-28.5 205v462q0 112 28 209.5t99 171.5t199 115.5t328 41.5q191 0 314.5 -44t193 -120.5t97 -176.5t27.5 -212v-431q0 -109 -28 -206.5t-97.5 -173.5t-192.5 -119.5t-314 -43.5zM814 207q112 0 186 23t111 80t37 158v535
q0 99 -37 157t-111.5 83t-185.5 25q-110 0 -190 -24t-123 -82t-43 -159v-535q0 -101 42.5 -158t122.5 -80t191 -23zM929 1648q-65 0 -106.5 15.5t-69.5 36t-51.5 36t-53.5 15.5q-28 0 -46 -20.5t-18 -66.5h-134q0 140 62.5 200t164.5 60q66 0 106.5 -15.5t67 -35.5
t48.5 -35.5t51 -15.5q30 0 51 19.5t21 66.5h134q0 -140 -62.5 -200t-164.5 -60z" />
    <glyph glyph-name="Odieresis" unicode="&#xd6;" horiz-adv-x="1606" 
d="M814 -26q-199 0 -327 41t-199 113t-99.5 168t-28.5 205v462q0 112 28 209.5t99 171.5t199 115.5t328 41.5q191 0 314.5 -44t193 -120.5t97 -176.5t27.5 -212v-431q0 -109 -28 -206.5t-97.5 -173.5t-192.5 -119.5t-314 -43.5zM814 207q112 0 186 23t111 80t37 158v535
q0 99 -37 157t-111.5 83t-185.5 25q-110 0 -190 -24t-123 -82t-43 -159v-535q0 -101 42.5 -158t122.5 -80t191 -23zM875 1683v233h265v-233h-265zM466 1683v233h264v-233h-264z" />
    <glyph glyph-name="multiply" unicode="&#xd7;" horiz-adv-x="966" 
d="M125 344l238 232l-238 230l111 131l248 -243l248 243l110 -131l-237 -230l237 -232l-110 -128l-248 242l-248 -242z" />
    <glyph glyph-name="Oslash" unicode="&#xd8;" horiz-adv-x="1606" 
d="M425 -157l698 1833l104 -38l-699 -1833zM814 -26q-199 0 -327 41t-199 113t-99.5 168t-28.5 205v462q0 112 28 209.5t99 171.5t199 115.5t328 41.5q191 0 314.5 -44t193 -120.5t97 -176.5t27.5 -212v-431q0 -109 -28 -206.5t-97.5 -173.5t-192.5 -119.5t-314 -43.5z
M814 207q112 0 186 23t111 80t37 158v535q0 99 -37 157t-111.5 83t-185.5 25q-110 0 -190 -24t-123 -82t-43 -159v-535q0 -101 42.5 -158t122.5 -80t191 -23z" />
    <glyph glyph-name="Ugrave" unicode="&#xd9;" horiz-adv-x="1574" 
d="M796 -26q-189 0 -310.5 37t-189 104t-94 157t-26.5 196v1009h297v-1022q0 -97 38 -151t110.5 -75.5t174.5 -21.5q104 0 171.5 22t100.5 76t33 150v1022h297v-997q0 -105 -25 -197t-89.5 -161.5t-182.5 -108.5t-305 -39zM748 1657l-281 365h318l162 -365h-199z" />
    <glyph glyph-name="Uacute" unicode="&#xda;" horiz-adv-x="1574" 
d="M796 -26q-189 0 -310.5 37t-189 104t-94 157t-26.5 196v1009h297v-1022q0 -97 38 -151t110.5 -75.5t174.5 -21.5q104 0 171.5 22t100.5 76t33 150v1022h297v-997q0 -105 -25 -197t-89.5 -161.5t-182.5 -108.5t-305 -39zM627 1657l162 365h318l-281 -365h-199z" />
    <glyph glyph-name="Ucircumflex" unicode="&#xdb;" horiz-adv-x="1574" 
d="M796 -26q-189 0 -310.5 37t-189 104t-94 157t-26.5 196v1009h297v-1022q0 -97 38 -151t110.5 -75.5t174.5 -21.5q104 0 171.5 22t100.5 76t33 150v1022h297v-997q0 -105 -25 -197t-89.5 -161.5t-182.5 -108.5t-305 -39zM411 1638l277 355h198l277 -355h-179l-230 205h67
l-231 -205h-179z" />
    <glyph glyph-name="Udieresis" unicode="&#xdc;" horiz-adv-x="1574" 
d="M796 -26q-189 0 -310.5 37t-189 104t-94 157t-26.5 196v1009h297v-1022q0 -97 38 -151t110.5 -75.5t174.5 -21.5q104 0 171.5 22t100.5 76t33 150v1022h297v-997q0 -105 -25 -197t-89.5 -161.5t-182.5 -108.5t-305 -39zM859 1683v233h265v-233h-265zM450 1683v233h264
v-233h-264z" />
    <glyph glyph-name="Yacute" unicode="&#xdd;" horiz-adv-x="1304" 
d="M509 567l-509 909h313l368 -674h-44l367 674h300l-499 -909v-567h-296v567zM492 1657l162 365h318l-281 -365h-199z" />
    <glyph glyph-name="Thorn" unicode="&#xde;" horiz-adv-x="1362" 
d="M216 1476h297v-236h293q164 0 266.5 -38t151 -131.5t48.5 -259.5q0 -171 -43 -270.5t-150.5 -142t-300.5 -42.5h-265v-356h-297v1476zM825 567q75 0 113.5 20.5t52 70.5t13.5 139q0 77 -13.5 129.5t-50 79.5t-106.5 27h-321v-466h312z" />
    <glyph glyph-name="germandbls" unicode="&#xdf;" horiz-adv-x="1286" 
d="M140 0v1116q0 151 67 234t182.5 116.5t262.5 33.5q236 0 349 -95.5t113 -256.5q0 -129 -53.5 -208.5t-166.5 -98.5l11 56q49 -5 102.5 -27.5t100 -69.5t75.5 -125.5t29 -195.5q0 -182 -58 -289t-189.5 -153.5t-353.5 -46.5l-23 200q84 0 147 13.5t104.5 45t62 85
t20.5 132.5q0 113 -34 170.5t-101.5 77t-168.5 19.5v190q82 0 129.5 19t68.5 64t21 123q0 68 -22.5 107.5t-65.5 56.5t-105 17t-105.5 -19t-66 -58t-22.5 -99v-1134h-310z" />
    <glyph glyph-name="agrave" unicode="&#xe0;" horiz-adv-x="1174" 
d="M423 -23q-92 0 -162 36t-109.5 102t-39.5 155q0 76 31 135t113 109.5t235 98.5q84 27 138 50t80 50t26 64q0 43 -17 72t-54 43.5t-98 14.5q-68 0 -104 -18t-49.5 -50t-13.5 -74v-42h-255v32q0 156 104 249t324 93q161 0 255 -45t135 -126.5t41 -192.5v-425
q0 -73 18.5 -95.5t68.5 -22.5l-11 -198h-57q-112 0 -174 31t-91 96q-29 -38 -77.5 -70.5t-113 -52t-143.5 -19.5zM514 158q33 0 75 12.5t81.5 37.5t64.5 64v272q-27 -22 -86 -48.5t-127 -51.5q-89 -33 -117 -73t-28 -86q0 -65 38 -96t99 -31zM553 1256l-241 365h268
l122 -365h-149z" />
    <glyph glyph-name="aacute" unicode="&#xe1;" horiz-adv-x="1174" 
d="M423 -23q-92 0 -162 36t-109.5 102t-39.5 155q0 76 31 135t113 109.5t235 98.5q84 27 138 50t80 50t26 64q0 43 -17 72t-54 43.5t-98 14.5q-68 0 -104 -18t-49.5 -50t-13.5 -74v-42h-255v32q0 156 104 249t324 93q161 0 255 -45t135 -126.5t41 -192.5v-425
q0 -73 18.5 -95.5t68.5 -22.5l-11 -198h-57q-112 0 -174 31t-91 96q-29 -38 -77.5 -70.5t-113 -52t-143.5 -19.5zM514 158q33 0 75 12.5t81.5 37.5t64.5 64v272q-27 -22 -86 -48.5t-127 -51.5q-89 -33 -117 -73t-28 -86q0 -65 38 -96t99 -31zM442 1255l122 365h268
l-241 -365h-149z" />
    <glyph glyph-name="acircumflex" unicode="&#xe2;" horiz-adv-x="1174" 
d="M423 -23q-92 0 -162 36t-109.5 102t-39.5 155q0 76 31 135t113 109.5t235 98.5q84 27 138 50t80 50t26 64q0 43 -17 72t-54 43.5t-98 14.5q-68 0 -104 -18t-49.5 -50t-13.5 -74v-42h-255v32q0 156 104 249t324 93q161 0 255 -45t135 -126.5t41 -192.5v-425
q0 -73 18.5 -95.5t68.5 -22.5l-11 -198h-57q-112 0 -174 31t-91 96q-29 -38 -77.5 -70.5t-113 -52t-143.5 -19.5zM514 158q33 0 75 12.5t81.5 37.5t64.5 64v272q-27 -22 -86 -48.5t-127 -51.5q-89 -33 -117 -73t-28 -86q0 -65 38 -96t99 -31zM197 1256l277 365h198l277 -365
h-179l-230 215h67l-231 -215h-179z" />
    <glyph glyph-name="atilde" unicode="&#xe3;" horiz-adv-x="1174" 
d="M423 -23q-92 0 -162 36t-109.5 102t-39.5 155q0 76 31 135t113 109.5t235 98.5q84 27 138 50t80 50t26 64q0 43 -17 72t-54 43.5t-98 14.5q-68 0 -104 -18t-49.5 -50t-13.5 -74v-42h-255v32q0 156 104 249t324 93q161 0 255 -45t135 -126.5t41 -192.5v-425
q0 -73 18.5 -95.5t68.5 -22.5l-11 -198h-57q-112 0 -174 31t-91 96q-29 -38 -77.5 -70.5t-113 -52t-143.5 -19.5zM514 158q33 0 75 12.5t81.5 37.5t64.5 64v272q-27 -22 -86 -48.5t-127 -51.5q-89 -33 -117 -73t-28 -86q0 -65 38 -96t99 -31zM698 1301q-65 0 -106.5 15.5
t-69.5 36t-51.5 36t-53.5 15.5q-28 0 -46 -20.5t-18 -66.5h-134q0 140 62.5 200t164.5 60q66 0 106.5 -15.5t67 -35.5t48.5 -35.5t51 -15.5q30 0 51 19.5t21 66.5h134q0 -140 -62.5 -200t-164.5 -60z" />
    <glyph glyph-name="adieresis" unicode="&#xe4;" horiz-adv-x="1174" 
d="M423 -23q-92 0 -162 36t-109.5 102t-39.5 155q0 76 31 135t113 109.5t235 98.5q84 27 138 50t80 50t26 64q0 43 -17 72t-54 43.5t-98 14.5q-68 0 -104 -18t-49.5 -50t-13.5 -74v-42h-255v32q0 156 104 249t324 93q161 0 255 -45t135 -126.5t41 -192.5v-425
q0 -73 18.5 -95.5t68.5 -22.5l-11 -198h-57q-112 0 -174 31t-91 96q-29 -38 -77.5 -70.5t-113 -52t-143.5 -19.5zM514 158q33 0 75 12.5t81.5 37.5t64.5 64v272q-27 -22 -86 -48.5t-127 -51.5q-89 -33 -117 -73t-28 -86q0 -65 38 -96t99 -31zM644 1311v233h265v-233h-265z
M235 1311v233h264v-233h-264z" />
    <glyph glyph-name="aring" unicode="&#xe5;" horiz-adv-x="1174" 
d="M423 -23q-92 0 -162 36t-109.5 102t-39.5 155q0 76 31 135t113 109.5t235 98.5q84 27 138 50t80 50t26 64q0 43 -17 72t-54 43.5t-98 14.5q-68 0 -104 -18t-49.5 -50t-13.5 -74v-42h-255v32q0 156 104 249t324 93q161 0 255 -45t135 -126.5t41 -192.5v-425
q0 -73 18.5 -95.5t68.5 -22.5l-11 -198h-57q-112 0 -174 31t-91 96q-29 -38 -77.5 -70.5t-113 -52t-143.5 -19.5zM514 158q33 0 75 12.5t81.5 37.5t64.5 64v272q-27 -22 -86 -48.5t-127 -51.5q-89 -33 -117 -73t-28 -86q0 -65 38 -96t99 -31zM572 1198q-126 0 -198 65
t-72 185q0 119 72 183.5t198 64.5q125 0 197.5 -64.5t72.5 -183.5q0 -120 -72 -185t-198 -65zM572 1357q37 0 61.5 18.5t24.5 71.5t-24.5 72.5t-61.5 19.5q-38 0 -62 -18.5t-24 -71.5q0 -54 24 -73t62 -19z" />
    <glyph glyph-name="ae" unicode="&#xe6;" horiz-adv-x="1734" 
d="M420 -23q-92 0 -160.5 35.5t-106.5 101t-41 154.5q-2 57 8 103t43 84t101.5 70t183.5 61q105 27 169 42t93 44t29 98q0 62 -38 100t-134 38q-68 0 -104.5 -21t-49.5 -55.5t-13 -76.5v-36h-256v26q0 156 104 254t325 98q101 0 185.5 -31.5t119.5 -98.5q54 66 132.5 98
t176.5 32q163 0 258.5 -43t137 -122t41.5 -187v-231h-612v-193q0 -88 46.5 -121.5t131.5 -33.5q62 0 101 11.5t58 51.5t21 124h252q-3 -156 -51.5 -237t-144 -110t-240.5 -29q-136 0 -225 44.5t-125 132.5l33 -4q-60 -56 -123 -94.5t-141 -58.5t-185 -20zM515 157
q33 0 76 9.5t83 32t65 60.5v261q-12 -10 -43.5 -23t-75 -25.5t-93.5 -24.5q-98 -22 -126.5 -66.5t-27.5 -90.5q2 -63 38.5 -98t103.5 -35zM1012 655h359v110q0 89 -48 115.5t-130 26.5t-131.5 -30.5t-49.5 -116.5v-105z" />
    <glyph glyph-name="ccedilla" unicode="&#xe7;" horiz-adv-x="1111" 
d="M573 -23q-183 0 -280 48.5t-133 128.5t-36 173v430q0 161 117 250.5t328 89.5q145 0 242.5 -35.5t147.5 -122t50 -240.5l-256 -20q0 98 -14.5 146.5t-52 65t-107.5 16.5q-87 0 -135 -34t-48 -117v-434q0 -86 45 -120t138 -34q71 0 109 15t52 60.5t14 136.5h254
q0 -148 -37.5 -236.5t-132 -127.5t-265.5 -39zM419 -485v122h178q32 0 44 13.5t12 32.5v58q0 20 -14 33t-42 13h-90v243h131v-166l-65 46q125 0 181.5 -42t56.5 -130v-50q0 -71 -46 -122t-159 -51h-187z" />
    <glyph glyph-name="egrave" unicode="&#xe8;" horiz-adv-x="1149" 
d="M124 336v419q0 164 124.5 253t333.5 89q248 0 352.5 -95t104.5 -257v-260h-643v-175q0 -95 49 -119.5t146 -24.5q78 0 120 13.5t58.5 49t16.5 101.5h252q0 -133 -49.5 -210t-150 -110t-252.5 -33q-131 0 -236 32.5t-165.5 110.5t-60.5 216zM782 651v126q0 60 -25.5 87.5
t-69 35t-98.5 7.5q-82 0 -137.5 -24.5t-55.5 -110.5v-121h386zM573 1256l-241 365h268l122 -365h-149z" />
    <glyph glyph-name="eacute" unicode="&#xe9;" horiz-adv-x="1149" 
d="M124 336v419q0 164 124.5 253t333.5 89q248 0 352.5 -95t104.5 -257v-260h-643v-175q0 -95 49 -119.5t146 -24.5q78 0 120 13.5t58.5 49t16.5 101.5h252q0 -133 -49.5 -210t-150 -110t-252.5 -33q-131 0 -236 32.5t-165.5 110.5t-60.5 216zM782 651v126q0 60 -25.5 87.5
t-69 35t-98.5 7.5q-82 0 -137.5 -24.5t-55.5 -110.5v-121h386zM462 1255l122 365h268l-241 -365h-149z" />
    <glyph glyph-name="ecircumflex" unicode="&#xea;" horiz-adv-x="1149" 
d="M124 336v419q0 164 124.5 253t333.5 89q248 0 352.5 -95t104.5 -257v-260h-643v-175q0 -95 49 -119.5t146 -24.5q78 0 120 13.5t58.5 49t16.5 101.5h252q0 -133 -49.5 -210t-150 -110t-252.5 -33q-131 0 -236 32.5t-165.5 110.5t-60.5 216zM782 651v126q0 60 -25.5 87.5
t-69 35t-98.5 7.5q-82 0 -137.5 -24.5t-55.5 -110.5v-121h386zM217 1256l277 365h198l277 -365h-179l-230 215h67l-231 -215h-179z" />
    <glyph glyph-name="edieresis" unicode="&#xeb;" horiz-adv-x="1149" 
d="M124 336v419q0 164 124.5 253t333.5 89q248 0 352.5 -95t104.5 -257v-260h-643v-175q0 -95 49 -119.5t146 -24.5q78 0 120 13.5t58.5 49t16.5 101.5h252q0 -133 -49.5 -210t-150 -110t-252.5 -33q-131 0 -236 32.5t-165.5 110.5t-60.5 216zM782 651v126q0 60 -25.5 87.5
t-69 35t-98.5 7.5q-82 0 -137.5 -24.5t-55.5 -110.5v-121h386zM664 1311v233h265v-233h-265zM255 1311v233h264v-233h-264z" />
    <glyph glyph-name="igrave" unicode="&#xec;" horiz-adv-x="519" 
d="M124 1074h271v-1074h-271v1074zM240 1256l-241 365h268l122 -365h-149z" />
    <glyph glyph-name="iacute" unicode="&#xed;" horiz-adv-x="519" 
d="M124 1074h271v-1074h-271v1074zM129 1255l122 365h268l-241 -365h-149z" />
    <glyph glyph-name="icircumflex" unicode="&#xee;" horiz-adv-x="488" 
d="M-76 1245l237 365h198l237 -365h-179l-190 215h67l-191 -215h-179zM124 1074h271v-1074h-271v1074z" />
    <glyph glyph-name="idieresis" unicode="&#xef;" horiz-adv-x="519" 
d="M124 1074h271v-1074h-271v1074zM331 1311v233h265v-233h-265zM-78 1311v233h264v-233h-264z" />
    <glyph glyph-name="eth" unicode="&#xf0;" horiz-adv-x="1256" 
d="M641 -23q-236 0 -355.5 98.5t-119.5 266.5v316q0 114 56 194t151.5 121.5t211.5 41.5q87 0 143 -17t80 -37q-17 133 -70 215.5t-142 107.5l-89 -174l-119 57l77 151q-64 11 -122 14t-110 3l24 167q78 0 141 -4t148 -15l86 172l120 -57l-74 -150q125 -36 226 -144
t160.5 -277.5t59.5 -390.5v-176q0 -99 -24.5 -186.5t-80.5 -154t-149 -104.5t-229 -38zM641 178q97 0 142 27t58 82.5t13 140.5q0 35 -2.5 93.5t-7.5 126t-13 128.5q-21 15 -50.5 28t-64.5 21t-75 8q-87 0 -145 -41.5t-58 -139.5v-319q0 -84 50 -119.5t153 -35.5z" />
    <glyph glyph-name="ntilde" unicode="&#xf1;" horiz-adv-x="1254" 
d="M160 1074h272v-95q62 53 137 86t192 33q121 0 196 -44.5t110 -118.5t35 -165v-770h-272v755q0 57 -29.5 87t-73 41t-86.5 11q-49 0 -97 -18t-80 -53t-32 -88v-735h-272v1074zM768 1301q-65 0 -106.5 15.5t-69.5 36t-51.5 36t-53.5 15.5q-28 0 -46 -20.5t-18 -66.5h-134
q0 140 62.5 200t164.5 60q66 0 106.5 -15.5t67 -35.5t48.5 -35.5t51 -15.5q30 0 51 19.5t21 66.5h134q0 -140 -62.5 -200t-164.5 -60z" />
    <glyph glyph-name="ograve" unicode="&#xf2;" horiz-adv-x="1180" 
d="M590 -23q-169 0 -271.5 42.5t-148.5 120.5t-46 185v423q0 110 55 188t159.5 119.5t251.5 41.5t251 -41.5t159.5 -119.5t55.5 -188v-423q0 -106 -44 -184.5t-145.5 -121t-276.5 -42.5zM590 166q87 0 140.5 32.5t53.5 114.5v447q0 82 -51 114.5t-143 32.5q-88 0 -141 -32.5
t-53 -114.5v-447q0 -82 50 -114.5t144 -32.5zM573 1256l-241 365h268l122 -365h-149z" />
    <glyph glyph-name="oacute" unicode="&#xf3;" horiz-adv-x="1180" 
d="M590 -23q-169 0 -271.5 42.5t-148.5 120.5t-46 185v423q0 110 55 188t159.5 119.5t251.5 41.5t251 -41.5t159.5 -119.5t55.5 -188v-423q0 -106 -44 -184.5t-145.5 -121t-276.5 -42.5zM590 166q87 0 140.5 32.5t53.5 114.5v447q0 82 -51 114.5t-143 32.5q-88 0 -141 -32.5
t-53 -114.5v-447q0 -82 50 -114.5t144 -32.5zM462 1255l122 365h268l-241 -365h-149z" />
    <glyph glyph-name="ocircumflex" unicode="&#xf4;" horiz-adv-x="1180" 
d="M590 -23q-169 0 -271.5 42.5t-148.5 120.5t-46 185v423q0 110 55 188t159.5 119.5t251.5 41.5t251 -41.5t159.5 -119.5t55.5 -188v-423q0 -106 -44 -184.5t-145.5 -121t-276.5 -42.5zM590 166q87 0 140.5 32.5t53.5 114.5v447q0 82 -51 114.5t-143 32.5q-88 0 -141 -32.5
t-53 -114.5v-447q0 -82 50 -114.5t144 -32.5zM217 1256l277 365h198l277 -365h-179l-230 215h67l-231 -215h-179z" />
    <glyph glyph-name="otilde" unicode="&#xf5;" horiz-adv-x="1180" 
d="M590 -23q-169 0 -271.5 42.5t-148.5 120.5t-46 185v423q0 110 55 188t159.5 119.5t251.5 41.5t251 -41.5t159.5 -119.5t55.5 -188v-423q0 -106 -44 -184.5t-145.5 -121t-276.5 -42.5zM590 166q87 0 140.5 32.5t53.5 114.5v447q0 82 -51 114.5t-143 32.5q-88 0 -141 -32.5
t-53 -114.5v-447q0 -82 50 -114.5t144 -32.5zM718 1301q-65 0 -106.5 15.5t-69.5 36t-51.5 36t-53.5 15.5q-28 0 -46 -20.5t-18 -66.5h-134q0 140 62.5 200t164.5 60q66 0 106.5 -15.5t67 -35.5t48.5 -35.5t51 -15.5q30 0 51 19.5t21 66.5h134q0 -140 -62.5 -200t-164.5 -60
z" />
    <glyph glyph-name="odieresis" unicode="&#xf6;" horiz-adv-x="1180" 
d="M590 -23q-169 0 -271.5 42.5t-148.5 120.5t-46 185v423q0 110 55 188t159.5 119.5t251.5 41.5t251 -41.5t159.5 -119.5t55.5 -188v-423q0 -106 -44 -184.5t-145.5 -121t-276.5 -42.5zM590 166q87 0 140.5 32.5t53.5 114.5v447q0 82 -51 114.5t-143 32.5q-88 0 -141 -32.5
t-53 -114.5v-447q0 -82 50 -114.5t144 -32.5zM664 1311v233h265v-233h-265zM255 1311v233h264v-233h-264z" />
    <glyph glyph-name="divide" unicode="&#xf7;" horiz-adv-x="966" 
d="M132 487v162h702v-162h-702zM369 104v229h228v-229h-228zM369 803v229h228v-229h-228z" />
    <glyph glyph-name="oslash" unicode="&#xf8;" horiz-adv-x="1180" 
d="M279 -187l531 1474l91 -27l-529 -1474zM590 -23q-169 0 -271.5 42.5t-148.5 120.5t-46 185v423q0 110 55 188t159.5 119.5t251.5 41.5t251 -41.5t159.5 -119.5t55.5 -188v-423q0 -106 -44 -184.5t-145.5 -121t-276.5 -42.5zM590 166q87 0 140.5 32.5t53.5 114.5v447
q0 82 -51 114.5t-143 32.5q-88 0 -141 -32.5t-53 -114.5v-447q0 -82 50 -114.5t144 -32.5z" />
    <glyph glyph-name="ugrave" unicode="&#xf9;" horiz-adv-x="1251" 
d="M485 -23q-103 0 -177.5 41t-115 112t-40.5 161v783h272v-739q0 -56 28 -89.5t70 -48.5t84 -15q50 0 99 17t81.5 54t32.5 97v724h272v-1074h-256l-8 118q-32 -67 -131 -104t-211 -37zM614 1256l-241 365h268l122 -365h-149z" />
    <glyph glyph-name="uacute" unicode="&#xfa;" horiz-adv-x="1251" 
d="M485 -23q-103 0 -177.5 41t-115 112t-40.5 161v783h272v-739q0 -56 28 -89.5t70 -48.5t84 -15q50 0 99 17t81.5 54t32.5 97v724h272v-1074h-256l-8 118q-32 -67 -131 -104t-211 -37zM503 1255l122 365h268l-241 -365h-149z" />
    <glyph glyph-name="ucircumflex" unicode="&#xfb;" horiz-adv-x="1251" 
d="M485 -23q-103 0 -177.5 41t-115 112t-40.5 161v783h272v-739q0 -56 28 -89.5t70 -48.5t84 -15q50 0 99 17t81.5 54t32.5 97v724h272v-1074h-256l-8 118q-32 -67 -131 -104t-211 -37zM258 1256l277 365h198l277 -365h-179l-230 215h67l-231 -215h-179z" />
    <glyph glyph-name="udieresis" unicode="&#xfc;" horiz-adv-x="1251" 
d="M485 -23q-103 0 -177.5 41t-115 112t-40.5 161v783h272v-739q0 -56 28 -89.5t70 -48.5t84 -15q50 0 99 17t81.5 54t32.5 97v724h272v-1074h-256l-8 118q-32 -67 -131 -104t-211 -37zM705 1311v233h265v-233h-265zM296 1311v233h264v-233h-264z" />
    <glyph glyph-name="yacute" unicode="&#xfd;" horiz-adv-x="1103" 
d="M148 -485l-20 225q101 15 174.5 75.5t119.5 181.5l24 63l25 -101l-437 1115h271l329 -896h-114l278 896h271l-371 -1062q-87 -249 -221.5 -361.5t-328.5 -135.5zM422 1255l122 365h268l-241 -365h-149z" />
    <glyph glyph-name="thorn" unicode="&#xfe;" horiz-adv-x="1206" 
d="M160 1516h273v-480q47 26 108 42.5t129 16.5q195 0 303.5 -94.5t108.5 -249.5v-425q0 -92 -48 -172t-146 -129t-250 -49q-64 0 -114.5 12t-90.5 29v-427h-273v1926zM616 165q92 0 142.5 36.5t50.5 118.5v435q0 80 -49.5 115.5t-134.5 35.5q-44 0 -81.5 -10t-66 -24.5
t-44.5 -30.5v-628q29 -20 70.5 -34t112.5 -14z" />
    <glyph glyph-name="ydieresis" unicode="&#xff;" horiz-adv-x="1103" 
d="M148 -485l-20 225q101 15 174.5 75.5t119.5 181.5l24 63l25 -101l-437 1115h271l329 -896h-114l278 896h271l-371 -1062q-87 -249 -221.5 -361.5t-328.5 -135.5zM624 1311v233h265v-233h-265zM215 1311v233h264v-233h-264z" />
    <glyph glyph-name="Amacron" unicode="&#x100;" horiz-adv-x="1512" 
d="M70 0l486 1476h394l492 -1476h-315l-380 1298h26l-393 -1298h-310zM351 281l59 230h694l57 -230h-810zM414 1737v167h684v-167h-684z" />
    <glyph glyph-name="amacron" unicode="&#x101;" horiz-adv-x="1174" 
d="M423 -23q-92 0 -162 36t-109.5 102t-39.5 155q0 76 31 135t113 109.5t235 98.5q84 27 138 50t80 50t26 64q0 43 -17 72t-54 43.5t-98 14.5q-68 0 -104 -18t-49.5 -50t-13.5 -74v-42h-255v32q0 156 104 249t324 93q161 0 255 -45t135 -126.5t41 -192.5v-425
q0 -73 18.5 -95.5t68.5 -22.5l-11 -198h-57q-112 0 -174 31t-91 96q-29 -38 -77.5 -70.5t-113 -52t-143.5 -19.5zM514 158q33 0 75 12.5t81.5 37.5t64.5 64v272q-27 -22 -86 -48.5t-127 -51.5q-89 -33 -117 -73t-28 -86q0 -65 38 -96t99 -31zM280 1336v167h584v-167h-584z
" />
    <glyph glyph-name="Abreve" unicode="&#x102;" horiz-adv-x="1512" 
d="M70 0l486 1476h394l492 -1476h-315l-380 1298h26l-393 -1298h-310zM351 281l59 230h694l57 -230h-810zM756 1640q-157 0 -248 86.5t-91 251.5h200q0 -65 32 -99t107 -34t107 34t32 99h200q0 -165 -91 -251.5t-248 -86.5z" />
    <glyph glyph-name="abreve" unicode="&#x103;" horiz-adv-x="1174" 
d="M423 -23q-92 0 -162 36t-109.5 102t-39.5 155q0 76 31 135t113 109.5t235 98.5q84 27 138 50t80 50t26 64q0 43 -17 72t-54 43.5t-98 14.5q-68 0 -104 -18t-49.5 -50t-13.5 -74v-42h-255v32q0 156 104 249t324 93q161 0 255 -45t135 -126.5t41 -192.5v-425
q0 -73 18.5 -95.5t68.5 -22.5l-11 -198h-57q-112 0 -174 31t-91 96q-29 -38 -77.5 -70.5t-113 -52t-143.5 -19.5zM514 158q33 0 75 12.5t81.5 37.5t64.5 64v272q-27 -22 -86 -48.5t-127 -51.5q-89 -33 -117 -73t-28 -86q0 -65 38 -96t99 -31zM572 1259q-94 0 -171 36
t-122.5 114t-45.5 203h172q0 -80 43 -129t124 -49t124 49t43 129h172q0 -125 -45.5 -203t-122 -114t-171.5 -36z" />
    <glyph glyph-name="Aogonek" unicode="&#x104;" horiz-adv-x="1512" 
d="M70 0l486 1476h394l492 -1476h-315l-380 1298h26l-393 -1298h-310zM351 281l59 230h694l57 -230h-810zM1407 -484q-148 0 -215.5 54t-67.5 160q0 72 55 151.5t137 128.5l126 -10q-60 -51 -96.5 -106.5t-36.5 -114.5q0 -55 32 -83.5t99 -28.5h35l-13 -151h-55z" />
    <glyph glyph-name="aogonek" unicode="&#x105;" horiz-adv-x="1174" 
d="M423 -23q-92 0 -162 36t-109.5 102t-39.5 155q0 76 31 135t113 109.5t235 98.5q84 27 138 50t80 50t26 64q0 43 -17 72t-54 43.5t-98 14.5q-68 0 -104 -18t-49.5 -50t-13.5 -74v-42h-255v32q0 156 104 249t324 93q161 0 255 -45t135 -126.5t41 -192.5v-425
q0 -73 18.5 -95.5t68.5 -22.5l-11 -198h-57q-112 0 -174 31t-91 96q-29 -38 -77.5 -70.5t-113 -52t-143.5 -19.5zM514 158q33 0 75 12.5t81.5 37.5t64.5 64v272q-27 -22 -86 -48.5t-127 -51.5q-89 -33 -117 -73t-28 -86q0 -65 38 -96t99 -31zM1044 -492q-148 0 -215.5 54
t-67.5 160q0 72 55 151.5t137 128.5l126 -10q-60 -51 -96.5 -106.5t-36.5 -114.5q0 -55 32 -83.5t99 -28.5h35l-13 -151h-55z" />
    <glyph glyph-name="Cacute" unicode="&#x106;" horiz-adv-x="1490" 
d="M780 -26q-197 0 -319.5 38.5t-187.5 107.5t-89 162t-24 202v493q0 112 23.5 207.5t88 166.5t187.5 110.5t321 39.5q189 0 304.5 -38.5t175.5 -108.5t81 -164.5t21 -206.5v-18l-291 -34v75q0 104 -26 160.5t-89 79t-176 22.5q-110 0 -181.5 -21.5t-106.5 -77t-35 -157.5
v-558q0 -101 35 -154.5t106.5 -73t182.5 -19.5q113 0 176 19.5t88.5 74t25.5 159.5v47h291v-27q0 -109 -20 -201t-79 -160.5t-175 -106.5t-308 -38zM620 1657l162 365h318l-281 -365h-199z" />
    <glyph glyph-name="cacute" unicode="&#x107;" horiz-adv-x="1111" 
d="M573 -23q-183 0 -280 48.5t-133 128.5t-36 173v430q0 161 117 250.5t328 89.5q145 0 242.5 -35.5t147.5 -122t50 -240.5l-256 -20q0 98 -14.5 146.5t-52 65t-107.5 16.5q-87 0 -135 -34t-48 -117v-434q0 -86 45 -120t138 -34q71 0 109 15t52 60.5t14 136.5h254
q0 -148 -37.5 -236.5t-132 -127.5t-265.5 -39zM444 1255l122 365h268l-241 -365h-149z" />
    <glyph glyph-name="Ccircumflex" unicode="&#x108;" horiz-adv-x="1490" 
d="M780 -26q-197 0 -319.5 38.5t-187.5 107.5t-89 162t-24 202v493q0 112 23.5 207.5t88 166.5t187.5 110.5t321 39.5q189 0 304.5 -38.5t175.5 -108.5t81 -164.5t21 -206.5v-18l-291 -34v75q0 104 -26 160.5t-89 79t-176 22.5q-110 0 -181.5 -21.5t-106.5 -77t-35 -157.5
v-558q0 -101 35 -154.5t106.5 -73t182.5 -19.5q113 0 176 19.5t88.5 74t25.5 159.5v47h291v-27q0 -109 -20 -201t-79 -160.5t-175 -106.5t-308 -38zM404 1638l277 355h198l277 -355h-179l-230 205h67l-231 -205h-179z" />
    <glyph glyph-name="ccircumflex" unicode="&#x109;" horiz-adv-x="1111" 
d="M573 -23q-183 0 -280 48.5t-133 128.5t-36 173v430q0 161 117 250.5t328 89.5q145 0 242.5 -35.5t147.5 -122t50 -240.5l-256 -20q0 98 -14.5 146.5t-52 65t-107.5 16.5q-87 0 -135 -34t-48 -117v-434q0 -86 45 -120t138 -34q71 0 109 15t52 60.5t14 136.5h254
q0 -148 -37.5 -236.5t-132 -127.5t-265.5 -39zM199 1256l277 365h198l277 -365h-179l-230 215h67l-231 -215h-179z" />
    <glyph glyph-name="Cdotaccent" unicode="&#x10a;" horiz-adv-x="1490" 
d="M780 -26q-197 0 -319.5 38.5t-187.5 107.5t-89 162t-24 202v493q0 112 23.5 207.5t88 166.5t187.5 110.5t321 39.5q189 0 304.5 -38.5t175.5 -108.5t81 -164.5t21 -206.5v-18l-291 -34v75q0 104 -26 160.5t-89 79t-176 22.5q-110 0 -181.5 -21.5t-106.5 -77t-35 -157.5
v-558q0 -101 35 -154.5t106.5 -73t182.5 -19.5q113 0 176 19.5t88.5 74t25.5 159.5v47h291v-27q0 -109 -20 -201t-79 -160.5t-175 -106.5t-308 -38zM653 1668v265h254v-265h-254z" />
    <glyph glyph-name="cdotaccent" unicode="&#x10b;" horiz-adv-x="1111" 
d="M573 -23q-183 0 -280 48.5t-133 128.5t-36 173v430q0 161 117 250.5t328 89.5q145 0 242.5 -35.5t147.5 -122t50 -240.5l-256 -20q0 98 -14.5 146.5t-52 65t-107.5 16.5q-87 0 -135 -34t-48 -117v-434q0 -86 45 -120t138 -34q71 0 109 15t52 60.5t14 136.5h254
q0 -148 -37.5 -236.5t-132 -127.5t-265.5 -39zM437 1250v265h274v-265h-274z" />
    <glyph glyph-name="Ccaron" unicode="&#x10c;" horiz-adv-x="1490" 
d="M780 -26q-197 0 -319.5 38.5t-187.5 107.5t-89 162t-24 202v493q0 112 23.5 207.5t88 166.5t187.5 110.5t321 39.5q189 0 304.5 -38.5t175.5 -108.5t81 -164.5t21 -206.5v-18l-291 -34v75q0 104 -26 160.5t-89 79t-176 22.5q-110 0 -181.5 -21.5t-106.5 -77t-35 -157.5
v-558q0 -101 35 -154.5t106.5 -73t182.5 -19.5q113 0 176 19.5t88.5 74t25.5 159.5v47h291v-27q0 -109 -20 -201t-79 -160.5t-175 -106.5t-308 -38zM681 1638l-277 355h179l231 -205h-67l230 205h179l-277 -355h-198z" />
    <glyph glyph-name="ccaron" unicode="&#x10d;" horiz-adv-x="1111" 
d="M573 -23q-183 0 -280 48.5t-133 128.5t-36 173v430q0 161 117 250.5t328 89.5q145 0 242.5 -35.5t147.5 -122t50 -240.5l-256 -20q0 98 -14.5 146.5t-52 65t-107.5 16.5q-87 0 -135 -34t-48 -117v-434q0 -86 45 -120t138 -34q71 0 109 15t52 60.5t14 136.5h254
q0 -148 -37.5 -236.5t-132 -127.5t-265.5 -39zM475 1255l-277 365h179l231 -215h-67l230 215h179l-277 -365h-198z" />
    <glyph glyph-name="Dcaron" unicode="&#x10e;" horiz-adv-x="1534" 
d="M190 0v1476h640q214 0 332 -68.5t165 -185t47 -261.5v-453q0 -147 -49.5 -262t-167.5 -180.5t-326 -65.5h-641zM487 231h318q105 0 164 25.5t83.5 78.5t24.5 135v530q0 80 -25 134.5t-84.5 82.5t-162.5 28h-318v-1014zM668 1638l-277 355h179l231 -205h-67l230 205h179
l-277 -355h-198z" />
    <glyph glyph-name="dcaron" unicode="&#x10f;" horiz-adv-x="1509" 
d="M124 324v429q0 149 105.5 246.5t340.5 97.5q46 0 99.5 -10.5t100.5 -27.5v456h272v-1515h-184l-29 63q-52 -37 -123.5 -61.5t-154.5 -24.5q-145 0 -240 42t-141 119.5t-46 185.5zM770 211v659q-27 13 -73.5 25t-103.5 12q-93 0 -145 -33t-52 -115v-439q0 -82 48.5 -117
t138.5 -35q56 0 106 12t81 31zM1337 953l-107 52q57 43 90 106.5t33 151.5h-140v252h282v-167q0 -158 -48.5 -253t-109.5 -142z" />
    <glyph glyph-name="Dcroat" unicode="&#x110;" horiz-adv-x="1534" 
d="M190 0v1476h640q214 0 332 -68.5t165 -185t47 -261.5v-453q0 -147 -49.5 -262t-167.5 -180.5t-326 -65.5h-641zM487 231h318q105 0 164 25.5t83.5 78.5t24.5 135v530q0 80 -25 134.5t-84.5 82.5t-162.5 28h-318v-1014zM9 706v148h704v-148h-704z" />
    <glyph glyph-name="dcroat" unicode="&#x111;" horiz-adv-x="1198" 
d="M563 1381h624v-157h-624v157zM124 324v429q0 149 105.5 246.5t340.5 97.5q46 0 99.5 -10.5t100.5 -27.5v456h272v-1515h-184l-29 63q-52 -37 -123.5 -61.5t-154.5 -24.5q-145 0 -240 42t-141 119.5t-46 185.5zM770 211v659q-27 13 -73.5 25t-103.5 12q-93 0 -145 -33
t-52 -115v-439q0 -82 48.5 -117t138.5 -35q56 0 106 12t81 31z" />
    <glyph glyph-name="Emacron" unicode="&#x112;" horiz-adv-x="1294" 
d="M190 1476h967v-224h-671v-392h595v-214h-595v-422h682v-224h-978v1476zM333 1737v167h684v-167h-684z" />
    <glyph glyph-name="emacron" unicode="&#x113;" horiz-adv-x="1149" 
d="M124 336v419q0 164 124.5 253t333.5 89q248 0 352.5 -95t104.5 -257v-260h-643v-175q0 -95 49 -119.5t146 -24.5q78 0 120 13.5t58.5 49t16.5 101.5h252q0 -133 -49.5 -210t-150 -110t-252.5 -33q-131 0 -236 32.5t-165.5 110.5t-60.5 216zM782 651v126q0 60 -25.5 87.5
t-69 35t-98.5 7.5q-82 0 -137.5 -24.5t-55.5 -110.5v-121h386zM300 1336v167h584v-167h-584z" />
    <glyph glyph-name="Ebreve" unicode="&#x114;" horiz-adv-x="1294" 
d="M190 1476h967v-224h-671v-392h595v-214h-595v-422h682v-224h-978v1476zM675 1640q-157 0 -248 86.5t-91 251.5h200q0 -65 32 -99t107 -34t107 34t32 99h200q0 -165 -91 -251.5t-248 -86.5z" />
    <glyph glyph-name="ebreve" unicode="&#x115;" horiz-adv-x="1149" 
d="M124 336v419q0 164 124.5 253t333.5 89q248 0 352.5 -95t104.5 -257v-260h-643v-175q0 -95 49 -119.5t146 -24.5q78 0 120 13.5t58.5 49t16.5 101.5h252q0 -133 -49.5 -210t-150 -110t-252.5 -33q-131 0 -236 32.5t-165.5 110.5t-60.5 216zM782 651v126q0 60 -25.5 87.5
t-69 35t-98.5 7.5q-82 0 -137.5 -24.5t-55.5 -110.5v-121h386zM592 1259q-94 0 -171 36t-122.5 114t-45.5 203h172q0 -80 43 -129t124 -49t124 49t43 129h172q0 -125 -45.5 -203t-122 -114t-171.5 -36z" />
    <glyph glyph-name="Edotaccent" unicode="&#x116;" horiz-adv-x="1294" 
d="M190 1476h967v-224h-671v-392h595v-214h-595v-422h682v-224h-978v1476zM548 1668v265h254v-265h-254z" />
    <glyph glyph-name="edotaccent" unicode="&#x117;" horiz-adv-x="1149" 
d="M124 336v419q0 164 124.5 253t333.5 89q248 0 352.5 -95t104.5 -257v-260h-643v-175q0 -95 49 -119.5t146 -24.5q78 0 120 13.5t58.5 49t16.5 101.5h252q0 -133 -49.5 -210t-150 -110t-252.5 -33q-131 0 -236 32.5t-165.5 110.5t-60.5 216zM782 651v126q0 60 -25.5 87.5
t-69 35t-98.5 7.5q-82 0 -137.5 -24.5t-55.5 -110.5v-121h386zM455 1250v265h274v-265h-274z" />
    <glyph glyph-name="Eogonek" unicode="&#x118;" horiz-adv-x="1294" 
d="M190 1476h967v-224h-671v-392h595v-214h-595v-422h682v-224h-978v1476zM1133 -484q-148 0 -215.5 54t-67.5 160q0 72 55 151.5t137 128.5l126 -10q-60 -51 -96.5 -106.5t-36.5 -114.5q0 -55 32 -83.5t99 -28.5h35l-13 -151h-55z" />
    <glyph glyph-name="eogonek" unicode="&#x119;" horiz-adv-x="1149" 
d="M124 336v419q0 164 124.5 253t333.5 89q248 0 352.5 -95t104.5 -257v-260h-643v-175q0 -95 49 -119.5t146 -24.5q78 0 120 13.5t58.5 49t16.5 101.5h252q0 -133 -49.5 -210t-150 -110t-252.5 -33q-131 0 -236 32.5t-165.5 110.5t-60.5 216zM782 651v126q0 60 -25.5 87.5
t-69 35t-98.5 7.5q-82 0 -137.5 -24.5t-55.5 -110.5v-121h386zM771 -484q-148 0 -215.5 54t-67.5 160q0 72 55 151.5t137 128.5l126 -10q-60 -51 -96.5 -106.5t-36.5 -114.5q0 -55 32 -83.5t99 -28.5h35l-13 -151h-55z" />
    <glyph glyph-name="Ecaron" unicode="&#x11a;" horiz-adv-x="1294" 
d="M190 1476h967v-224h-671v-392h595v-214h-595v-422h682v-224h-978v1476zM576 1638l-277 355h179l231 -205h-67l230 205h179l-277 -355h-198z" />
    <glyph glyph-name="ecaron" unicode="&#x11b;" horiz-adv-x="1149" 
d="M124 336v419q0 164 124.5 253t333.5 89q248 0 352.5 -95t104.5 -257v-260h-643v-175q0 -95 49 -119.5t146 -24.5q78 0 120 13.5t58.5 49t16.5 101.5h252q0 -133 -49.5 -210t-150 -110t-252.5 -33q-131 0 -236 32.5t-165.5 110.5t-60.5 216zM782 651v126q0 60 -25.5 87.5
t-69 35t-98.5 7.5q-82 0 -137.5 -24.5t-55.5 -110.5v-121h386zM493 1255l-277 365h179l231 -215h-67l230 215h179l-277 -365h-198z" />
    <glyph glyph-name="Gcircumflex" unicode="&#x11c;" horiz-adv-x="1607" 
d="M813 -26q-197 0 -324.5 38.5t-199 107.5t-100.5 162t-29 202v493q0 112 28.5 207.5t100 166.5t199 110.5t325.5 39.5q192 0 311.5 -37t183 -104t87 -157t23.5 -196v-23l-292 -22v59q0 99 -32 152.5t-101 74t-180 20.5q-110 0 -189.5 -21.5t-122.5 -77t-43 -157.5v-558
q0 -101 42.5 -154.5t122 -73t190.5 -19.5q113 0 188 19.5t112.5 73t37.5 154.5v108h-298v195h566v-757h-157l-47 170q-6 -18 -25 -50t-62 -65.5t-119 -57t-196 -23.5zM441 1638l277 355h198l277 -355h-179l-230 205h67l-231 -205h-179z" />
    <glyph glyph-name="gcircumflex" unicode="&#x11d;" horiz-adv-x="1211" 
d="M574 -441q-100 0 -199.5 14.5t-155.5 41.5l56 185q76 -21 151.5 -31.5t137.5 -10.5q117 0 170 50.5t53 161.5v118q-32 -19 -73.5 -31.5t-85.5 -18.5t-85 -6q-194 0 -306.5 88t-112.5 246v385q0 92 39 171t129 127t241 48q59 0 115.5 -13.5t104.5 -36t81 -50.5l23 78h202
v-1087q0 -132 -49.5 -228.5t-156 -148.5t-279.5 -52zM588 213q69 0 120 14t79 34v571q0 21 -53.5 48t-145.5 27q-93 0 -142.5 -34.5t-49.5 -115.5v-401q0 -81 53.5 -112t138.5 -31zM207 1256l277 365h198l277 -365h-179l-230 215h67l-231 -215h-179z" />
    <glyph glyph-name="Gbreve" unicode="&#x11e;" horiz-adv-x="1607" 
d="M813 -26q-197 0 -324.5 38.5t-199 107.5t-100.5 162t-29 202v493q0 112 28.5 207.5t100 166.5t199 110.5t325.5 39.5q192 0 311.5 -37t183 -104t87 -157t23.5 -196v-23l-292 -22v59q0 99 -32 152.5t-101 74t-180 20.5q-110 0 -189.5 -21.5t-122.5 -77t-43 -157.5v-558
q0 -101 42.5 -154.5t122 -73t190.5 -19.5q113 0 188 19.5t112.5 73t37.5 154.5v108h-298v195h566v-757h-157l-47 170q-6 -18 -25 -50t-62 -65.5t-119 -57t-196 -23.5zM817 1640q-157 0 -248 86.5t-91 251.5h200q0 -65 32 -99t107 -34t107 34t32 99h200q0 -165 -91 -251.5
t-248 -86.5z" />
    <glyph glyph-name="gbreve" unicode="&#x11f;" horiz-adv-x="1211" 
d="M574 -441q-100 0 -199.5 14.5t-155.5 41.5l56 185q76 -21 151.5 -31.5t137.5 -10.5q117 0 170 50.5t53 161.5v118q-32 -19 -73.5 -31.5t-85.5 -18.5t-85 -6q-194 0 -306.5 88t-112.5 246v385q0 92 39 171t129 127t241 48q59 0 115.5 -13.5t104.5 -36t81 -50.5l23 78h202
v-1087q0 -132 -49.5 -228.5t-156 -148.5t-279.5 -52zM588 213q69 0 120 14t79 34v571q0 21 -53.5 48t-145.5 27q-93 0 -142.5 -34.5t-49.5 -115.5v-401q0 -81 53.5 -112t138.5 -31zM582 1259q-94 0 -171 36t-122.5 114t-45.5 203h172q0 -80 43 -129t124 -49t124 49t43 129
h172q0 -125 -45.5 -203t-122 -114t-171.5 -36z" />
    <glyph glyph-name="Gdotaccent" unicode="&#x120;" horiz-adv-x="1607" 
d="M813 -26q-197 0 -324.5 38.5t-199 107.5t-100.5 162t-29 202v493q0 112 28.5 207.5t100 166.5t199 110.5t325.5 39.5q192 0 311.5 -37t183 -104t87 -157t23.5 -196v-23l-292 -22v59q0 99 -32 152.5t-101 74t-180 20.5q-110 0 -189.5 -21.5t-122.5 -77t-43 -157.5v-558
q0 -101 42.5 -154.5t122 -73t190.5 -19.5q113 0 188 19.5t112.5 73t37.5 154.5v108h-298v195h566v-757h-157l-47 170q-6 -18 -25 -50t-62 -65.5t-119 -57t-196 -23.5zM690 1668v265h254v-265h-254z" />
    <glyph glyph-name="gdotaccent" unicode="&#x121;" horiz-adv-x="1211" 
d="M574 -441q-100 0 -199.5 14.5t-155.5 41.5l56 185q76 -21 151.5 -31.5t137.5 -10.5q117 0 170 50.5t53 161.5v118q-32 -19 -73.5 -31.5t-85.5 -18.5t-85 -6q-194 0 -306.5 88t-112.5 246v385q0 92 39 171t129 127t241 48q59 0 115.5 -13.5t104.5 -36t81 -50.5l23 78h202
v-1087q0 -132 -49.5 -228.5t-156 -148.5t-279.5 -52zM588 213q69 0 120 14t79 34v571q0 21 -53.5 48t-145.5 27q-93 0 -142.5 -34.5t-49.5 -115.5v-401q0 -81 53.5 -112t138.5 -31zM445 1250v265h274v-265h-274z" />
    <glyph glyph-name="uni0122" unicode="&#x122;" horiz-adv-x="1607" 
d="M813 -26q-197 0 -324.5 38.5t-199 107.5t-100.5 162t-29 202v493q0 112 28.5 207.5t100 166.5t199 110.5t325.5 39.5q192 0 311.5 -37t183 -104t87 -157t23.5 -196v-23l-292 -22v59q0 99 -32 152.5t-101 74t-180 20.5q-110 0 -189.5 -21.5t-122.5 -77t-43 -157.5v-558
q0 -101 42.5 -154.5t122 -73t190.5 -19.5q113 0 188 19.5t112.5 73t37.5 154.5v108h-298v195h566v-757h-157l-47 170q-6 -18 -25 -50t-62 -65.5t-119 -57t-196 -23.5zM791 -635l-117 50q57 55 86.5 119t29.5 145v15.5t-1 15.5l66 -94h-189v271h281v-106q0 -151 -38 -246
t-118 -170z" />
    <glyph glyph-name="uni0123" unicode="&#x123;" horiz-adv-x="1211" 
d="M574 -441q-100 0 -199.5 14.5t-155.5 41.5l56 185q76 -21 151.5 -31.5t137.5 -10.5q117 0 170 50.5t53 161.5v118q-32 -19 -73.5 -31.5t-85.5 -18.5t-85 -6q-194 0 -306.5 88t-112.5 246v385q0 92 39 171t129 127t241 48q59 0 115.5 -13.5t104.5 -36t81 -50.5l23 78h202
v-1087q0 -132 -49.5 -228.5t-156 -148.5t-279.5 -52zM588 213q69 0 120 14t79 34v571q0 21 -53.5 48t-145.5 27q-93 0 -142.5 -34.5t-49.5 -115.5v-401q0 -81 53.5 -112t138.5 -31zM479 1236v173q0 101 20.5 175.5t61.5 132.5t104 108l117 -50q-72 -55 -109 -118.5
t-37 -144.5h165v-276h-322z" />
    <glyph glyph-name="Hcircumflex" unicode="&#x124;" horiz-adv-x="1624" 
d="M190 1476h298v-628h648v628h298v-1476h-298v615h-648v-615h-298v1476zM436 1638l277 355h198l277 -355h-179l-230 205h67l-231 -205h-179z" />
    <glyph glyph-name="hcircumflex" unicode="&#x125;" horiz-adv-x="1254" 
d="M162 1515h272v-545q35 56 129.5 91.5t206.5 35.5q103 0 177.5 -38t114.5 -105.5t40 -158.5v-795h-272v756q0 57 -28 86.5t-70 40.5t-85 11q-49 0 -98 -17.5t-82 -52t-33 -86.5v-738h-272v1515zM300 1658l277 365h198l277 -365h-179l-230 215h67l-231 -215h-179z" />
    <glyph glyph-name="Hbar" unicode="&#x126;" horiz-adv-x="1624" 
d="M84 1273h1456v-184h-1456v184zM190 1476h298v-628h648v628h298v-1476h-298v615h-648v-615h-298v1476z" />
    <glyph glyph-name="hbar" unicode="&#x127;" horiz-adv-x="1254" 
d="M17 1224v157h624v-157h-624zM162 1515h272v-545q35 56 129.5 91.5t206.5 35.5q103 0 177.5 -38t114.5 -105.5t40 -158.5v-795h-272v756q0 57 -28 86.5t-70 40.5t-85 11q-49 0 -98 -17.5t-82 -52t-33 -86.5v-738h-272v1515z" />
    <glyph glyph-name="Itilde" unicode="&#x128;" horiz-adv-x="1148" 
d="M158 222h269v1033h-269v221h832v-221h-267v-1033h267v-222h-832v222zM700 1648q-65 0 -106.5 15.5t-69.5 36t-51.5 36t-53.5 15.5q-28 0 -46 -20.5t-18 -66.5h-134q0 140 62.5 200t164.5 60q66 0 106.5 -15.5t67 -35.5t48.5 -35.5t51 -15.5q30 0 51 19.5t21 66.5h134
q0 -140 -62.5 -200t-164.5 -60z" />
    <glyph glyph-name="itilde" unicode="&#x129;" horiz-adv-x="519" 
d="M124 1074h271v-1074h-271v1074zM385 1301q-65 0 -106.5 15.5t-69.5 36t-51.5 36t-53.5 15.5q-28 0 -46 -20.5t-18 -66.5h-134q0 140 62.5 200t164.5 60q66 0 106.5 -15.5t67 -35.5t48.5 -35.5t51 -15.5q30 0 51 19.5t21 66.5h134q0 -140 -62.5 -200t-164.5 -60z" />
    <glyph glyph-name="Imacron" unicode="&#x12a;" horiz-adv-x="1148" 
d="M158 222h269v1033h-269v221h832v-221h-267v-1033h267v-222h-832v222zM232 1737v167h684v-167h-684z" />
    <glyph glyph-name="imacron" unicode="&#x12b;" horiz-adv-x="519" 
d="M124 1074h271v-1074h-271v1074zM-33 1336v167h584v-167h-584z" />
    <glyph glyph-name="Ibreve" unicode="&#x12c;" horiz-adv-x="1148" 
d="M158 222h269v1033h-269v221h832v-221h-267v-1033h267v-222h-832v222zM574 1640q-157 0 -248 86.5t-91 251.5h200q0 -65 32 -99t107 -34t107 34t32 99h200q0 -165 -91 -251.5t-248 -86.5z" />
    <glyph glyph-name="ibreve" unicode="&#x12d;" horiz-adv-x="488" 
d="M-50 1593h172q0 -80 32 -129t105 -49q74 0 105.5 49t31.5 129h172q0 -125 -44 -203t-114.5 -114t-150.5 -36q-79 0 -150 36t-115 114t-44 203zM124 1074h271v-1074h-271v1074z" />
    <glyph glyph-name="Iogonek" unicode="&#x12e;" horiz-adv-x="1148" 
d="M158 222h269v1033h-269v221h832v-221h-267v-1033h267v-222h-832v222zM955 -484q-148 0 -215.5 54t-67.5 160q0 72 55 151.5t137 128.5l126 -10q-60 -51 -96.5 -106.5t-36.5 -114.5q0 -55 32 -83.5t99 -28.5h35l-13 -151h-55z" />
    <glyph glyph-name="iogonek" unicode="&#x12f;" horiz-adv-x="519" 
d="M124 1074h271v-1074h-271v1074zM122 1250v265h274v-265h-274zM350 -484q-148 0 -215.5 54t-67.5 160q0 72 55 151.5t137 128.5l126 -10q-60 -51 -96.5 -106.5t-36.5 -114.5q0 -55 32 -83.5t99 -28.5h35l-13 -151h-55z" />
    <glyph glyph-name="Idotaccent" unicode="&#x130;" horiz-adv-x="1148" 
d="M158 222h269v1033h-269v221h832v-221h-267v-1033h267v-222h-832v222zM447 1668v265h254v-265h-254z" />
    <glyph glyph-name="dotlessi" unicode="&#x131;" horiz-adv-x="519" 
d="M124 1074h271v-1074h-271v1074z" />
    <glyph glyph-name="IJ" unicode="&#x132;" horiz-adv-x="2370" 
d="M158 222h269v1033h-269v221h832v-221h-267v-1033h267v-222h-832v222zM1218 67l69 220q49 -22 109.5 -40t122.5 -28t114 -10q140 0 197 68t57 164v809h-508v226h805v-1054q0 -213 -142 -330t-390 -117q-72 0 -147.5 10.5t-148.5 31t-138 50.5z" />
    <glyph glyph-name="ij" unicode="&#x133;" horiz-adv-x="1169" 
d="M124 1074h271v-1074h-271v1074zM122 1250v265h274v-265h-274zM501 -168h45q70 0 107 27.5t50.5 68.5t13.5 82v1064h273v-1077q0 -106 -38 -187t-120 -126.5t-216 -45.5h-101zM716 1250v265h274v-265h-274z" />
    <glyph glyph-name="Jcircumflex" unicode="&#x134;" horiz-adv-x="1222" 
d="M70 67l69 220q49 -22 109.5 -40t122.5 -28t114 -10q140 0 197 68t57 164v809h-508v226h805v-1054q0 -213 -142 -330t-390 -117q-72 0 -147.5 10.5t-148.5 31t-138 50.5zM253 1638l277 355h198l277 -355h-179l-230 205h67l-231 -205h-179z" />
    <glyph glyph-name="jcircumflex" unicode="&#x135;" horiz-adv-x="650" 
d="M-18 -168h45q70 0 107 27.5t50.5 68.5t13.5 82v1064h273v-1077q0 -106 -38 -187t-120 -126.5t-216 -45.5h-101zM-41 1256l277 365h198l277 -365h-179l-230 215h67l-231 -215h-179z" />
    <glyph glyph-name="uni0136" unicode="&#x136;" horiz-adv-x="1448" 
d="M779 715h-73l-219 -273v-442h-297v1476h297v-716l574 716h328zM616 696l209 173l601 -869h-335zM749 -635l-117 50q57 55 86.5 119t29.5 145v15.5t-1 15.5l66 -94h-189v271h281v-106q0 -151 -38 -246t-118 -170z" />
    <glyph glyph-name="uni0137" unicode="&#x137;" horiz-adv-x="1199" 
d="M162 1516h272v-914l425 472h310l-404 -463l422 -611h-297l-336 497l-120 -123v-374h-272v1516zM625 -635l-117 50q57 55 86.5 119t29.5 145v15.5t-1 15.5l66 -94h-189v271h281v-106q0 -151 -38 -246t-118 -170z" />
    <glyph glyph-name="kgreenlandic" unicode="&#x138;" horiz-adv-x="1208" 
d="M171 1074h272v-472l425 472h310l-404 -463l422 -611h-297l-336 497l-120 -123v-374h-272v1074z" />
    <glyph glyph-name="Lacute" unicode="&#x139;" horiz-adv-x="1172" 
d="M190 1476h297v-1244h617v-232h-914v1476zM179 1657l162 365h318l-281 -365h-199z" />
    <glyph glyph-name="lacute" unicode="&#x13a;" horiz-adv-x="708" 
d="M164 353v1162h272v-1158q0 -59 17.5 -96t59.5 -54t115 -17h34l-21 -202h-114q-119 0 -200 35t-122 115t-41 215zM170 1657l122 365h268l-241 -365h-149z" />
    <glyph glyph-name="uni013B" unicode="&#x13b;" horiz-adv-x="1172" 
d="M190 1476h297v-1244h617v-232h-914v1476zM656 -635l-117 50q57 55 86.5 119t29.5 145v15.5t-1 15.5l66 -94h-189v271h281v-106q0 -151 -38 -246t-118 -170z" />
    <glyph glyph-name="uni013C" unicode="&#x13c;" horiz-adv-x="708" 
d="M164 353v1162h272v-1158q0 -59 17.5 -96t59.5 -54t115 -17h34l-21 -202h-114q-119 0 -200 35t-122 115t-41 215zM431 -635l-117 50q57 55 86.5 119t29.5 145v15.5t-1 15.5l66 -94h-189v271h281v-106q0 -151 -38 -246t-118 -170z" />
    <glyph glyph-name="Lcaron" unicode="&#x13d;" horiz-adv-x="1172" 
d="M190 1476h297v-1244h617v-232h-914v1476zM905 914l-107 52q57 43 90 106.5t33 151.5h-140v252h282v-167q0 -158 -48.5 -253t-109.5 -142z" />
    <glyph glyph-name="lcaron" unicode="&#x13e;" horiz-adv-x="895" 
d="M164 353v1162h272v-1158q0 -59 17.5 -96t59.5 -54t115 -17h34l-21 -202h-114q-119 0 -200 35t-122 115t-41 215zM729 953l-107 52q57 43 90 106.5t33 151.5h-140v252h282v-167q0 -158 -48.5 -253t-109.5 -142z" />
    <glyph glyph-name="Ldot" unicode="&#x13f;" horiz-adv-x="1172" 
d="M190 1476h297v-1244h617v-232h-914v1476zM799 940h248v-245h-248v245z" />
    <glyph glyph-name="ldot" unicode="&#x140;" horiz-adv-x="708" 
d="M530 982h248v-245h-248v245zM164 353v1162h272v-1158q0 -59 17.5 -96t59.5 -54t115 -17h34l-21 -202h-114q-119 0 -200 35t-122 115t-41 215z" />
    <glyph glyph-name="Lslash" unicode="&#x141;" horiz-adv-x="1172" 
d="M24 770l726 294v-210l-726 -294v210zM190 1476h297v-1244h617v-232h-914v1476z" />
    <glyph glyph-name="lslash" unicode="&#x142;" horiz-adv-x="708" 
d="M25 620v173l607 248v-174zM164 353v1162h272v-1158q0 -59 17.5 -96t59.5 -54t115 -17h34l-21 -202h-114q-119 0 -200 35t-122 115t-41 215z" />
    <glyph glyph-name="Nacute" unicode="&#x143;" horiz-adv-x="1634" 
d="M190 1476h223l794 -1048l-27 -9v1057h264v-1476h-223l-791 1032l27 9v-1041h-267v1476zM657 1657l162 365h318l-281 -365h-199z" />
    <glyph glyph-name="nacute" unicode="&#x144;" horiz-adv-x="1254" 
d="M160 1074h272v-95q62 53 137 86t192 33q121 0 196 -44.5t110 -118.5t35 -165v-770h-272v755q0 57 -29.5 87t-73 41t-86.5 11q-49 0 -97 -18t-80 -53t-32 -88v-735h-272v1074zM512 1255l122 365h268l-241 -365h-149z" />
    <glyph glyph-name="uni0145" unicode="&#x145;" horiz-adv-x="1634" 
d="M190 1476h223l794 -1048l-27 -9v1057h264v-1476h-223l-791 1032l27 9v-1041h-267v1476zM801 -635l-117 50q57 55 86.5 119t29.5 145v15.5t-1 15.5l66 -94h-189v271h281v-106q0 -151 -38 -246t-118 -170z" />
    <glyph glyph-name="uni0146" unicode="&#x146;" horiz-adv-x="1254" 
d="M160 1074h272v-95q62 53 137 86t192 33q121 0 196 -44.5t110 -118.5t35 -165v-770h-272v755q0 57 -29.5 87t-73 41t-86.5 11q-49 0 -97 -18t-80 -53t-32 -88v-735h-272v1074zM611 -635l-117 50q57 55 86.5 119t29.5 145v15.5t-1 15.5l66 -94h-189v271h281v-106
q0 -151 -38 -246t-118 -170z" />
    <glyph glyph-name="Ncaron" unicode="&#x147;" horiz-adv-x="1634" 
d="M190 1476h223l794 -1048l-27 -9v1057h264v-1476h-223l-791 1032l27 9v-1041h-267v1476zM718 1638l-277 355h179l231 -205h-67l230 205h179l-277 -355h-198z" />
    <glyph glyph-name="ncaron" unicode="&#x148;" horiz-adv-x="1254" 
d="M160 1074h272v-95q62 53 137 86t192 33q121 0 196 -44.5t110 -118.5t35 -165v-770h-272v755q0 57 -29.5 87t-73 41t-86.5 11q-49 0 -97 -18t-80 -53t-32 -88v-735h-272v1074zM543 1255l-277 365h179l231 -215h-67l230 215h179l-277 -365h-198z" />
    <glyph glyph-name="napostrophe" unicode="&#x149;" horiz-adv-x="1414" 
d="M320 1074h272v-95q62 53 137 86t192 33q121 0 196 -44.5t110 -118.5t35 -165v-770h-272v755q0 57 -29.5 87t-73 41t-86.5 11q-49 0 -97 -18t-80 -53t-32 -88v-735h-272v1074zM56 857l-117 50q65 62 105.5 137t40.5 156h-165v276h322v-173q0 -151 -49.5 -257t-136.5 -189z
" />
    <glyph glyph-name="Eng" unicode="&#x14a;" horiz-adv-x="1640" 
d="M873 -192q87 8 146 19t93.5 40t49.5 88t15 162v36l-719 843v-996h-268v1477h225l768 -917v917h267v-1315q0 -190 -45 -310.5t-164 -177t-340 -56.5z" />
    <glyph glyph-name="eng" unicode="&#x14b;" horiz-adv-x="1254" 
d="M525 -175q92 8 151 20.5t92.5 44.5t47 98.5t13.5 183.5v596q0 57 -29 87t-72.5 41t-85.5 11q-49 0 -97.5 -15.5t-80 -48t-31.5 -85.5v-758h-273v1074h273v-126q35 62 123 105.5t200 43.5q103 0 181 -38t121.5 -106t43.5 -159v-615q0 -190 -45 -310.5t-164 -177
t-340 -56.5z" />
    <glyph glyph-name="Omacron" unicode="&#x14c;" horiz-adv-x="1606" 
d="M814 -26q-199 0 -327 41t-199 113t-99.5 168t-28.5 205v462q0 112 28 209.5t99 171.5t199 115.5t328 41.5q191 0 314.5 -44t193 -120.5t97 -176.5t27.5 -212v-431q0 -109 -28 -206.5t-97.5 -173.5t-192.5 -119.5t-314 -43.5zM814 207q112 0 186 23t111 80t37 158v535
q0 99 -37 157t-111.5 83t-185.5 25q-110 0 -190 -24t-123 -82t-43 -159v-535q0 -101 42.5 -158t122.5 -80t191 -23zM461 1737v167h684v-167h-684z" />
    <glyph glyph-name="omacron" unicode="&#x14d;" horiz-adv-x="1180" 
d="M590 -23q-169 0 -271.5 42.5t-148.5 120.5t-46 185v423q0 110 55 188t159.5 119.5t251.5 41.5t251 -41.5t159.5 -119.5t55.5 -188v-423q0 -106 -44 -184.5t-145.5 -121t-276.5 -42.5zM590 166q87 0 140.5 32.5t53.5 114.5v447q0 82 -51 114.5t-143 32.5q-88 0 -141 -32.5
t-53 -114.5v-447q0 -82 50 -114.5t144 -32.5zM300 1336v167h584v-167h-584z" />
    <glyph glyph-name="Obreve" unicode="&#x14e;" horiz-adv-x="1606" 
d="M814 -26q-199 0 -327 41t-199 113t-99.5 168t-28.5 205v462q0 112 28 209.5t99 171.5t199 115.5t328 41.5q191 0 314.5 -44t193 -120.5t97 -176.5t27.5 -212v-431q0 -109 -28 -206.5t-97.5 -173.5t-192.5 -119.5t-314 -43.5zM814 207q112 0 186 23t111 80t37 158v535
q0 99 -37 157t-111.5 83t-185.5 25q-110 0 -190 -24t-123 -82t-43 -159v-535q0 -101 42.5 -158t122.5 -80t191 -23zM803 1640q-157 0 -248 86.5t-91 251.5h200q0 -65 32 -99t107 -34t107 34t32 99h200q0 -165 -91 -251.5t-248 -86.5z" />
    <glyph glyph-name="obreve" unicode="&#x14f;" horiz-adv-x="1180" 
d="M590 -23q-169 0 -271.5 42.5t-148.5 120.5t-46 185v423q0 110 55 188t159.5 119.5t251.5 41.5t251 -41.5t159.5 -119.5t55.5 -188v-423q0 -106 -44 -184.5t-145.5 -121t-276.5 -42.5zM590 166q87 0 140.5 32.5t53.5 114.5v447q0 82 -51 114.5t-143 32.5q-88 0 -141 -32.5
t-53 -114.5v-447q0 -82 50 -114.5t144 -32.5zM592 1259q-94 0 -171 36t-122.5 114t-45.5 203h172q0 -80 43 -129t124 -49t124 49t43 129h172q0 -125 -45.5 -203t-122 -114t-171.5 -36z" />
    <glyph glyph-name="Ohungarumlaut" unicode="&#x150;" horiz-adv-x="1606" 
d="M814 -26q-199 0 -327 41t-199 113t-99.5 168t-28.5 205v462q0 112 28 209.5t99 171.5t199 115.5t328 41.5q191 0 314.5 -44t193 -120.5t97 -176.5t27.5 -212v-431q0 -109 -28 -206.5t-97.5 -173.5t-192.5 -119.5t-314 -43.5zM814 207q112 0 186 23t111 80t37 158v535
q0 99 -37 157t-111.5 83t-185.5 25q-110 0 -190 -24t-123 -82t-43 -159v-535q0 -101 42.5 -158t122.5 -80t191 -23zM865 1651l42 365h258l-161 -365h-139zM565 1651l42 365h258l-161 -365h-139z" />
    <glyph glyph-name="ohungarumlaut" unicode="&#x151;" horiz-adv-x="1180" 
d="M590 -23q-169 0 -271.5 42.5t-148.5 120.5t-46 185v423q0 110 55 188t159.5 119.5t251.5 41.5t251 -41.5t159.5 -119.5t55.5 -188v-423q0 -106 -44 -184.5t-145.5 -121t-276.5 -42.5zM590 166q87 0 140.5 32.5t53.5 114.5v447q0 82 -51 114.5t-143 32.5q-88 0 -141 -32.5
t-53 -114.5v-447q0 -82 50 -114.5t144 -32.5zM650 1256l42 365h258l-161 -365h-139zM322 1256l42 365h258l-161 -365h-139z" />
    <glyph glyph-name="OE" unicode="&#x152;" horiz-adv-x="1734" 
d="M160 506v452q0 108 24 202t84.5 165t169.5 111t279 40h889v-224h-426v-394h343v-213h-343v-421h428v-224h-891q-169 0 -278 37t-170 105t-85 160.5t-24 203.5zM886 225v1019h-145q-109 0 -170.5 -34.5t-87 -92.5t-25.5 -130v-509q0 -71 25 -128.5t87 -91t172 -33.5h144z
" />
    <glyph glyph-name="oe" unicode="&#x153;" horiz-adv-x="1780" 
d="M584 -23q-169 0 -270 42.5t-145.5 121t-44.5 185.5v423q0 166 126 257t334 91q99 0 180 -29t139 -91q59 63 139 91.5t178 28.5q245 0 347.5 -95t102.5 -257v-233h-628v-191q0 -88 50 -121.5t135 -33.5q61 0 103 12.5t64 53.5t22 125h254q0 -153 -51.5 -235t-151.5 -113.5
t-245 -31.5q-94 0 -175.5 29.5t-141.5 83.5q-52 -51 -130 -82t-191 -31zM584 166q86 0 135.5 33t49.5 115v448q0 80 -46.5 112.5t-138.5 32.5q-85 0 -136 -32t-51 -113v-448q0 -82 47.5 -115t139.5 -33zM1042 655h371v110q0 89 -52 115.5t-134 26.5t-133.5 -30.5
t-51.5 -116.5v-105z" />
    <glyph glyph-name="Racute" unicode="&#x154;" horiz-adv-x="1484" 
d="M190 0v1476h637q196 0 303 -55t148.5 -154t41.5 -232q0 -91 -16.5 -170.5t-63.5 -140.5t-137 -98l285 -626h-308l-259 583h-334v-583h-297zM487 795h365q76 0 115.5 30.5t54 82t14.5 114.5q0 60 -12.5 116t-49 91.5t-110.5 35.5h-377v-470zM564 1657l162 365h318
l-281 -365h-199z" />
    <glyph glyph-name="racute" unicode="&#x155;" horiz-adv-x="831" 
d="M160 1074h272v-128q24 42 84.5 74.5t138.5 51t156 18.5l-6 -231q-52 -3 -113 -13t-117.5 -27t-95.5 -42t-47 -57v-720h-272v1074zM392 1255l122 365h268l-241 -365h-149z" />
    <glyph glyph-name="uni0156" unicode="&#x156;" horiz-adv-x="1484" 
d="M190 0v1476h637q196 0 303 -55t148.5 -154t41.5 -232q0 -91 -16.5 -170.5t-63.5 -140.5t-137 -98l285 -626h-308l-259 583h-334v-583h-297zM487 795h365q76 0 115.5 30.5t54 82t14.5 114.5q0 60 -12.5 116t-49 91.5t-110.5 35.5h-377v-470zM726 -635l-117 50
q57 55 86.5 119t29.5 145v15.5t-1 15.5l66 -94h-189v271h281v-106q0 -151 -38 -246t-118 -170z" />
    <glyph glyph-name="uni0157" unicode="&#x157;" horiz-adv-x="831" 
d="M160 1074h272v-128q24 42 84.5 74.5t138.5 51t156 18.5l-6 -231q-52 -3 -113 -13t-117.5 -27t-95.5 -42t-47 -57v-720h-272v1074zM282 -635l-117 50q57 55 86.5 119t29.5 145v15.5t-1 15.5l66 -94h-189v271h281v-106q0 -151 -38 -246t-118 -170z" />
    <glyph glyph-name="Rcaron" unicode="&#x158;" horiz-adv-x="1484" 
d="M190 0v1476h637q196 0 303 -55t148.5 -154t41.5 -232q0 -91 -16.5 -170.5t-63.5 -140.5t-137 -98l285 -626h-308l-259 583h-334v-583h-297zM487 795h365q76 0 115.5 30.5t54 82t14.5 114.5q0 60 -12.5 116t-49 91.5t-110.5 35.5h-377v-470zM625 1638l-277 355h179
l231 -205h-67l230 205h179l-277 -355h-198z" />
    <glyph glyph-name="rcaron" unicode="&#x159;" horiz-adv-x="831" 
d="M160 1074h272v-128q24 42 84.5 74.5t138.5 51t156 18.5l-6 -231q-52 -3 -113 -13t-117.5 -27t-95.5 -42t-47 -57v-720h-272v1074zM423 1255l-277 365h179l231 -215h-67l230 215h179l-277 -365h-198z" />
    <glyph glyph-name="Sacute" unicode="&#x15a;" horiz-adv-x="1281" 
d="M688 -26q-151 0 -304 36t-264 98l102 217q85 -45 203.5 -81.5t255.5 -36.5q91 0 137.5 26t63 72.5t16.5 106.5q0 41 -14 75.5t-57.5 64t-132.5 55.5l-252 74q-120 36 -186.5 96.5t-93 141.5t-26.5 175q0 138 67.5 228t184 134.5t261.5 44.5q146 0 269 -28t225 -87
l-84 -209q-82 39 -179 65t-205 26q-113 0 -180 -34.5t-67 -129.5q0 -76 39.5 -117t151.5 -75l251 -75q149 -45 224 -143t75 -272q0 -125 -50 -226.5t-156 -161.5t-275 -60zM510 1657l162 365h318l-281 -365h-199z" />
    <glyph glyph-name="sacute" unicode="&#x15b;" horiz-adv-x="994" 
d="M108 61l55 185q86 -37 180.5 -58.5t173.5 -21.5q74 0 110 35.5t36 97.5q0 47 -20.5 73.5t-70.5 42.5l-236 74q-127 40 -174.5 118t-47.5 186q0 154 108.5 229t277.5 75q138 0 234 -29t154 -62l-64 -169q-31 17 -82 33t-108.5 26.5t-108.5 10.5q-86 0 -118 -30t-32 -83
q0 -34 16 -59.5t57 -38.5l222 -70q91 -28 143.5 -71.5t75.5 -105.5t23 -146q0 -90 -42.5 -164t-128 -118t-214.5 -44q-136 0 -235.5 20.5t-183.5 63.5zM378 1255l122 365h268l-241 -365h-149z" />
    <glyph glyph-name="Scircumflex" unicode="&#x15c;" horiz-adv-x="1281" 
d="M688 -26q-151 0 -304 36t-264 98l102 217q85 -45 203.5 -81.5t255.5 -36.5q91 0 137.5 26t63 72.5t16.5 106.5q0 41 -14 75.5t-57.5 64t-132.5 55.5l-252 74q-120 36 -186.5 96.5t-93 141.5t-26.5 175q0 138 67.5 228t184 134.5t261.5 44.5q146 0 269 -28t225 -87
l-84 -209q-82 39 -179 65t-205 26q-113 0 -180 -34.5t-67 -129.5q0 -76 39.5 -117t151.5 -75l251 -75q149 -45 224 -143t75 -272q0 -125 -50 -226.5t-156 -161.5t-275 -60zM294 1638l277 355h198l277 -355h-179l-230 205h67l-231 -205h-179z" />
    <glyph glyph-name="scircumflex" unicode="&#x15d;" horiz-adv-x="994" 
d="M108 61l55 185q86 -37 180.5 -58.5t173.5 -21.5q74 0 110 35.5t36 97.5q0 47 -20.5 73.5t-70.5 42.5l-236 74q-127 40 -174.5 118t-47.5 186q0 154 108.5 229t277.5 75q138 0 234 -29t154 -62l-64 -169q-31 17 -82 33t-108.5 26.5t-108.5 10.5q-86 0 -118 -30t-32 -83
q0 -34 16 -59.5t57 -38.5l222 -70q91 -28 143.5 -71.5t75.5 -105.5t23 -146q0 -90 -42.5 -164t-128 -118t-214.5 -44q-136 0 -235.5 20.5t-183.5 63.5zM133 1256l277 365h198l277 -365h-179l-230 215h67l-231 -215h-179z" />
    <glyph glyph-name="Scedilla" unicode="&#x15e;" horiz-adv-x="1281" 
d="M688 -26q-151 0 -304 36t-264 98l102 217q85 -45 203.5 -81.5t255.5 -36.5q91 0 137.5 26t63 72.5t16.5 106.5q0 41 -14 75.5t-57.5 64t-132.5 55.5l-252 74q-120 36 -186.5 96.5t-93 141.5t-26.5 175q0 138 67.5 228t184 134.5t261.5 44.5q146 0 269 -28t225 -87
l-84 -209q-82 39 -179 65t-205 26q-113 0 -180 -34.5t-67 -129.5q0 -76 39.5 -117t151.5 -75l251 -75q149 -45 224 -143t75 -272q0 -125 -50 -226.5t-156 -161.5t-275 -60zM489 -485v122h178q32 0 44 13.5t12 32.5v58q0 20 -14 33t-42 13h-90v243h131v-166l-65 46
q125 0 181.5 -42t56.5 -130v-50q0 -71 -46 -122t-159 -51h-187z" />
    <glyph glyph-name="scedilla" unicode="&#x15f;" horiz-adv-x="994" 
d="M108 61l55 185q86 -37 180.5 -58.5t173.5 -21.5q74 0 110 35.5t36 97.5q0 47 -20.5 73.5t-70.5 42.5l-236 74q-127 40 -174.5 118t-47.5 186q0 154 108.5 229t277.5 75q138 0 234 -29t154 -62l-64 -169q-31 17 -82 33t-108.5 26.5t-108.5 10.5q-86 0 -118 -30t-32 -83
q0 -34 16 -59.5t57 -38.5l222 -70q91 -28 143.5 -71.5t75.5 -105.5t23 -146q0 -90 -42.5 -164t-128 -118t-214.5 -44q-136 0 -235.5 20.5t-183.5 63.5zM351 -485v122h178q32 0 44 13.5t12 32.5v58q0 20 -14 33t-42 13h-90v243h131v-166l-65 46q125 0 181.5 -42t56.5 -130
v-50q0 -71 -46 -122t-159 -51h-187z" />
    <glyph glyph-name="Scaron" unicode="&#x160;" horiz-adv-x="1281" 
d="M688 -26q-151 0 -304 36t-264 98l102 217q85 -45 203.5 -81.5t255.5 -36.5q91 0 137.5 26t63 72.5t16.5 106.5q0 41 -14 75.5t-57.5 64t-132.5 55.5l-252 74q-120 36 -186.5 96.5t-93 141.5t-26.5 175q0 138 67.5 228t184 134.5t261.5 44.5q146 0 269 -28t225 -87
l-84 -209q-82 39 -179 65t-205 26q-113 0 -180 -34.5t-67 -129.5q0 -76 39.5 -117t151.5 -75l251 -75q149 -45 224 -143t75 -272q0 -125 -50 -226.5t-156 -161.5t-275 -60zM571 1638l-277 355h179l231 -205h-67l230 205h179l-277 -355h-198z" />
    <glyph glyph-name="scaron" unicode="&#x161;" horiz-adv-x="994" 
d="M108 61l55 185q86 -37 180.5 -58.5t173.5 -21.5q74 0 110 35.5t36 97.5q0 47 -20.5 73.5t-70.5 42.5l-236 74q-127 40 -174.5 118t-47.5 186q0 154 108.5 229t277.5 75q138 0 234 -29t154 -62l-64 -169q-31 17 -82 33t-108.5 26.5t-108.5 10.5q-86 0 -118 -30t-32 -83
q0 -34 16 -59.5t57 -38.5l222 -70q91 -28 143.5 -71.5t75.5 -105.5t23 -146q0 -90 -42.5 -164t-128 -118t-214.5 -44q-136 0 -235.5 20.5t-183.5 63.5zM409 1255l-277 365h179l231 -215h-67l230 215h179l-277 -365h-198z" />
    <glyph glyph-name="uni0162" unicode="&#x162;" horiz-adv-x="1194" 
d="M449 0v1250h-411v226h1118v-226h-411v-1250h-296zM440 -485v122h178q32 0 44 13.5t12 32.5v58q0 20 -14 33t-42 13h-90v243h131v-166l-65 46q125 0 181.5 -42t56.5 -130v-50q0 -71 -46 -122t-159 -51h-187z" />
    <glyph glyph-name="uni0163" unicode="&#x163;" horiz-adv-x="812" 
d="M206 347v554h-142v173h150l25 345h239v-345h255v-173h-255v-534q0 -100 43.5 -138.5t166.5 -38.5h52l-10 -202h-74q-162 0 -261 32t-144 110.5t-45 216.5zM316 -485v122h178q32 0 44 13.5t12 32.5v58q0 20 -14 33t-42 13h-90v243h131v-166l-65 46q125 0 181.5 -42
t56.5 -130v-50q0 -71 -46 -122t-159 -51h-187z" />
    <glyph glyph-name="Tcaron" unicode="&#x164;" horiz-adv-x="1194" 
d="M449 0v1250h-411v226h1118v-226h-411v-1250h-296zM502 1638l-277 355h179l231 -205h-67l230 205h179l-277 -355h-198z" />
    <glyph glyph-name="tcaron" unicode="&#x165;" horiz-adv-x="812" 
d="M206 347v554h-142v173h150l25 345h239v-345h255v-173h-255v-534q0 -100 43.5 -138.5t166.5 -38.5h52l-10 -202h-74q-162 0 -261 32t-144 110.5t-45 216.5zM714 1153l-107 52q57 43 90 106.5t33 151.5h-140v252h282v-167q0 -158 -48.5 -253t-109.5 -142z" />
    <glyph glyph-name="Tbar" unicode="&#x166;" horiz-adv-x="1194" 
d="M249 811h696v-190h-696v190zM449 0v1250h-411v226h1118v-226h-411v-1250h-296z" />
    <glyph glyph-name="tbar" unicode="&#x167;" horiz-adv-x="802" 
d="M47 672h644v-170h-644v170zM206 347v554h-142v173h150l25 345h239v-345h255v-173h-255v-534q0 -100 43.5 -138.5t166.5 -38.5h52l-10 -202h-74q-162 0 -261 32t-144 110.5t-45 216.5z" />
    <glyph glyph-name="Utilde" unicode="&#x168;" horiz-adv-x="1574" 
d="M796 -26q-189 0 -310.5 37t-189 104t-94 157t-26.5 196v1009h297v-1022q0 -97 38 -151t110.5 -75.5t174.5 -21.5q104 0 171.5 22t100.5 76t33 150v1022h297v-997q0 -105 -25 -197t-89.5 -161.5t-182.5 -108.5t-305 -39zM913 1648q-65 0 -106.5 15.5t-69.5 36t-51.5 36
t-53.5 15.5q-28 0 -46 -20.5t-18 -66.5h-134q0 140 62.5 200t164.5 60q66 0 106.5 -15.5t67 -35.5t48.5 -35.5t51 -15.5q30 0 51 19.5t21 66.5h134q0 -140 -62.5 -200t-164.5 -60z" />
    <glyph glyph-name="utilde" unicode="&#x169;" horiz-adv-x="1251" 
d="M485 -23q-103 0 -177.5 41t-115 112t-40.5 161v783h272v-739q0 -56 28 -89.5t70 -48.5t84 -15q50 0 99 17t81.5 54t32.5 97v724h272v-1074h-256l-8 118q-32 -67 -131 -104t-211 -37zM759 1301q-65 0 -106.5 15.5t-69.5 36t-51.5 36t-53.5 15.5q-28 0 -46 -20.5t-18 -66.5
h-134q0 140 62.5 200t164.5 60q66 0 106.5 -15.5t67 -35.5t48.5 -35.5t51 -15.5q30 0 51 19.5t21 66.5h134q0 -140 -62.5 -200t-164.5 -60z" />
    <glyph glyph-name="Umacron" unicode="&#x16a;" horiz-adv-x="1574" 
d="M796 -26q-189 0 -310.5 37t-189 104t-94 157t-26.5 196v1009h297v-1022q0 -97 38 -151t110.5 -75.5t174.5 -21.5q104 0 171.5 22t100.5 76t33 150v1022h297v-997q0 -105 -25 -197t-89.5 -161.5t-182.5 -108.5t-305 -39zM445 1737v167h684v-167h-684z" />
    <glyph glyph-name="umacron" unicode="&#x16b;" horiz-adv-x="1251" 
d="M485 -23q-103 0 -177.5 41t-115 112t-40.5 161v783h272v-739q0 -56 28 -89.5t70 -48.5t84 -15q50 0 99 17t81.5 54t32.5 97v724h272v-1074h-256l-8 118q-32 -67 -131 -104t-211 -37zM341 1336v167h584v-167h-584z" />
    <glyph glyph-name="Ubreve" unicode="&#x16c;" horiz-adv-x="1574" 
d="M796 -26q-189 0 -310.5 37t-189 104t-94 157t-26.5 196v1009h297v-1022q0 -97 38 -151t110.5 -75.5t174.5 -21.5q104 0 171.5 22t100.5 76t33 150v1022h297v-997q0 -105 -25 -197t-89.5 -161.5t-182.5 -108.5t-305 -39zM787 1640q-157 0 -248 86.5t-91 251.5h200
q0 -65 32 -99t107 -34t107 34t32 99h200q0 -165 -91 -251.5t-248 -86.5z" />
    <glyph glyph-name="ubreve" unicode="&#x16d;" horiz-adv-x="1251" 
d="M485 -23q-103 0 -177.5 41t-115 112t-40.5 161v783h272v-739q0 -56 28 -89.5t70 -48.5t84 -15q50 0 99 17t81.5 54t32.5 97v724h272v-1074h-256l-8 118q-32 -67 -131 -104t-211 -37zM633 1259q-94 0 -171 36t-122.5 114t-45.5 203h172q0 -80 43 -129t124 -49t124 49
t43 129h172q0 -125 -45.5 -203t-122 -114t-171.5 -36z" />
    <glyph glyph-name="Uring" unicode="&#x16e;" horiz-adv-x="1574" 
d="M796 -26q-189 0 -310.5 37t-189 104t-94 157t-26.5 196v1009h297v-1022q0 -97 38 -151t110.5 -75.5t174.5 -21.5q104 0 171.5 22t100.5 76t33 150v1022h297v-997q0 -105 -25 -197t-89.5 -161.5t-182.5 -108.5t-305 -39zM787 1540q-126 0 -198 65t-72 185q0 119 72 183.5
t198 64.5q125 0 197.5 -64.5t72.5 -183.5q0 -120 -72 -185t-198 -65zM787 1699q37 0 61.5 18.5t24.5 71.5t-24.5 72.5t-61.5 19.5q-38 0 -62 -18.5t-24 -71.5q0 -54 24 -73t62 -19z" />
    <glyph glyph-name="uring" unicode="&#x16f;" horiz-adv-x="1251" 
d="M485 -23q-103 0 -177.5 41t-115 112t-40.5 161v783h272v-739q0 -56 28 -89.5t70 -48.5t84 -15q50 0 99 17t81.5 54t32.5 97v724h272v-1074h-256l-8 118q-32 -67 -131 -104t-211 -37zM633 1198q-126 0 -198 65t-72 185q0 119 72 183.5t198 64.5q125 0 197.5 -64.5
t72.5 -183.5q0 -120 -72 -185t-198 -65zM633 1357q37 0 61.5 18.5t24.5 71.5t-24.5 72.5t-61.5 19.5q-38 0 -62 -18.5t-24 -71.5q0 -54 24 -73t62 -19z" />
    <glyph glyph-name="Uhungarumlaut" unicode="&#x170;" horiz-adv-x="1574" 
d="M796 -26q-189 0 -310.5 37t-189 104t-94 157t-26.5 196v1009h297v-1022q0 -97 38 -151t110.5 -75.5t174.5 -21.5q104 0 171.5 22t100.5 76t33 150v1022h297v-997q0 -105 -25 -197t-89.5 -161.5t-182.5 -108.5t-305 -39zM849 1651l42 365h258l-161 -365h-139zM549 1651
l42 365h258l-161 -365h-139z" />
    <glyph glyph-name="uhungarumlaut" unicode="&#x171;" horiz-adv-x="1251" 
d="M485 -23q-103 0 -177.5 41t-115 112t-40.5 161v783h272v-739q0 -56 28 -89.5t70 -48.5t84 -15q50 0 99 17t81.5 54t32.5 97v724h272v-1074h-256l-8 118q-32 -67 -131 -104t-211 -37zM691 1256l42 365h258l-161 -365h-139zM363 1256l42 365h258l-161 -365h-139z" />
    <glyph glyph-name="Uogonek" unicode="&#x172;" horiz-adv-x="1574" 
d="M796 -26q-189 0 -310.5 37t-189 104t-94 157t-26.5 196v1009h297v-1022q0 -97 38 -151t110.5 -75.5t174.5 -21.5q104 0 171.5 22t100.5 76t33 150v1022h297v-997q0 -105 -25 -197t-89.5 -161.5t-182.5 -108.5t-305 -39zM1053 -474q-148 0 -215.5 54t-67.5 160
q0 72 55 151.5t137 128.5l126 -10q-60 -51 -96.5 -106.5t-36.5 -114.5q0 -55 32 -83.5t99 -28.5h35l-13 -151h-55z" />
    <glyph glyph-name="uogonek" unicode="&#x173;" horiz-adv-x="1251" 
d="M485 -23q-103 0 -177.5 41t-115 112t-40.5 161v783h272v-739q0 -56 28 -89.5t70 -48.5t84 -15q50 0 99 17t81.5 54t32.5 97v724h272v-1074h-256l-8 118q-32 -67 -131 -104t-211 -37zM1056 -484q-148 0 -215.5 54t-67.5 160q0 72 55 151.5t137 128.5l126 -10
q-60 -51 -96.5 -106.5t-36.5 -114.5q0 -55 32 -83.5t99 -28.5h35l-13 -151h-55z" />
    <glyph glyph-name="Wcircumflex" unicode="&#x174;" horiz-adv-x="1954" 
d="M40 1476h288l255 -1021l259 1021h251l296 -1010l240 1010h285l-382 -1476h-249l-310 1053l-284 -1053h-266zM601 1638l277 355h198l277 -355h-179l-230 205h67l-231 -205h-179z" />
    <glyph glyph-name="wcircumflex" unicode="&#x175;" horiz-adv-x="1648" 
d="M46 1074h254l203 -814l-24 1l238 813h221l245 -822l-23 -1l189 823h253l-286 -1074h-266l-233 784h26l-242 -784h-258zM459 1256l277 365h198l277 -365h-179l-230 215h67l-231 -215h-179z" />
    <glyph glyph-name="Ycircumflex" unicode="&#x176;" horiz-adv-x="1304" 
d="M509 567l-509 909h313l368 -674h-44l367 674h300l-499 -909v-567h-296v567zM276 1638l277 355h198l277 -355h-179l-230 205h67l-231 -205h-179z" />
    <glyph glyph-name="ycircumflex" unicode="&#x177;" horiz-adv-x="1103" 
d="M148 -485l-20 225q101 15 174.5 75.5t119.5 181.5l24 63l25 -101l-437 1115h271l329 -896h-114l278 896h271l-371 -1062q-87 -249 -221.5 -361.5t-328.5 -135.5zM177 1256l277 365h198l277 -365h-179l-230 215h67l-231 -215h-179z" />
    <glyph glyph-name="Ydieresis" unicode="&#x178;" horiz-adv-x="1304" 
d="M509 567l-509 909h313l368 -674h-44l367 674h300l-499 -909v-567h-296v567zM724 1683v233h265v-233h-265zM315 1683v233h264v-233h-264z" />
    <glyph glyph-name="Zacute" unicode="&#x179;" horiz-adv-x="1184" 
d="M126 177l620 1081h-592v218h936v-179l-618 -1087h630v-210h-976v177zM496 1657l162 365h318l-281 -365h-199z" />
    <glyph glyph-name="zacute" unicode="&#x17a;" horiz-adv-x="906" 
d="M104 167l445 760l22 -26h-457v173h704v-164l-442 -759l-22 24h459v-175h-709v167zM357 1255l122 365h268l-241 -365h-149z" />
    <glyph glyph-name="Zdotaccent" unicode="&#x17b;" horiz-adv-x="1184" 
d="M126 177l620 1081h-592v218h936v-179l-618 -1087h630v-210h-976v177zM529 1668v265h254v-265h-254z" />
    <glyph glyph-name="zdotaccent" unicode="&#x17c;" horiz-adv-x="906" 
d="M104 167l445 760l22 -26h-457v173h704v-164l-442 -759l-22 24h459v-175h-709v167zM350 1250v265h274v-265h-274z" />
    <glyph glyph-name="Zcaron" unicode="&#x17d;" horiz-adv-x="1184" 
d="M126 177l620 1081h-592v218h936v-179l-618 -1087h630v-210h-976v177zM557 1638l-277 355h179l231 -205h-67l230 205h179l-277 -355h-198z" />
    <glyph glyph-name="zcaron" unicode="&#x17e;" horiz-adv-x="906" 
d="M104 167l445 760l22 -26h-457v173h704v-164l-442 -759l-22 24h459v-175h-709v167zM388 1255l-277 365h179l231 -215h-67l230 215h179l-277 -365h-198z" />
    <glyph glyph-name="longs" unicode="&#x17f;" horiz-adv-x="730" 
d="M229 901h-143v173h143v51q0 191 85.5 291t276.5 100h126l7 -189h-84q-88 0 -113.5 -46t-25.5 -115v-1166h-272v901z" />
    <glyph glyph-name="uni0180" unicode="&#x180;" horiz-adv-x="1206" 
d="M30 1399h686v-190h-686v190zM655 -23q-88 0 -158.5 27t-122.5 61l-27 -65h-187v1516h272v-476q49 26 105 41.5t124 15.5q156 0 248.5 -48t132.5 -126.5t40 -169.5v-424q0 -105 -52.5 -184t-148 -123.5t-226.5 -44.5zM610 168q88 0 144 37t56 118v435q0 80 -48 114.5
t-139 34.5q-73 0 -124 -20.5t-67 -29.5v-641q31 -23 77 -35.5t101 -12.5z" />
    <glyph glyph-name="uni0181" unicode="&#x181;" horiz-adv-x="1653" 
d="M216 1028l-240 10v84q0 127 37.5 204.5t133.5 113.5t271 36l-31 -203q-95 0 -133 -38t-38 -127v-80zM387 0v1476h568q207 0 320.5 -42t158 -127.5t44.5 -218.5q0 -121 -44 -194.5t-184 -97.5v12q119 -8 182 -54.5t86 -124.5t23 -181q0 -232 -119.5 -340t-394.5 -108h-640
zM684 208h288q116 0 174.5 19t78.5 72.5t20 155.5q0 74 -14.5 129.5t-66 87t-162.5 31.5h-318v-495zM684 882h307q87 0 125.5 23t48.5 68.5t10 111.5q0 78 -18 118.5t-69 55t-152 14.5h-252v-391z" />
    <glyph glyph-name="uni0186" unicode="&#x186;" horiz-adv-x="1490" 
d="M710 -26q-192 0 -308 38t-175 106.5t-79 160.5t-20 201v27h291v-47q0 -105 25.5 -159.5t89 -74t175.5 -19.5q111 0 183 19.5t106.5 73t34.5 154.5v558q0 102 -35 157.5t-106.5 77t-181.5 21.5q-112 0 -175.5 -22.5t-89.5 -79t-26 -160.5v-75l-291 34v18q0 112 21 206.5
t81 164.5t175.5 108.5t304.5 38.5q198 0 321 -39.5t187.5 -110.5t88 -166.5t23.5 -207.5v-493q0 -109 -24 -202t-89 -162t-187.5 -107.5t-319.5 -38.5z" />
    <glyph glyph-name="uni0187" unicode="&#x187;" horiz-adv-x="1490" 
d="M780 -26q-197 0 -319.5 38.5t-187.5 107.5t-89 162t-24 202v493q0 112 23.5 207.5t88 166.5t187.5 110.5t321 39.5q122 0 204 -18t144 -59l-22 -8q0 167 68 250.5t230 83.5h94l10 -228h-30q-59 0 -87.5 -34t-28.5 -107v-416l-291 -34v75q0 104 -26 160.5t-89 79
t-176 22.5q-110 0 -181.5 -21.5t-106.5 -77t-35 -157.5v-558q0 -101 35 -154.5t106.5 -73t182.5 -19.5q113 0 176 19.5t88.5 74t25.5 159.5v47h291v-27q0 -109 -20 -201t-79 -160.5t-175 -106.5t-308 -38z" />
    <glyph glyph-name="uni0188" unicode="&#x188;" horiz-adv-x="1111" 
d="M573 -23q-183 0 -280 48.5t-133 128.5t-36 173v430q0 161 117 250.5t328 89.5q151 0 234 -67l-20 -31v127q0 171 67.5 255.5t230.5 84.5h64l7 -188h-27q-59 0 -87.5 -34t-28.5 -107v-438l-256 -20q0 98 -14.5 146.5t-52 65t-107.5 16.5q-87 0 -135 -34t-48 -117v-434
q0 -86 45 -120t138 -34q71 0 109 15t52 60.5t14 136.5h254q0 -148 -37.5 -236.5t-132 -127.5t-265.5 -39z" />
    <glyph glyph-name="uni0189" unicode="&#x189;" horiz-adv-x="1534" 
d="M190 0v1476h640q214 0 332 -68.5t165 -185t47 -261.5v-453q0 -147 -49.5 -262t-167.5 -180.5t-326 -65.5h-641zM487 231h318q105 0 164 25.5t83.5 78.5t24.5 135v530q0 80 -25 134.5t-84.5 82.5t-162.5 28h-318v-1014zM9 706v148h704v-148h-704z" />
    <glyph glyph-name="uni018A" unicode="&#x18a;" horiz-adv-x="1731" 
d="M216 1028l-240 10v84q0 127 37.5 204.5t133.5 113.5t271 36l-31 -203q-95 0 -133 -38t-38 -127v-80zM387 0v1476h640q214 0 332 -68.5t165 -185t47 -261.5v-453q0 -147 -49.5 -262t-167.5 -180.5t-326 -65.5h-641zM684 231h318q105 0 164 25.5t83.5 78.5t24.5 135v530
q0 80 -25 134.5t-84.5 82.5t-162.5 28h-318v-1014z" />
    <glyph glyph-name="uni018E" unicode="&#x18e;" horiz-adv-x="1294" 
d="M1104 1476v-1476h-978v224h682v422h-595v214h595v392h-671v224h967z" />
    <glyph glyph-name="uni018F" unicode="&#x18f;" horiz-adv-x="1490" 
d="M710 1501q198 0 321 -39.5t187.5 -110.5t88 -166.5t23.5 -207.5v-493q0 -109 -24 -202t-89 -162t-187.5 -107.5t-319.5 -38.5q-192 0 -308 38t-175 106.5t-79 160.5t-20 201v326h905v206q0 102 -35 157.5t-106.5 77t-181.5 21.5q-112 0 -175.5 -21.5t-89.5 -74
t-26 -146.5v-55l-291 14v38q0 97 21 183t81 152.5t175.5 104.5t304.5 38zM709 207q111 0 183 19.5t106.5 73t34.5 154.5v122h-614v-116q0 -105 25.5 -159.5t89 -74t175.5 -19.5z" />
    <glyph glyph-name="uni0190" unicode="&#x190;" horiz-adv-x="1480" 
d="M730 -27q-208 0 -333.5 58.5t-181 158.5t-55.5 222q0 82 25 154.5t85 123.5t163 70l6 -15q-113 14 -170 64t-76.5 123.5t-19.5 155.5q0 135 68.5 227.5t195 140t299.5 47.5q131 0 234 -24t175 -78.5t109.5 -144.5t37.5 -223h-267q0 93 -25 146.5t-88.5 76.5t-178.5 23
q-167 0 -225 -51.5t-58 -153.5q0 -60 9.5 -102.5t40.5 -70t94.5 -40t171.5 -12.5v-199q-129 0 -199.5 -21t-97.5 -70.5t-27 -133.5q0 -108 64 -167.5t221 -59.5q111 0 177.5 21t96 73t29.5 144h268q0 -145 -57 -248.5t-182 -159t-329 -55.5z" />
    <glyph glyph-name="uni0191" unicode="&#x191;" horiz-adv-x="1173" 
d="M54 -410l-10 225h30q59 0 87.5 34t28.5 107v1520h893v-227h-596v-402h555v-213h-555v-710q0 -167 -88.5 -250.5t-250.5 -83.5h-94z" />
    <glyph glyph-name="florin" unicode="&#x192;" horiz-adv-x="1024" 
d="M241 -196v147q18 -3 36 -5t29 -2q68 0 86 37.5t18 92.5v769h-147v119h147v162q0 89 14.5 160t68 113t168.5 42q28 0 55 -1.5t67 -6.5v-147q-13 2 -28.5 4t-29.5 2q-49 0 -72.5 -19.5t-30.5 -51.5t-7 -69v-188h172v-119h-172v-742q0 -84 -14.5 -153.5t-67.5 -111
t-167 -41.5q-28 0 -56 2t-69 7z" />
    <glyph glyph-name="uni0193" unicode="&#x193;" horiz-adv-x="1595" 
d="M807 -26q-195 0 -321 38.5t-197.5 107.5t-100 162t-28.5 202v493q0 112 28.5 207.5t99 166.5t197 110.5t322.5 39.5q125 0 218.5 -18t159.5 -56l-35 -11q0 167 68 250.5t230 83.5h94l10 -228h-30q-59 0 -87.5 -34t-28.5 -107v-397l-292 -22v59q0 99 -31.5 152.5t-99.5 74
t-176 20.5q-107 0 -185.5 -21.5t-121 -77t-42.5 -157.5v-558q0 -101 42.5 -154.5t120.5 -73t186 -19.5q110 0 183.5 19.5t111 73t37.5 154.5v108h-298v195h566v-757h-157l-47 170q-6 -18 -25 -50t-61.5 -65.5t-117.5 -57t-192 -23.5z" />
    <glyph glyph-name="uni0194" unicode="&#x194;" horiz-adv-x="1484" 
d="M742 -420q-151 0 -239.5 49t-126.5 131.5t-38 181.5q0 78 18.5 155t65 174.5t131.5 236.5l589 968h314l-672 -1102q-71 -116 -105 -190t-44.5 -130.5t-10.5 -121.5q0 -52 29 -87t89 -35t89 35t29 87q0 65 -10.5 121.5t-44.5 130.5t-105 190l-672 1102h314l589 -968
q85 -139 131.5 -236.5t65 -174.5t18.5 -155q0 -99 -38 -181.5t-126 -131.5t-240 -49z" />
    <glyph glyph-name="uni0196" unicode="&#x196;" horiz-adv-x="1088" 
d="M755 0q-169 0 -268.5 89.5t-99.5 264.5v901h-269v221h832v-221h-267v-869q0 -80 39.5 -120.5t106.5 -40.5h70l-10 -225h-134z" />
    <glyph glyph-name="uni0197" unicode="&#x197;" horiz-adv-x="1148" 
d="M231 845h686v-190h-686v190zM158 222h269v1033h-269v221h832v-221h-267v-1033h267v-222h-832v222z" />
    <glyph glyph-name="uni0198" unicode="&#x198;" horiz-adv-x="1448" 
d="M190 0v1476h297v-716l376 467q77 96 142 150t137 76.5t167 22.5h97l21 -228h-87q-54 0 -93.5 -13t-79.5 -49t-96 -106l-292 -365h-57l-235 -293v-422h-297zM1091 0l-475 696l209 173l601 -869h-335z" />
    <glyph glyph-name="uni0199" unicode="&#x199;" horiz-adv-x="1199" 
d="M162 0v1155q0 186 73.5 273t270.5 87h94l7 -188h-57q-40 0 -65.5 -15t-38 -46t-12.5 -80v-584l425 472h310l-404 -463l422 -611h-297l-336 497l-120 -123v-374h-272z" />
    <glyph glyph-name="uni019A" unicode="&#x19a;" horiz-adv-x="708" 
d="M24 871h581v-157h-581v157zM164 353v1162h272v-1158q0 -59 17.5 -96t59.5 -54t115 -17h34l-21 -202h-114q-119 0 -200 35t-122 115t-41 215z" />
    <glyph glyph-name="uni019B" unicode="&#x19b;" horiz-adv-x="1120" 
d="M33 0l409 1050l-60 171q-21 61 -51 83.5t-82 22.5h-37l7 188h94q82 0 139.5 -23t98 -76.5t72.5 -145.5l344 -984q20 -57 48 -77.5t80 -20.5h37l-7 -188h-94q-82 0 -141 23t-99.5 76.5t-69.5 145.5l-160 519l29 -1l-295 -763h-262zM245 1018l-53 148l611 223l53 -148z" />
    <glyph glyph-name="uni019C" unicode="&#x19c;" horiz-adv-x="1962" 
d="M531 -23q-103 0 -179.5 38t-119 106.5t-42.5 158.5v1196h296v-1131q0 -85 43 -110t106 -25q39 0 83 17t76.5 49.5t36.5 80.5v1119h296v-1131q0 -85 42 -110t106 -25q74 0 137.5 39.5t63.5 118.5v1108h296v-1476h-272v141l31 -17q-22 -27 -66.5 -61.5t-114.5 -60
t-167 -25.5q-103 0 -178.5 32t-116.5 101q-58 -58 -143.5 -95.5t-213.5 -37.5z" />
    <glyph glyph-name="uni019D" unicode="&#x19d;" horiz-adv-x="1634" 
d="M-46 -382l-28 190q108 12 165 38.5t78 89.5t21 181v1359h223l794 -1048l-27 -9v1057h264v-1476h-223l-791 1032l27 9v-879q0 -220 -56.5 -337.5t-168 -162t-278.5 -44.5z" />
    <glyph glyph-name="uni019E" unicode="&#x19e;" horiz-adv-x="1254" 
d="M160 1074h272v-95q17 17 54.5 45.5t106.5 51t178 22.5q113 0 186.5 -44.5t109 -118.5t35.5 -165v-1180h-272v1165q0 57 -29.5 87t-73 41t-86.5 11q-49 0 -97 -18t-80 -53t-32 -88v-735h-272v1074z" />
    <glyph glyph-name="uni019F" unicode="&#x19f;" horiz-adv-x="1606" 
d="M330 843h946v-190h-946v190zM814 -26q-199 0 -327 41t-199 113t-99.5 168t-28.5 205v462q0 112 28 209.5t99 171.5t199 115.5t328 41.5q191 0 314.5 -44t193 -120.5t97 -176.5t27.5 -212v-431q0 -109 -28 -206.5t-97.5 -173.5t-192.5 -119.5t-314 -43.5zM814 207
q112 0 186 23t111 80t37 158v535q0 99 -37 157t-111.5 83t-185.5 25q-110 0 -190 -24t-123 -82t-43 -159v-535q0 -101 42.5 -158t122.5 -80t191 -23z" />
    <glyph glyph-name="Ohorn" unicode="&#x1a0;" horiz-adv-x="1606" 
d="M814 -26q-199 0 -327 41t-199 113t-99.5 168t-28.5 205v462q0 112 28 209.5t99 171.5t199 115.5t328 41.5q191 0 314.5 -44t193 -120.5t97 -176.5t27.5 -212v-431q0 -109 -28 -206.5t-97.5 -173.5t-192.5 -119.5t-314 -43.5zM814 207q112 0 186 23t111 80t37 158v535
q0 99 -37 157t-111.5 83t-185.5 25q-110 0 -190 -24t-123 -82t-43 -159v-535q0 -101 42.5 -158t122.5 -80t191 -23zM1019 1476h130q50 0 85.5 33.5t35.5 94.5v141h223v-124q0 -117 -46.5 -192t-124.5 -111t-173 -36h-130v194z" />
    <glyph glyph-name="ohorn" unicode="&#x1a1;" horiz-adv-x="1180" 
d="M590 -23q-169 0 -271.5 42.5t-148.5 120.5t-46 185v423q0 110 55 188t159.5 119.5t251.5 41.5t251 -41.5t159.5 -119.5t55.5 -188v-423q0 -106 -44 -184.5t-145.5 -121t-276.5 -42.5zM590 166q87 0 140.5 32.5t53.5 114.5v447q0 82 -51 114.5t-143 32.5q-88 0 -141 -32.5
t-53 -114.5v-447q0 -82 50 -114.5t144 -32.5zM780 880v194h60q50 0 85.5 33.5t35.5 94.5v141h223v-124q0 -117 -46.5 -192t-124.5 -111t-173 -36h-60z" />
    <glyph glyph-name="uni01A4" unicode="&#x1a4;" horiz-adv-x="1533" 
d="M216 1028l-240 10v84q0 127 37.5 204.5t133.5 113.5t271 36l-31 -203q-95 0 -133 -38t-38 -127v-80zM387 1476h579q243 0 362 -110.5t119 -360.5q0 -171 -47 -280.5t-158.5 -162.5t-304.5 -53h-253v-509h-297v1476zM984 726q75 0 115 29t55 88t15 147q0 78 -14.5 140
t-52.5 98.5t-108 36.5h-310v-539h300z" />
    <glyph glyph-name="uni01A5" unicode="&#x1a5;" horiz-adv-x="1202" 
d="M160 -410v1565q0 186 73.5 273t270.5 87h94l7 -188h-57q-40 0 -65.5 -15t-38 -46t-12.5 -80v-224l-75 27q53 44 134.5 76t177.5 32q195 0 302 -95.5t107 -250.5v-425q0 -92 -47 -171.5t-144.5 -128.5t-249.5 -49q-64 0 -115 11.5t-90 28.5v-427h-272zM614 166
q93 0 142.5 36t49.5 118v435q0 81 -48.5 116.5t-134.5 35.5q-43 0 -81 -10t-66 -25t-44 -31v-628q25 -16 70.5 -31.5t111.5 -15.5z" />
    <glyph glyph-name="uni01A9" unicode="&#x1a9;" horiz-adv-x="1227" 
d="M125 0v191l511 604l10 -67l-521 563v185h965v-224h-653l30 32l439 -472v-78l-456 -542l-16 32h668v-224h-977z" />
    <glyph glyph-name="uni01AC" unicode="&#x1ac;" horiz-adv-x="1314" 
d="M569 0v1250h-142q-95 0 -133 -35t-38 -107v-80l-240 10v84q0 127 37.5 204.5t133.5 113.5t271 36h818v-226h-411v-1250h-296z" />
    <glyph glyph-name="uni01AD" unicode="&#x1ad;" horiz-adv-x="802" 
d="M631 -12q-162 0 -255 31t-132.5 107.5t-39.5 214.5v560h-170v173h170v81q0 186 73.5 273t270.5 87h94l7 -188h-57q-39 0 -65 -15t-38.5 -46t-12.5 -80v-112h255v-173h-255v-541q0 -66 12.5 -103t55 -52t132.5 -15h62l-10 -202h-97z" />
    <glyph glyph-name="uni01AE" unicode="&#x1ae;" horiz-adv-x="1194" 
d="M788 -410q-162 0 -250.5 83.5t-88.5 250.5v1326h-411v226h1118v-226h-411l1 -1294q0 -73 28.5 -107t87.5 -34h30l-10 -225h-94z" />
    <glyph glyph-name="Uhorn" unicode="&#x1af;" horiz-adv-x="1638" 
d="M796 -26q-189 0 -310.5 37t-189 104t-94 157t-26.5 196v1009h297v-1022q0 -97 38 -151t110.5 -75.5t174.5 -21.5q104 0 171.5 22t100.5 76t33 150v1022h297v-997q0 -105 -25 -197t-89.5 -161.5t-182.5 -108.5t-305 -39zM1314 1476h30q50 0 85.5 33.5t35.5 94.5v141h223
v-124q0 -117 -46.5 -192t-124.5 -111t-173 -36h-30v194z" />
    <glyph glyph-name="uhorn" unicode="&#x1b0;" horiz-adv-x="1325" 
d="M485 -23q-103 0 -177.5 41t-115 112t-40.5 161v783h272v-739q0 -56 28 -89.5t70 -48.5t84 -15q50 0 99 17t81.5 54t32.5 97v724h272v-1074h-256l-8 118q-32 -67 -131 -104t-211 -37zM991 880v194h60q50 0 85.5 33.5t35.5 94.5v141h223v-124q0 -117 -46.5 -192
t-124.5 -111t-173 -36h-60z" />
    <glyph glyph-name="uni01B1" unicode="&#x1b1;" horiz-adv-x="1606" 
d="M803 -22q-227 0 -369 65t-208 215.5t-66 406.5q0 168 47 292t128 209t181 134v-50h-348v226h515v-205q-79 -58 -129 -138.5t-73 -194t-23 -271.5q0 -175 37 -275t113.5 -142.5t194.5 -42.5t194.5 42.5t113.5 142.5t37 275q0 158 -23.5 271.5t-73 194t-129.5 138.5v205
h515v-226h-347v50q100 -49 180.5 -134t128 -209t47.5 -292q0 -256 -66 -406.5t-207.5 -215.5t-369.5 -65z" />
    <glyph glyph-name="uni01B2" unicode="&#x1b2;" horiz-adv-x="1555" 
d="M748 -23q-223 0 -347.5 55t-174.5 155.5t-50 234.5v1054h299v-1071q0 -103 67 -150.5t206 -47.5q142 0 238.5 85.5t96.5 265.5v468q0 127 -57 180.5t-166 53.5v226q170 0 285.5 -56.5t174.5 -163.5t59 -257v-435q0 -187 -72 -321t-212.5 -205t-346.5 -71z" />
    <glyph glyph-name="uni01B3" unicode="&#x1b3;" horiz-adv-x="1327" 
d="M509 0v567l-509 909h313l368 -656h-42l139 305q65 143 124.5 221t126 109t152.5 31h106l20 -225h-45q-62 0 -100.5 -29t-76.5 -104l-280 -561v-567h-296z" />
    <glyph glyph-name="uni01B4" unicode="&#x1b4;" horiz-adv-x="1126" 
d="M188 -418l-16 189q87 0 138 14t80 47.5t50 89.5l44 117l-13 -80l-437 1115h271l329 -911h-114l199 606q40 122 82 190.5t97.5 96.5t136.5 28h84l17 -188h-39q-49 0 -78.5 -26t-51.5 -90l-317 -913q-52 -149 -160 -217t-302 -68z" />
    <glyph glyph-name="uni01B5" unicode="&#x1b5;" horiz-adv-x="1184" 
d="M200 853h846v-190h-846v190zM126 177l620 1081h-592v218h936v-179l-618 -1087h630v-210h-976v177z" />
    <glyph glyph-name="uni01B6" unicode="&#x1b6;" horiz-adv-x="906" 
d="M134 626h654v-170h-654v170zM104 167l445 760l22 -26h-457v173h704v-164l-442 -759l-22 24h459v-175h-709v167z" />
    <glyph glyph-name="uni01B7" unicode="&#x1b7;" horiz-adv-x="1410" 
d="M694 -429q-203 0 -328.5 70t-182.5 201.5t-57 315.5h268q0 -122 29.5 -202.5t96 -120t177.5 -39.5q157 0 221 85.5t64 252.5q0 117 -31.5 195t-122.5 117t-270 39v221q263 0 417.5 -72t221.5 -201.5t67 -304.5q0 -155 -55.5 -281.5t-180.5 -201t-334 -74.5zM808 600
l-250 106l378 562l6 -16h-743v224h1025v-234z" />
    <glyph glyph-name="uni01B8" unicode="&#x1b8;" horiz-adv-x="1410" 
d="M716 -429q-208 0 -333.5 74.5t-181 201t-55.5 281.5q0 175 67 304.5t221.5 201.5t417.5 72v-221q-179 0 -270 -39t-122.5 -117t-31.5 -195q0 -167 64 -252.5t221 -85.5q111 0 177.5 39.5t96 120t29.5 202.5h268q0 -184 -57 -315.5t-182 -201.5t-329 -70zM602 600
l-416 642v234h1025v-224h-743l6 16l378 -562z" />
    <glyph glyph-name="uni01B9" unicode="&#x1b9;" horiz-adv-x="1098" 
d="M579 -428q-167 0 -270 59.5t-150 162t-47 231.5q0 128 41.5 229.5t130 160.5t227.5 59l-27 -106l-336 542v164h854v-186h-587l2 39l284 -451v-199h-112q-141 0 -187 -61.5t-46 -183.5q0 -118 52.5 -176.5t167.5 -58.5q83 0 135 21t76.5 73t24.5 144h232
q0 -145 -48.5 -248.5t-151 -159t-265.5 -55.5z" />
    <glyph glyph-name="uni01C0" unicode="&#x1c0;" horiz-adv-x="664" 
d="M210 -410v1925h244v-1925h-244z" />
    <glyph glyph-name="uni01C1" unicode="&#x1c1;" horiz-adv-x="1144" 
d="M210 -410v1925h244v-1925h-244zM690 -410v1925h244v-1925h-244z" />
    <glyph glyph-name="uni01C2" unicode="&#x1c2;" horiz-adv-x="728" 
d="M242 -410v1925h244v-1925h-244zM708 968v-230h-688v230h688zM708 538v-230h-688v230h688z" />
    <glyph glyph-name="uni01C3" unicode="&#x1c3;" horiz-adv-x="624" 
d="M268 410q-17 197 -32 377.5t-26.5 326.5t-18 241.5t-6.5 121.5h259q0 -25 -7.5 -117t-21 -236t-31.5 -326t-40 -388h-76zM165 0v266h280v-266h-280z" />
    <glyph glyph-name="uni01C4" unicode="&#x1c4;" horiz-adv-x="2718" 
d="M190 0v1476h640q214 0 332 -68.5t165 -185t47 -261.5v-453q0 -147 -49.5 -262t-167.5 -180.5t-326 -65.5h-641zM487 231h318q105 0 164 25.5t83.5 78.5t24.5 135v530q0 80 -25 134.5t-84.5 82.5t-162.5 28h-318v-1014zM1660 177l620 1081h-592v218h936v-179l-618 -1087
h630v-210h-976v177zM2091 1638l-277 355h179l231 -205h-67l230 205h179l-277 -355h-198z" />
    <glyph glyph-name="uni01C5" unicode="&#x1c5;" horiz-adv-x="2440" 
d="M190 0v1476h640q214 0 332 -68.5t165 -185t47 -261.5v-453q0 -147 -49.5 -262t-167.5 -180.5t-326 -65.5h-641zM487 231h318q105 0 164 25.5t83.5 78.5t24.5 135v530q0 80 -25 134.5t-84.5 82.5t-162.5 28h-318v-1014zM1638 167l445 760l22 -26h-457v173h704v-164
l-442 -759l-22 24h459v-175h-709v167zM1922 1255l-277 365h179l231 -215h-67l230 215h179l-277 -365h-198z" />
    <glyph glyph-name="uni01C6" unicode="&#x1c6;" horiz-adv-x="2104" 
d="M124 324v429q0 149 105.5 246.5t340.5 97.5q46 0 99.5 -10.5t100.5 -27.5v456h272v-1515h-184l-29 63q-52 -37 -123.5 -61.5t-154.5 -24.5q-145 0 -240 42t-141 119.5t-46 185.5zM770 211v659q-27 13 -73.5 25t-103.5 12q-93 0 -145 -33t-52 -115v-439q0 -82 48.5 -117
t138.5 -35q56 0 106 12t81 31zM1302 167l445 760l22 -26h-457v173h704v-164l-442 -759l-22 24h459v-175h-709v167zM1586 1255l-277 365h179l231 -215h-67l230 215h179l-277 -365h-198z" />
    <glyph glyph-name="uni01C7" unicode="&#x1c7;" horiz-adv-x="2394" 
d="M190 1476h297v-1244h617v-232h-914v1476zM1242 67l69 220q49 -22 109.5 -40t122.5 -28t114 -10q140 0 197 68t57 164v809h-508v226h805v-1054q0 -213 -142 -330t-390 -117q-72 0 -147.5 10.5t-148.5 31t-138 50.5z" />
    <glyph glyph-name="uni01C8" unicode="&#x1c8;" horiz-adv-x="1822" 
d="M190 1476h297v-1244h617v-232h-914v1476zM1154 -168h45q70 0 107 27.5t50.5 68.5t13.5 82v1064h273v-1077q0 -106 -38 -187t-120 -126.5t-216 -45.5h-101zM1369 1250v265h274v-265h-274z" />
    <glyph glyph-name="uni01C9" unicode="&#x1c9;" horiz-adv-x="1358" 
d="M164 353v1162h272v-1158q0 -59 17.5 -96t59.5 -54t115 -17h34l-21 -202h-114q-119 0 -200 35t-122 115t-41 215zM690 -168h45q70 0 107 27.5t50.5 68.5t13.5 82v1064h273v-1077q0 -106 -38 -187t-120 -126.5t-216 -45.5h-101zM905 1250v265h274v-265h-274z" />
    <glyph glyph-name="uni01CA" unicode="&#x1ca;" horiz-adv-x="2856" 
d="M190 1476h223l794 -1048l-27 -9v1057h264v-1476h-223l-791 1032l27 9v-1041h-267v1476zM1704 67l69 220q49 -22 109.5 -40t122.5 -28t114 -10q140 0 197 68t57 164v809h-508v226h805v-1054q0 -213 -142 -330t-390 -117q-72 0 -147.5 10.5t-148.5 31t-138 50.5z" />
    <glyph glyph-name="uni01CB" unicode="&#x1cb;" horiz-adv-x="2284" 
d="M190 1476h223l794 -1048l-27 -9v1057h264v-1476h-223l-791 1032l27 9v-1041h-267v1476zM1616 -168h45q70 0 107 27.5t50.5 68.5t13.5 82v1064h273v-1077q0 -106 -38 -187t-120 -126.5t-216 -45.5h-101zM1831 1250v265h274v-265h-274z" />
    <glyph glyph-name="uni01CC" unicode="&#x1cc;" horiz-adv-x="1904" 
d="M160 1074h272v-95q62 53 137 86t192 33q121 0 196 -44.5t110 -118.5t35 -165v-770h-272v755q0 57 -29.5 87t-73 41t-86.5 11q-49 0 -97 -18t-80 -53t-32 -88v-735h-272v1074zM1236 -168h45q70 0 107 27.5t50.5 68.5t13.5 82v1064h273v-1077q0 -106 -38 -187t-120 -126.5
t-216 -45.5h-101zM1451 1250v265h274v-265h-274z" />
    <glyph glyph-name="uni01CD" unicode="&#x1cd;" horiz-adv-x="1512" 
d="M70 0l486 1476h394l492 -1476h-315l-380 1298h26l-393 -1298h-310zM351 281l59 230h694l57 -230h-810zM657 1638l-277 355h179l231 -205h-67l230 205h179l-277 -355h-198z" />
    <glyph glyph-name="uni01CE" unicode="&#x1ce;" horiz-adv-x="1174" 
d="M423 -23q-92 0 -162 36t-109.5 102t-39.5 155q0 76 31 135t113 109.5t235 98.5q84 27 138 50t80 50t26 64q0 43 -17 72t-54 43.5t-98 14.5q-68 0 -104 -18t-49.5 -50t-13.5 -74v-42h-255v32q0 156 104 249t324 93q161 0 255 -45t135 -126.5t41 -192.5v-425
q0 -73 18.5 -95.5t68.5 -22.5l-11 -198h-57q-112 0 -174 31t-91 96q-29 -38 -77.5 -70.5t-113 -52t-143.5 -19.5zM514 158q33 0 75 12.5t81.5 37.5t64.5 64v272q-27 -22 -86 -48.5t-127 -51.5q-89 -33 -117 -73t-28 -86q0 -65 38 -96t99 -31zM473 1255l-277 365h179
l231 -215h-67l230 215h179l-277 -365h-198z" />
    <glyph glyph-name="uni01CF" unicode="&#x1cf;" horiz-adv-x="1148" 
d="M158 222h269v1033h-269v221h832v-221h-267v-1033h267v-222h-832v222zM475 1638l-277 355h179l231 -205h-67l230 205h179l-277 -355h-198z" />
    <glyph glyph-name="uni01D0" unicode="&#x1d0;" horiz-adv-x="488" 
d="M160 1245l-237 365h179l191 -215h-67l190 215h179l-237 -365h-198zM124 1074h271v-1074h-271v1074z" />
    <glyph glyph-name="uni01D1" unicode="&#x1d1;" horiz-adv-x="1606" 
d="M814 -26q-199 0 -327 41t-199 113t-99.5 168t-28.5 205v462q0 112 28 209.5t99 171.5t199 115.5t328 41.5q191 0 314.5 -44t193 -120.5t97 -176.5t27.5 -212v-431q0 -109 -28 -206.5t-97.5 -173.5t-192.5 -119.5t-314 -43.5zM814 207q112 0 186 23t111 80t37 158v535
q0 99 -37 157t-111.5 83t-185.5 25q-110 0 -190 -24t-123 -82t-43 -159v-535q0 -101 42.5 -158t122.5 -80t191 -23zM704 1638l-277 355h179l231 -205h-67l230 205h179l-277 -355h-198z" />
    <glyph glyph-name="uni01D2" unicode="&#x1d2;" horiz-adv-x="1180" 
d="M590 -23q-169 0 -271.5 42.5t-148.5 120.5t-46 185v423q0 110 55 188t159.5 119.5t251.5 41.5t251 -41.5t159.5 -119.5t55.5 -188v-423q0 -106 -44 -184.5t-145.5 -121t-276.5 -42.5zM590 166q87 0 140.5 32.5t53.5 114.5v447q0 82 -51 114.5t-143 32.5q-88 0 -141 -32.5
t-53 -114.5v-447q0 -82 50 -114.5t144 -32.5zM493 1255l-277 365h179l231 -215h-67l230 215h179l-277 -365h-198z" />
    <glyph glyph-name="uni01D3" unicode="&#x1d3;" horiz-adv-x="1574" 
d="M796 -26q-189 0 -310.5 37t-189 104t-94 157t-26.5 196v1009h297v-1022q0 -97 38 -151t110.5 -75.5t174.5 -21.5q104 0 171.5 22t100.5 76t33 150v1022h297v-997q0 -105 -25 -197t-89.5 -161.5t-182.5 -108.5t-305 -39zM688 1638l-277 355h179l231 -205h-67l230 205h179
l-277 -355h-198z" />
    <glyph glyph-name="uni01D4" unicode="&#x1d4;" horiz-adv-x="1251" 
d="M485 -23q-103 0 -177.5 41t-115 112t-40.5 161v783h272v-739q0 -56 28 -89.5t70 -48.5t84 -15q50 0 99 17t81.5 54t32.5 97v724h272v-1074h-256l-8 118q-32 -67 -131 -104t-211 -37zM534 1255l-277 365h179l231 -215h-67l230 215h179l-277 -365h-198z" />
    <glyph glyph-name="uni01D5" unicode="&#x1d5;" horiz-adv-x="1574" 
d="M796 -26q-189 0 -310.5 37t-189 104t-94 157t-26.5 196v1009h297v-1022q0 -97 38 -151t110.5 -75.5t174.5 -21.5q104 0 171.5 22t100.5 76t33 150v1022h297v-997q0 -105 -25 -197t-89.5 -161.5t-182.5 -108.5t-305 -39zM859 1683v233h265v-233h-265zM450 1683v233h264
v-233h-264zM445 2087v167h684v-167h-684z" />
    <glyph glyph-name="uni01D6" unicode="&#x1d6;" horiz-adv-x="1251" 
d="M485 -23q-103 0 -177.5 41t-115 112t-40.5 161v783h272v-739q0 -56 28 -89.5t70 -48.5t84 -15q50 0 99 17t81.5 54t32.5 97v724h272v-1074h-256l-8 118q-32 -67 -131 -104t-211 -37zM705 1271v233h265v-233h-265zM296 1271v233h264v-233h-264zM341 1646v167h584v-167
h-584z" />
    <glyph glyph-name="uni01D7" unicode="&#x1d7;" horiz-adv-x="1574" 
d="M796 -26q-189 0 -310.5 37t-189 104t-94 157t-26.5 196v1009h297v-1022q0 -97 38 -151t110.5 -75.5t174.5 -21.5q104 0 171.5 22t100.5 76t33 150v1022h297v-997q0 -105 -25 -197t-89.5 -161.5t-182.5 -108.5t-305 -39zM859 1683v233h265v-233h-265zM450 1683v233h264
v-233h-264zM627 2097l162 365h318l-281 -365h-199z" />
    <glyph glyph-name="uni01D8" unicode="&#x1d8;" horiz-adv-x="1251" 
d="M485 -23q-103 0 -177.5 41t-115 112t-40.5 161v783h272v-739q0 -56 28 -89.5t70 -48.5t84 -15q50 0 99 17t81.5 54t32.5 97v724h272v-1074h-256l-8 118q-32 -67 -131 -104t-211 -37zM705 1271v233h265v-233h-265zM296 1271v233h264v-233h-264zM503 1635l122 365h268
l-241 -365h-149z" />
    <glyph glyph-name="uni01D9" unicode="&#x1d9;" horiz-adv-x="1574" 
d="M796 -26q-189 0 -310.5 37t-189 104t-94 157t-26.5 196v1009h297v-1022q0 -97 38 -151t110.5 -75.5t174.5 -21.5q104 0 171.5 22t100.5 76t33 150v1022h297v-997q0 -105 -25 -197t-89.5 -161.5t-182.5 -108.5t-305 -39zM859 1683v233h265v-233h-265zM450 1683v233h264
v-233h-264zM688 2078l-277 355h179l231 -205h-67l230 205h179l-277 -355h-198z" />
    <glyph glyph-name="uni01DA" unicode="&#x1da;" horiz-adv-x="1251" 
d="M485 -23q-103 0 -177.5 41t-115 112t-40.5 161v783h272v-739q0 -56 28 -89.5t70 -48.5t84 -15q50 0 99 17t81.5 54t32.5 97v724h272v-1074h-256l-8 118q-32 -67 -131 -104t-211 -37zM705 1271v233h265v-233h-265zM296 1271v233h264v-233h-264zM534 1605l-277 365h179
l231 -215h-67l230 215h179l-277 -365h-198z" />
    <glyph glyph-name="uni01DB" unicode="&#x1db;" horiz-adv-x="1574" 
d="M796 -26q-189 0 -310.5 37t-189 104t-94 157t-26.5 196v1009h297v-1022q0 -97 38 -151t110.5 -75.5t174.5 -21.5q104 0 171.5 22t100.5 76t33 150v1022h297v-997q0 -105 -25 -197t-89.5 -161.5t-182.5 -108.5t-305 -39zM859 1683v233h265v-233h-265zM450 1683v233h264
v-233h-264zM748 2097l-281 365h318l162 -365h-199z" />
    <glyph glyph-name="uni01DC" unicode="&#x1dc;" horiz-adv-x="1251" 
d="M485 -23q-103 0 -177.5 41t-115 112t-40.5 161v783h272v-739q0 -56 28 -89.5t70 -48.5t84 -15q50 0 99 17t81.5 54t32.5 97v724h272v-1074h-256l-8 118q-32 -67 -131 -104t-211 -37zM705 1271v233h265v-233h-265zM296 1271v233h264v-233h-264zM614 1626l-241 365h268
l122 -365h-149z" />
    <glyph glyph-name="uni01DD" unicode="&#x1dd;" horiz-adv-x="1149" 
d="M567 -23q-248 0 -352.5 95t-104.5 257v260h643v175q0 95 -48.5 119.5t-146.5 24.5q-77 0 -119.5 -13.5t-59 -49t-16.5 -101.5h-252q0 133 49.5 210t150 110t252.5 33q132 0 236.5 -32t165 -110.5t60.5 -216.5v-419q0 -164 -124.5 -253t-333.5 -89zM560 167q82 0 137.5 25
t55.5 110v121h-386v-126q0 -60 25.5 -87.5t69 -35t98.5 -7.5z" />
    <glyph glyph-name="uni01DE" unicode="&#x1de;" horiz-adv-x="1512" 
d="M70 0l486 1476h394l492 -1476h-315l-380 1298h26l-393 -1298h-310zM351 281l59 230h694l57 -230h-810zM828 1683v233h265v-233h-265zM419 1683v233h264v-233h-264zM414 2077v167h684v-167h-684z" />
    <glyph glyph-name="uni01DF" unicode="&#x1df;" horiz-adv-x="1174" 
d="M423 -23q-92 0 -162 36t-109.5 102t-39.5 155q0 76 31 135t113 109.5t235 98.5q84 27 138 50t80 50t26 64q0 43 -17 72t-54 43.5t-98 14.5q-68 0 -104 -18t-49.5 -50t-13.5 -74v-42h-255v32q0 156 104 249t324 93q161 0 255 -45t135 -126.5t41 -192.5v-425
q0 -73 18.5 -95.5t68.5 -22.5l-11 -198h-57q-112 0 -174 31t-91 96q-29 -38 -77.5 -70.5t-113 -52t-143.5 -19.5zM514 158q33 0 75 12.5t81.5 37.5t64.5 64v272q-27 -22 -86 -48.5t-127 -51.5q-89 -33 -117 -73t-28 -86q0 -65 38 -96t99 -31zM644 1271v233h265v-233h-265z
M235 1271v233h264v-233h-264zM279 1651v167h584v-167h-584z" />
    <glyph glyph-name="uni01E0" unicode="&#x1e0;" horiz-adv-x="1512" 
d="M70 0l486 1476h394l492 -1476h-315l-380 1298h26l-393 -1298h-310zM351 281l59 230h694l57 -230h-810zM629 1668v265h254v-265h-254zM414 2074v167h684v-167h-684z" />
    <glyph glyph-name="uni01E1" unicode="&#x1e1;" horiz-adv-x="1174" 
d="M423 -23q-92 0 -162 36t-109.5 102t-39.5 155q0 76 31 135t113 109.5t235 98.5q84 27 138 50t80 50t26 64q0 43 -17 72t-54 43.5t-98 14.5q-68 0 -104 -18t-49.5 -50t-13.5 -74v-42h-255v32q0 156 104 249t324 93q161 0 255 -45t135 -126.5t41 -192.5v-425
q0 -73 18.5 -95.5t68.5 -22.5l-11 -198h-57q-112 0 -174 31t-91 96q-29 -38 -77.5 -70.5t-113 -52t-143.5 -19.5zM514 158q33 0 75 12.5t81.5 37.5t64.5 64v272q-27 -22 -86 -48.5t-127 -51.5q-89 -33 -117 -73t-28 -86q0 -65 38 -96t99 -31zM435 1247v265h274v-265h-274z
M280 1651v167h584v-167h-584z" />
    <glyph glyph-name="uni01E2" unicode="&#x1e2;" horiz-adv-x="1834" 
d="M396 414l55 230h442v605h-136l-364 -1249h-310l456 1477h1161v-228h-527v-391h457v-213h-457v-418h537v-227h-817v414h-497zM724 1737v167h684v-167h-684z" />
    <glyph glyph-name="uni01E3" unicode="&#x1e3;" horiz-adv-x="1734" 
d="M420 -23q-92 0 -160.5 35.5t-106.5 101t-41 154.5q-2 57 8 103t43 84t101.5 70t183.5 61q105 27 169 42t93 44t29 98q0 62 -38 100t-134 38q-68 0 -104.5 -21t-49.5 -55.5t-13 -76.5v-36h-256v26q0 156 104 254t325 98q101 0 185.5 -31.5t119.5 -98.5q54 66 132.5 98
t176.5 32q163 0 258.5 -43t137 -122t41.5 -187v-231h-612v-193q0 -88 46.5 -121.5t131.5 -33.5q62 0 101 11.5t58 51.5t21 124h252q-3 -156 -51.5 -237t-144 -110t-240.5 -29q-136 0 -225 44.5t-125 132.5l33 -4q-60 -56 -123 -94.5t-141 -58.5t-185 -20zM515 157
q33 0 76 9.5t83 32t65 60.5v261q-12 -10 -43.5 -23t-75 -25.5t-93.5 -24.5q-98 -22 -126.5 -66.5t-27.5 -90.5q2 -63 38.5 -98t103.5 -35zM1012 655h359v110q0 89 -48 115.5t-130 26.5t-131.5 -30.5t-49.5 -116.5v-105zM598 1336v167h584v-167h-584z" />
    <glyph glyph-name="uni01E4" unicode="&#x1e4;" horiz-adv-x="1607" 
d="M813 -26q-197 0 -324.5 38.5t-199 107.5t-100.5 162t-29 202v493q0 112 28.5 207.5t100 166.5t199 110.5t325.5 39.5q192 0 311.5 -37t183 -104t87 -157t23.5 -196v-23l-292 -22v59q0 99 -32 152.5t-101 74t-180 20.5q-110 0 -189.5 -21.5t-122.5 -77t-43 -157.5v-558
q0 -101 42.5 -154.5t122 -73t190.5 -19.5q113 0 188 19.5t112.5 73t37.5 154.5v128h-298v195h566v-777h-157l-47 170q-6 -18 -25 -50t-62 -65.5t-119 -57t-196 -23.5zM853 493h693v-190h-693v190z" />
    <glyph glyph-name="uni01E5" unicode="&#x1e5;" horiz-adv-x="1211" 
d="M574 -429q-100 0 -199.5 14.5t-155.5 41.5l56 185q76 -21 151.5 -31.5t137.5 -10.5q117 0 170 50.5t53 161.5v166q-32 -19 -73.5 -31.5t-85.5 -18.5t-85 -6q-194 0 -306.5 88t-112.5 246v325q0 92 39 171t129 127t241 48q59 0 115.5 -13.5t104.5 -36t81 -50.5l23 78h202
v-1075q0 -132 -49.5 -228.5t-156 -148.5t-279.5 -52zM588 273q69 0 120 14t79 34v511q0 21 -53.5 48t-145.5 27q-93 0 -142.5 -34.5t-49.5 -115.5v-341q0 -81 53.5 -112t138.5 -31zM535 39h646v-190h-646v190z" />
    <glyph glyph-name="Gcaron" unicode="&#x1e6;" horiz-adv-x="1607" 
d="M813 -26q-197 0 -324.5 38.5t-199 107.5t-100.5 162t-29 202v493q0 112 28.5 207.5t100 166.5t199 110.5t325.5 39.5q192 0 311.5 -37t183 -104t87 -157t23.5 -196v-23l-292 -22v59q0 99 -32 152.5t-101 74t-180 20.5q-110 0 -189.5 -21.5t-122.5 -77t-43 -157.5v-558
q0 -101 42.5 -154.5t122 -73t190.5 -19.5q113 0 188 19.5t112.5 73t37.5 154.5v108h-298v195h566v-757h-157l-47 170q-6 -18 -25 -50t-62 -65.5t-119 -57t-196 -23.5zM718 1638l-277 355h179l231 -205h-67l230 205h179l-277 -355h-198z" />
    <glyph glyph-name="gcaron" unicode="&#x1e7;" horiz-adv-x="1211" 
d="M574 -441q-100 0 -199.5 14.5t-155.5 41.5l56 185q76 -21 151.5 -31.5t137.5 -10.5q117 0 170 50.5t53 161.5v118q-32 -19 -73.5 -31.5t-85.5 -18.5t-85 -6q-194 0 -306.5 88t-112.5 246v385q0 92 39 171t129 127t241 48q59 0 115.5 -13.5t104.5 -36t81 -50.5l23 78h202
v-1087q0 -132 -49.5 -228.5t-156 -148.5t-279.5 -52zM588 213q69 0 120 14t79 34v571q0 21 -53.5 48t-145.5 27q-93 0 -142.5 -34.5t-49.5 -115.5v-401q0 -81 53.5 -112t138.5 -31zM483 1255l-277 365h179l231 -215h-67l230 215h179l-277 -365h-198z" />
    <glyph glyph-name="uni01E8" unicode="&#x1e8;" horiz-adv-x="1448" 
d="M779 715h-73l-219 -273v-442h-297v1476h297v-716l574 716h328zM616 696l209 173l601 -869h-335zM654 1638l-277 355h179l231 -205h-67l230 205h179l-277 -355h-198z" />
    <glyph glyph-name="uni01E9" unicode="&#x1e9;" horiz-adv-x="1199" 
d="M162 1516h272v-914l425 472h310l-404 -463l422 -611h-297l-336 497l-120 -123v-374h-272v1516zM199 1657l-277 365h179l231 -215h-67l230 215h179l-277 -365h-198z" />
    <glyph glyph-name="uni01EA" unicode="&#x1ea;" horiz-adv-x="1606" 
d="M814 -26q-199 0 -327 41t-199 113t-99.5 168t-28.5 205v462q0 112 28 209.5t99 171.5t199 115.5t328 41.5q191 0 314.5 -44t193 -120.5t97 -176.5t27.5 -212v-431q0 -109 -28 -206.5t-97.5 -173.5t-192.5 -119.5t-314 -43.5zM814 207q112 0 186 23t111 80t37 158v535
q0 99 -37 157t-111.5 83t-185.5 25q-110 0 -190 -24t-123 -82t-43 -159v-535q0 -101 42.5 -158t122.5 -80t191 -23zM1066 -474q-148 0 -215.5 54t-67.5 160q0 72 55 151.5t137 128.5l126 -10q-60 -51 -96.5 -106.5t-36.5 -114.5q0 -55 32 -83.5t99 -28.5h35l-13 -151h-55z
" />
    <glyph glyph-name="uni01EB" unicode="&#x1eb;" horiz-adv-x="1180" 
d="M590 -23q-169 0 -271.5 42.5t-148.5 120.5t-46 185v423q0 110 55 188t159.5 119.5t251.5 41.5t251 -41.5t159.5 -119.5t55.5 -188v-423q0 -106 -44 -184.5t-145.5 -121t-276.5 -42.5zM590 166q87 0 140.5 32.5t53.5 114.5v447q0 82 -51 114.5t-143 32.5q-88 0 -141 -32.5
t-53 -114.5v-447q0 -82 50 -114.5t144 -32.5zM769 -484q-148 0 -215.5 54t-67.5 160q0 72 55 151.5t137 128.5l126 -10q-60 -51 -96.5 -106.5t-36.5 -114.5q0 -55 32 -83.5t99 -28.5h35l-13 -151h-55z" />
    <glyph glyph-name="uni01EC" unicode="&#x1ec;" horiz-adv-x="1606" 
d="M814 -26q-199 0 -327 41t-199 113t-99.5 168t-28.5 205v462q0 112 28 209.5t99 171.5t199 115.5t328 41.5q191 0 314.5 -44t193 -120.5t97 -176.5t27.5 -212v-431q0 -109 -28 -206.5t-97.5 -173.5t-192.5 -119.5t-314 -43.5zM814 207q112 0 186 23t111 80t37 158v535
q0 99 -37 157t-111.5 83t-185.5 25q-110 0 -190 -24t-123 -82t-43 -159v-535q0 -101 42.5 -158t122.5 -80t191 -23zM1066 -474q-148 0 -215.5 54t-67.5 160q0 72 55 151.5t137 128.5l126 -10q-60 -51 -96.5 -106.5t-36.5 -114.5q0 -55 32 -83.5t99 -28.5h35l-13 -151h-55z
M461 1737v167h684v-167h-684z" />
    <glyph glyph-name="uni01ED" unicode="&#x1ed;" horiz-adv-x="1180" 
d="M590 -23q-169 0 -271.5 42.5t-148.5 120.5t-46 185v423q0 110 55 188t159.5 119.5t251.5 41.5t251 -41.5t159.5 -119.5t55.5 -188v-423q0 -106 -44 -184.5t-145.5 -121t-276.5 -42.5zM590 166q87 0 140.5 32.5t53.5 114.5v447q0 82 -51 114.5t-143 32.5q-88 0 -141 -32.5
t-53 -114.5v-447q0 -82 50 -114.5t144 -32.5zM769 -484q-148 0 -215.5 54t-67.5 160q0 72 55 151.5t137 128.5l126 -10q-60 -51 -96.5 -106.5t-36.5 -114.5q0 -55 32 -83.5t99 -28.5h35l-13 -151h-55zM300 1336v167h584v-167h-584z" />
    <glyph glyph-name="uni01EE" unicode="&#x1ee;" horiz-adv-x="1410" 
d="M694 -429q-203 0 -328.5 70t-182.5 201.5t-57 315.5h268q0 -122 29.5 -202.5t96 -120t177.5 -39.5q157 0 221 85.5t64 252.5q0 117 -31.5 195t-122.5 117t-270 39v221q263 0 417.5 -72t221.5 -201.5t67 -304.5q0 -155 -55.5 -281.5t-180.5 -201t-334 -74.5zM808 600
l-250 106l378 562l6 -16h-743v224h1025v-234zM605 1638l-277 355h179l231 -205h-67l230 205h179l-277 -355h-198z" />
    <glyph glyph-name="uni01EF" unicode="&#x1ef;" horiz-adv-x="1098" 
d="M519 -428q-163 0 -265.5 55.5t-151 159t-48.5 248.5h232q0 -92 24.5 -144t76.5 -73t135 -21q116 0 168 58.5t52 176.5q0 122 -46 183.5t-187 61.5h-112v199l284 451l2 -39h-587v186h854v-164l-336 -542l-27 106q140 0 228 -59t129.5 -160.5t41.5 -229.5
q0 -129 -47 -231.5t-149.5 -162t-270.5 -59.5zM420 1255l-277 365h179l231 -215h-67l230 215h179l-277 -365h-198z" />
    <glyph glyph-name="uni01F0" unicode="&#x1f0;" horiz-adv-x="650" 
d="M-18 -168h45q70 0 107 27.5t50.5 68.5t13.5 82v1064h273v-1077q0 -106 -38 -187t-120 -126.5t-216 -45.5h-101zM235 1255l-277 365h179l231 -215h-67l230 215h179l-277 -365h-198z" />
    <glyph glyph-name="uni01F1" unicode="&#x1f1;" horiz-adv-x="2718" 
d="M190 0v1476h640q214 0 332 -68.5t165 -185t47 -261.5v-453q0 -147 -49.5 -262t-167.5 -180.5t-326 -65.5h-641zM487 231h318q105 0 164 25.5t83.5 78.5t24.5 135v530q0 80 -25 134.5t-84.5 82.5t-162.5 28h-318v-1014zM1660 177l620 1081h-592v218h936v-179l-618 -1087
h630v-210h-976v177z" />
    <glyph glyph-name="uni01F2" unicode="&#x1f2;" horiz-adv-x="2440" 
d="M190 0v1476h640q214 0 332 -68.5t165 -185t47 -261.5v-453q0 -147 -49.5 -262t-167.5 -180.5t-326 -65.5h-641zM487 231h318q105 0 164 25.5t83.5 78.5t24.5 135v530q0 80 -25 134.5t-84.5 82.5t-162.5 28h-318v-1014zM1638 167l445 760l22 -26h-457v173h704v-164
l-442 -759l-22 24h459v-175h-709v167z" />
    <glyph glyph-name="uni01F3" unicode="&#x1f3;" horiz-adv-x="2104" 
d="M124 324v429q0 149 105.5 246.5t340.5 97.5q46 0 99.5 -10.5t100.5 -27.5v456h272v-1515h-184l-29 63q-52 -37 -123.5 -61.5t-154.5 -24.5q-145 0 -240 42t-141 119.5t-46 185.5zM770 211v659q-27 13 -73.5 25t-103.5 12q-93 0 -145 -33t-52 -115v-439q0 -82 48.5 -117
t138.5 -35q56 0 106 12t81 31zM1302 167l445 760l22 -26h-457v173h704v-164l-442 -759l-22 24h459v-175h-709v167z" />
    <glyph glyph-name="uni01F4" unicode="&#x1f4;" horiz-adv-x="1607" 
d="M813 -26q-197 0 -324.5 38.5t-199 107.5t-100.5 162t-29 202v493q0 112 28.5 207.5t100 166.5t199 110.5t325.5 39.5q192 0 311.5 -37t183 -104t87 -157t23.5 -196v-23l-292 -22v59q0 99 -32 152.5t-101 74t-180 20.5q-110 0 -189.5 -21.5t-122.5 -77t-43 -157.5v-558
q0 -101 42.5 -154.5t122 -73t190.5 -19.5q113 0 188 19.5t112.5 73t37.5 154.5v108h-298v195h566v-757h-157l-47 170q-6 -18 -25 -50t-62 -65.5t-119 -57t-196 -23.5zM657 1657l162 365h318l-281 -365h-199z" />
    <glyph glyph-name="uni01F5" unicode="&#x1f5;" horiz-adv-x="1211" 
d="M574 -441q-100 0 -199.5 14.5t-155.5 41.5l56 185q76 -21 151.5 -31.5t137.5 -10.5q117 0 170 50.5t53 161.5v118q-32 -19 -73.5 -31.5t-85.5 -18.5t-85 -6q-194 0 -306.5 88t-112.5 246v385q0 92 39 171t129 127t241 48q59 0 115.5 -13.5t104.5 -36t81 -50.5l23 78h202
v-1087q0 -132 -49.5 -228.5t-156 -148.5t-279.5 -52zM588 213q69 0 120 14t79 34v571q0 21 -53.5 48t-145.5 27q-93 0 -142.5 -34.5t-49.5 -115.5v-401q0 -81 53.5 -112t138.5 -31zM452 1255l122 365h268l-241 -365h-149z" />
    <glyph glyph-name="uni01F8" unicode="&#x1f8;" horiz-adv-x="1634" 
d="M190 1476h223l794 -1048l-27 -9v1057h264v-1476h-223l-791 1032l27 9v-1041h-267v1476zM778 1657l-281 365h318l162 -365h-199z" />
    <glyph glyph-name="uni01F9" unicode="&#x1f9;" horiz-adv-x="1254" 
d="M160 1074h272v-95q62 53 137 86t192 33q121 0 196 -44.5t110 -118.5t35 -165v-770h-272v755q0 57 -29.5 87t-73 41t-86.5 11q-49 0 -97 -18t-80 -53t-32 -88v-735h-272v1074zM623 1256l-241 365h268l122 -365h-149z" />
    <glyph glyph-name="Aringacute" unicode="&#x1fa;" horiz-adv-x="1512" 
d="M70 0l486 1476h394l492 -1476h-315l-380 1298h26l-393 -1298h-310zM351 281l59 230h694l57 -230h-810zM756 1540q-126 0 -198 65t-72 185q0 119 72 183.5t198 64.5q125 0 197.5 -64.5t72.5 -183.5q0 -120 -72 -185t-198 -65zM756 1699q37 0 61.5 18.5t24.5 71.5
t-24.5 72.5t-61.5 19.5q-38 0 -62 -18.5t-24 -71.5q0 -54 24 -73t62 -19zM622 1901l162 365h318l-281 -365h-199z" />
    <glyph glyph-name="aringacute" unicode="&#x1fb;" horiz-adv-x="1174" 
d="M423 -23q-92 0 -162 36t-109.5 102t-39.5 155q0 76 31 135t113 109.5t235 98.5q84 27 138 50t80 50t26 64q0 43 -17 72t-54 43.5t-98 14.5q-68 0 -104 -18t-49.5 -50t-13.5 -74v-42h-255v32q0 156 104 249t324 93q161 0 255 -45t135 -126.5t41 -192.5v-425
q0 -73 18.5 -95.5t68.5 -22.5l-11 -198h-57q-112 0 -174 31t-91 96q-29 -38 -77.5 -70.5t-113 -52t-143.5 -19.5zM514 158q33 0 75 12.5t81.5 37.5t64.5 64v272q-27 -22 -86 -48.5t-127 -51.5q-89 -33 -117 -73t-28 -86q0 -65 38 -96t99 -31zM572 1198q-126 0 -198 65
t-72 185q0 119 72 183.5t198 64.5q125 0 197.5 -64.5t72.5 -183.5q0 -120 -72 -185t-198 -65zM572 1357q37 0 61.5 18.5t24.5 71.5t-24.5 72.5t-61.5 19.5q-38 0 -62 -18.5t-24 -71.5q0 -54 24 -73t62 -19zM502 1575l122 365h268l-241 -365h-149z" />
    <glyph glyph-name="AEacute" unicode="&#x1fc;" horiz-adv-x="1834" 
d="M396 414l55 230h442v605h-136l-364 -1249h-310l456 1477h1161v-228h-527v-391h457v-213h-457v-418h537v-227h-817v414h-497zM906 1657l162 365h318l-281 -365h-199z" />
    <glyph glyph-name="aeacute" unicode="&#x1fd;" horiz-adv-x="1734" 
d="M420 -23q-92 0 -160.5 35.5t-106.5 101t-41 154.5q-2 57 8 103t43 84t101.5 70t183.5 61q105 27 169 42t93 44t29 98q0 62 -38 100t-134 38q-68 0 -104.5 -21t-49.5 -55.5t-13 -76.5v-36h-256v26q0 156 104 254t325 98q101 0 185.5 -31.5t119.5 -98.5q54 66 132.5 98
t176.5 32q163 0 258.5 -43t137 -122t41.5 -187v-231h-612v-193q0 -88 46.5 -121.5t131.5 -33.5q62 0 101 11.5t58 51.5t21 124h252q-3 -156 -51.5 -237t-144 -110t-240.5 -29q-136 0 -225 44.5t-125 132.5l33 -4q-60 -56 -123 -94.5t-141 -58.5t-185 -20zM515 157
q33 0 76 9.5t83 32t65 60.5v261q-12 -10 -43.5 -23t-75 -25.5t-93.5 -24.5q-98 -22 -126.5 -66.5t-27.5 -90.5q2 -63 38.5 -98t103.5 -35zM1012 655h359v110q0 89 -48 115.5t-130 26.5t-131.5 -30.5t-49.5 -116.5v-105zM760 1255l122 365h268l-241 -365h-149z" />
    <glyph glyph-name="Oslashacute" unicode="&#x1fe;" horiz-adv-x="1606" 
d="M425 -157l698 1833l104 -38l-699 -1833zM814 -26q-199 0 -327 41t-199 113t-99.5 168t-28.5 205v462q0 112 28 209.5t99 171.5t199 115.5t328 41.5q191 0 314.5 -44t193 -120.5t97 -176.5t27.5 -212v-431q0 -109 -28 -206.5t-97.5 -173.5t-192.5 -119.5t-314 -43.5z
M814 207q112 0 186 23t111 80t37 158v535q0 99 -37 157t-111.5 83t-185.5 25q-110 0 -190 -24t-123 -82t-43 -159v-535q0 -101 42.5 -158t122.5 -80t191 -23zM643 1657l162 365h318l-281 -365h-199z" />
    <glyph glyph-name="oslashacute" unicode="&#x1ff;" horiz-adv-x="1180" 
d="M279 -187l531 1474l91 -27l-529 -1474zM590 -23q-169 0 -271.5 42.5t-148.5 120.5t-46 185v423q0 110 55 188t159.5 119.5t251.5 41.5t251 -41.5t159.5 -119.5t55.5 -188v-423q0 -106 -44 -184.5t-145.5 -121t-276.5 -42.5zM590 166q87 0 140.5 32.5t53.5 114.5v447
q0 82 -51 114.5t-143 32.5q-88 0 -141 -32.5t-53 -114.5v-447q0 -82 50 -114.5t144 -32.5zM462 1255l122 365h268l-241 -365h-149z" />
    <glyph glyph-name="uni0200" unicode="&#x200;" horiz-adv-x="1512" 
d="M70 0l486 1476h394l492 -1476h-315l-380 1298h26l-393 -1298h-310zM351 281l59 230h694l57 -230h-810zM861 1630l-161 365h258l42 -365h-139zM561 1630l-161 365h258l42 -365h-139z" />
    <glyph glyph-name="uni0201" unicode="&#x201;" horiz-adv-x="1174" 
d="M423 -23q-92 0 -162 36t-109.5 102t-39.5 155q0 76 31 135t113 109.5t235 98.5q84 27 138 50t80 50t26 64q0 43 -17 72t-54 43.5t-98 14.5q-68 0 -104 -18t-49.5 -50t-13.5 -74v-42h-255v32q0 156 104 249t324 93q161 0 255 -45t135 -126.5t41 -192.5v-425
q0 -73 18.5 -95.5t68.5 -22.5l-11 -198h-57q-112 0 -174 31t-91 96q-29 -38 -77.5 -70.5t-113 -52t-143.5 -19.5zM514 158q33 0 75 12.5t81.5 37.5t64.5 64v272q-27 -22 -86 -48.5t-127 -51.5q-89 -33 -117 -73t-28 -86q0 -65 38 -96t99 -31zM683 1256l-161 365h258l42 -365
h-139zM371 1256l-161 365h258l42 -365h-139z" />
    <glyph glyph-name="uni0202" unicode="&#x202;" horiz-adv-x="1512" 
d="M70 0l486 1476h394l492 -1476h-315l-380 1298h26l-393 -1298h-310zM351 281l59 230h694l57 -230h-810zM417 1650q0 165 91 251.5t248 86.5t248 -86.5t91 -251.5h-200q0 65 -32 99t-107 34t-107 -34t-32 -99h-200z" />
    <glyph glyph-name="uni0203" unicode="&#x203;" horiz-adv-x="1174" 
d="M423 -23q-92 0 -162 36t-109.5 102t-39.5 155q0 76 31 135t113 109.5t235 98.5q84 27 138 50t80 50t26 64q0 43 -17 72t-54 43.5t-98 14.5q-68 0 -104 -18t-49.5 -50t-13.5 -74v-42h-255v32q0 156 104 249t324 93q161 0 255 -45t135 -126.5t41 -192.5v-425
q0 -73 18.5 -95.5t68.5 -22.5l-11 -198h-57q-112 0 -174 31t-91 96q-29 -38 -77.5 -70.5t-113 -52t-143.5 -19.5zM514 158q33 0 75 12.5t81.5 37.5t64.5 64v272q-27 -22 -86 -48.5t-127 -51.5q-89 -33 -117 -73t-28 -86q0 -65 38 -96t99 -31zM233 1256q0 125 45.5 203
t122.5 114t171 36q95 0 171.5 -36t122 -114t45.5 -203h-172q0 80 -43 129t-124 49t-124 -49t-43 -129h-172z" />
    <glyph glyph-name="uni0204" unicode="&#x204;" horiz-adv-x="1294" 
d="M190 1476h967v-224h-671v-392h595v-214h-595v-422h682v-224h-978v1476zM780 1630l-161 365h258l42 -365h-139zM480 1630l-161 365h258l42 -365h-139z" />
    <glyph glyph-name="uni0205" unicode="&#x205;" horiz-adv-x="1149" 
d="M124 336v419q0 164 124.5 253t333.5 89q248 0 352.5 -95t104.5 -257v-260h-643v-175q0 -95 49 -119.5t146 -24.5q78 0 120 13.5t58.5 49t16.5 101.5h252q0 -133 -49.5 -210t-150 -110t-252.5 -33q-131 0 -236 32.5t-165.5 110.5t-60.5 216zM782 651v126q0 60 -25.5 87.5
t-69 35t-98.5 7.5q-82 0 -137.5 -24.5t-55.5 -110.5v-121h386zM703 1256l-161 365h258l42 -365h-139zM391 1256l-161 365h258l42 -365h-139z" />
    <glyph glyph-name="uni0206" unicode="&#x206;" horiz-adv-x="1294" 
d="M190 1476h967v-224h-671v-392h595v-214h-595v-422h682v-224h-978v1476zM336 1650q0 165 91 251.5t248 86.5t248 -86.5t91 -251.5h-200q0 65 -32 99t-107 34t-107 -34t-32 -99h-200z" />
    <glyph glyph-name="uni0207" unicode="&#x207;" horiz-adv-x="1149" 
d="M124 336v419q0 164 124.5 253t333.5 89q248 0 352.5 -95t104.5 -257v-260h-643v-175q0 -95 49 -119.5t146 -24.5q78 0 120 13.5t58.5 49t16.5 101.5h252q0 -133 -49.5 -210t-150 -110t-252.5 -33q-131 0 -236 32.5t-165.5 110.5t-60.5 216zM782 651v126q0 60 -25.5 87.5
t-69 35t-98.5 7.5q-82 0 -137.5 -24.5t-55.5 -110.5v-121h386zM253 1256q0 125 45.5 203t122.5 114t171 36q95 0 171.5 -36t122 -114t45.5 -203h-172q0 80 -43 129t-124 49t-124 -49t-43 -129h-172z" />
    <glyph glyph-name="uni0208" unicode="&#x208;" horiz-adv-x="1148" 
d="M158 222h269v1033h-269v221h832v-221h-267v-1033h267v-222h-832v222zM679 1630l-161 365h258l42 -365h-139zM379 1630l-161 365h258l42 -365h-139z" />
    <glyph glyph-name="uni0209" unicode="&#x209;" horiz-adv-x="519" 
d="M124 1074h271v-1074h-271v1074zM370 1256l-161 365h258l42 -365h-139zM58 1256l-161 365h258l42 -365h-139z" />
    <glyph glyph-name="uni020A" unicode="&#x20a;" horiz-adv-x="1148" 
d="M158 222h269v1033h-269v221h832v-221h-267v-1033h267v-222h-832v222zM235 1650q0 165 91 251.5t248 86.5t248 -86.5t91 -251.5h-200q0 65 -32 99t-107 34t-107 -34t-32 -99h-200z" />
    <glyph glyph-name="uni020B" unicode="&#x20b;" horiz-adv-x="519" 
d="M124 1074h271v-1074h-271v1074zM-80 1256q0 125 45.5 203t122.5 114t171 36q95 0 171.5 -36t122 -114t45.5 -203h-172q0 80 -43 129t-124 49t-124 -49t-43 -129h-172z" />
    <glyph glyph-name="uni020C" unicode="&#x20c;" horiz-adv-x="1606" 
d="M814 -26q-199 0 -327 41t-199 113t-99.5 168t-28.5 205v462q0 112 28 209.5t99 171.5t199 115.5t328 41.5q191 0 314.5 -44t193 -120.5t97 -176.5t27.5 -212v-431q0 -109 -28 -206.5t-97.5 -173.5t-192.5 -119.5t-314 -43.5zM814 207q112 0 186 23t111 80t37 158v535
q0 99 -37 157t-111.5 83t-185.5 25q-110 0 -190 -24t-123 -82t-43 -159v-535q0 -101 42.5 -158t122.5 -80t191 -23zM908 1630l-161 365h258l42 -365h-139zM608 1630l-161 365h258l42 -365h-139z" />
    <glyph glyph-name="uni020D" unicode="&#x20d;" horiz-adv-x="1180" 
d="M590 -23q-169 0 -271.5 42.5t-148.5 120.5t-46 185v423q0 110 55 188t159.5 119.5t251.5 41.5t251 -41.5t159.5 -119.5t55.5 -188v-423q0 -106 -44 -184.5t-145.5 -121t-276.5 -42.5zM590 166q87 0 140.5 32.5t53.5 114.5v447q0 82 -51 114.5t-143 32.5q-88 0 -141 -32.5
t-53 -114.5v-447q0 -82 50 -114.5t144 -32.5zM703 1256l-161 365h258l42 -365h-139zM391 1256l-161 365h258l42 -365h-139z" />
    <glyph glyph-name="uni020E" unicode="&#x20e;" horiz-adv-x="1606" 
d="M814 -26q-199 0 -327 41t-199 113t-99.5 168t-28.5 205v462q0 112 28 209.5t99 171.5t199 115.5t328 41.5q191 0 314.5 -44t193 -120.5t97 -176.5t27.5 -212v-431q0 -109 -28 -206.5t-97.5 -173.5t-192.5 -119.5t-314 -43.5zM814 207q112 0 186 23t111 80t37 158v535
q0 99 -37 157t-111.5 83t-185.5 25q-110 0 -190 -24t-123 -82t-43 -159v-535q0 -101 42.5 -158t122.5 -80t191 -23zM464 1650q0 165 91 251.5t248 86.5t248 -86.5t91 -251.5h-200q0 65 -32 99t-107 34t-107 -34t-32 -99h-200z" />
    <glyph glyph-name="uni020F" unicode="&#x20f;" horiz-adv-x="1180" 
d="M590 -23q-169 0 -271.5 42.5t-148.5 120.5t-46 185v423q0 110 55 188t159.5 119.5t251.5 41.5t251 -41.5t159.5 -119.5t55.5 -188v-423q0 -106 -44 -184.5t-145.5 -121t-276.5 -42.5zM590 166q87 0 140.5 32.5t53.5 114.5v447q0 82 -51 114.5t-143 32.5q-88 0 -141 -32.5
t-53 -114.5v-447q0 -82 50 -114.5t144 -32.5zM253 1256q0 125 45.5 203t122.5 114t171 36q95 0 171.5 -36t122 -114t45.5 -203h-172q0 80 -43 129t-124 49t-124 -49t-43 -129h-172z" />
    <glyph glyph-name="uni0210" unicode="&#x210;" horiz-adv-x="1484" 
d="M190 0v1476h637q196 0 303 -55t148.5 -154t41.5 -232q0 -91 -16.5 -170.5t-63.5 -140.5t-137 -98l285 -626h-308l-259 583h-334v-583h-297zM487 795h365q76 0 115.5 30.5t54 82t14.5 114.5q0 60 -12.5 116t-49 91.5t-110.5 35.5h-377v-470zM829 1630l-161 365h258
l42 -365h-139zM529 1630l-161 365h258l42 -365h-139z" />
    <glyph glyph-name="uni0211" unicode="&#x211;" horiz-adv-x="831" 
d="M160 1074h272v-128q24 42 84.5 74.5t138.5 51t156 18.5l-6 -231q-52 -3 -113 -13t-117.5 -27t-95.5 -42t-47 -57v-720h-272v1074zM603 1256l-161 365h258l42 -365h-139zM291 1256l-161 365h258l42 -365h-139z" />
    <glyph glyph-name="uni0212" unicode="&#x212;" horiz-adv-x="1484" 
d="M190 0v1476h637q196 0 303 -55t148.5 -154t41.5 -232q0 -91 -16.5 -170.5t-63.5 -140.5t-137 -98l285 -626h-308l-259 583h-334v-583h-297zM487 795h365q76 0 115.5 30.5t54 82t14.5 114.5q0 60 -12.5 116t-49 91.5t-110.5 35.5h-377v-470zM385 1650q0 165 91 251.5
t248 86.5t248 -86.5t91 -251.5h-200q0 65 -32 99t-107 34t-107 -34t-32 -99h-200z" />
    <glyph glyph-name="uni0213" unicode="&#x213;" horiz-adv-x="831" 
d="M160 1074h272v-128q24 42 84.5 74.5t138.5 51t156 18.5l-6 -231q-52 -3 -113 -13t-117.5 -27t-95.5 -42t-47 -57v-720h-272v1074zM152 1256q0 125 45.5 203t122.5 114t171 36q95 0 171.5 -36t122 -114t45.5 -203h-172q0 80 -43 129t-124 49t-124 -49t-43 -129h-172z" />
    <glyph glyph-name="uni0214" unicode="&#x214;" horiz-adv-x="1574" 
d="M796 -26q-189 0 -310.5 37t-189 104t-94 157t-26.5 196v1009h297v-1022q0 -97 38 -151t110.5 -75.5t174.5 -21.5q104 0 171.5 22t100.5 76t33 150v1022h297v-997q0 -105 -25 -197t-89.5 -161.5t-182.5 -108.5t-305 -39zM892 1630l-161 365h258l42 -365h-139zM592 1630
l-161 365h258l42 -365h-139z" />
    <glyph glyph-name="uni0215" unicode="&#x215;" horiz-adv-x="1251" 
d="M485 -23q-103 0 -177.5 41t-115 112t-40.5 161v783h272v-739q0 -56 28 -89.5t70 -48.5t84 -15q50 0 99 17t81.5 54t32.5 97v724h272v-1074h-256l-8 118q-32 -67 -131 -104t-211 -37zM744 1256l-161 365h258l42 -365h-139zM432 1256l-161 365h258l42 -365h-139z" />
    <glyph glyph-name="uni0216" unicode="&#x216;" horiz-adv-x="1574" 
d="M796 -26q-189 0 -310.5 37t-189 104t-94 157t-26.5 196v1009h297v-1022q0 -97 38 -151t110.5 -75.5t174.5 -21.5q104 0 171.5 22t100.5 76t33 150v1022h297v-997q0 -105 -25 -197t-89.5 -161.5t-182.5 -108.5t-305 -39zM448 1650q0 165 91 251.5t248 86.5t248 -86.5
t91 -251.5h-200q0 65 -32 99t-107 34t-107 -34t-32 -99h-200z" />
    <glyph glyph-name="uni0217" unicode="&#x217;" horiz-adv-x="1251" 
d="M485 -23q-103 0 -177.5 41t-115 112t-40.5 161v783h272v-739q0 -56 28 -89.5t70 -48.5t84 -15q50 0 99 17t81.5 54t32.5 97v724h272v-1074h-256l-8 118q-32 -67 -131 -104t-211 -37zM294 1256q0 125 45.5 203t122.5 114t171 36q95 0 171.5 -36t122 -114t45.5 -203h-172
q0 80 -43 129t-124 49t-124 -49t-43 -129h-172z" />
    <glyph glyph-name="uni0218" unicode="&#x218;" horiz-adv-x="1281" 
d="M688 -26q-151 0 -304 36t-264 98l102 217q85 -45 203.5 -81.5t255.5 -36.5q91 0 137.5 26t63 72.5t16.5 106.5q0 41 -14 75.5t-57.5 64t-132.5 55.5l-252 74q-120 36 -186.5 96.5t-93 141.5t-26.5 175q0 138 67.5 228t184 134.5t261.5 44.5q146 0 269 -28t225 -87
l-84 -209q-82 39 -179 65t-205 26q-113 0 -180 -34.5t-67 -129.5q0 -76 39.5 -117t151.5 -75l251 -75q149 -45 224 -143t75 -272q0 -125 -50 -226.5t-156 -161.5t-275 -60zM628 -635l-117 50q57 55 86.5 119t29.5 145v15.5t-1 15.5l66 -94h-189v271h281v-106
q0 -151 -38 -246t-118 -170z" />
    <glyph glyph-name="uni0219" unicode="&#x219;" horiz-adv-x="994" 
d="M108 61l55 185q86 -37 180.5 -58.5t173.5 -21.5q74 0 110 35.5t36 97.5q0 47 -20.5 73.5t-70.5 42.5l-236 74q-127 40 -174.5 118t-47.5 186q0 154 108.5 229t277.5 75q138 0 234 -29t154 -62l-64 -169q-31 17 -82 33t-108.5 26.5t-108.5 10.5q-86 0 -118 -30t-32 -83
q0 -34 16 -59.5t57 -38.5l222 -70q91 -28 143.5 -71.5t75.5 -105.5t23 -146q0 -90 -42.5 -164t-128 -118t-214.5 -44q-136 0 -235.5 20.5t-183.5 63.5zM491 -635l-117 50q57 55 86.5 119t29.5 145v15.5t-1 15.5l66 -94h-189v271h281v-106q0 -151 -38 -246t-118 -170z" />
    <glyph glyph-name="uni021A" unicode="&#x21a;" horiz-adv-x="1194" 
d="M449 0v1250h-411v226h1118v-226h-411v-1250h-296zM579 -635l-117 50q57 55 86.5 119t29.5 145v15.5t-1 15.5l66 -94h-189v271h281v-106q0 -151 -38 -246t-118 -170z" />
    <glyph glyph-name="uni021B" unicode="&#x21b;" horiz-adv-x="812" 
d="M206 347v554h-142v173h150l25 345h239v-345h255v-173h-255v-534q0 -100 43.5 -138.5t166.5 -38.5h52l-10 -202h-74q-162 0 -261 32t-144 110.5t-45 216.5zM456 -635l-117 50q57 55 86.5 119t29.5 145v15.5t-1 15.5l66 -94h-189v271h281v-106q0 -151 -38 -246t-118 -170z
" />
    <glyph glyph-name="uni021E" unicode="&#x21e;" horiz-adv-x="1624" 
d="M190 1476h298v-628h648v628h298v-1476h-298v615h-648v-615h-298v1476zM713 1638l-277 355h179l231 -205h-67l230 205h179l-277 -355h-198z" />
    <glyph glyph-name="uni021F" unicode="&#x21f;" horiz-adv-x="1254" 
d="M162 1515h272v-545q35 56 129.5 91.5t206.5 35.5q103 0 177.5 -38t114.5 -105.5t40 -158.5v-795h-272v756q0 57 -28 86.5t-70 40.5t-85 11q-49 0 -98 -17.5t-82 -52t-33 -86.5v-738h-272v1515zM576 1657l-277 365h179l231 -215h-67l230 215h179l-277 -365h-198z" />
    <glyph glyph-name="uni0220" unicode="&#x220;" horiz-adv-x="1559" 
d="M190 1476h295v-140l-32 -13q30 43 86.5 83.5t150.5 67t233 26.5q159 0 257 -56t143.5 -148.5t45.5 -203.5v-1502h-298v1489q0 100 -69 144.5t-200 44.5q-143 0 -228.5 -64.5t-85.5 -172.5v-1031h-298v1476z" />
    <glyph glyph-name="uni0222" unicode="&#x222;" horiz-adv-x="1606" 
d="M814 -26q-199 0 -327 41t-199 111.5t-99.5 160.5t-28.5 188v52q0 101 28 192t99 161t199 110.5t328 40.5q191 0 314.5 -42.5t193 -116t97 -166.5t27.5 -194v-21q0 -97 -28 -189.5t-97.5 -166.5t-192.5 -117.5t-314 -43.5zM814 207q168 0 251 53t83 182v125
q0 126 -83.5 178.5t-250.5 52.5q-165 0 -260.5 -51t-95.5 -180v-125q0 -130 95 -182.5t261 -52.5zM1148 1272v204h297v-171q0 -95 -28 -185.5t-97 -163t-192 -115.5t-314 -43q-199 0 -326.5 40.5t-199 111t-99.5 162t-28 193.5v171h297v-204q0 -137 95 -189t261 -52
q168 0 251 52.5t83 188.5z" />
    <glyph glyph-name="uni0223" unicode="&#x223;" horiz-adv-x="1180" 
d="M590 -23q-169 0 -271.5 42.5t-148.5 120.5t-46 185v283q0 164 122.5 241.5t343.5 77.5q220 0 343 -77.5t123 -241.5v-283q0 -106 -44 -184.5t-145.5 -121t-276.5 -42.5zM590 166q87 0 140.5 32.5t53.5 114.5v307q0 82 -51 114.5t-143 32.5q-88 0 -141 -32.5t-53 -114.5
v-307q0 -82 50 -114.5t144 -32.5zM784 1515h272v-400q0 -106 -44 -177t-145.5 -106t-276.5 -35q-254 0 -360 79t-106 239v400h272v-412q0 -82 50 -114.5t144 -32.5q87 0 140.5 32.5t53.5 114.5v412z" />
    <glyph glyph-name="uni0226" unicode="&#x226;" horiz-adv-x="1512" 
d="M70 0l486 1476h394l492 -1476h-315l-380 1298h26l-393 -1298h-310zM351 281l59 230h694l57 -230h-810zM629 1668v265h254v-265h-254z" />
    <glyph glyph-name="uni0227" unicode="&#x227;" horiz-adv-x="1174" 
d="M423 -23q-92 0 -162 36t-109.5 102t-39.5 155q0 76 31 135t113 109.5t235 98.5q84 27 138 50t80 50t26 64q0 43 -17 72t-54 43.5t-98 14.5q-68 0 -104 -18t-49.5 -50t-13.5 -74v-42h-255v32q0 156 104 249t324 93q161 0 255 -45t135 -126.5t41 -192.5v-425
q0 -73 18.5 -95.5t68.5 -22.5l-11 -198h-57q-112 0 -174 31t-91 96q-29 -38 -77.5 -70.5t-113 -52t-143.5 -19.5zM514 158q33 0 75 12.5t81.5 37.5t64.5 64v272q-27 -22 -86 -48.5t-127 -51.5q-89 -33 -117 -73t-28 -86q0 -65 38 -96t99 -31zM435 1250v265h274v-265h-274z
" />
    <glyph glyph-name="uni0228" unicode="&#x228;" horiz-adv-x="1294" 
d="M190 1476h967v-224h-671v-392h595v-214h-595v-422h682v-224h-978v1476zM520 -485v122h178q32 0 44 13.5t12 32.5v58q0 20 -14 33t-42 13h-90v243h131v-166l-65 46q125 0 181.5 -42t56.5 -130v-50q0 -71 -46 -122t-159 -51h-187z" />
    <glyph glyph-name="uni0229" unicode="&#x229;" horiz-adv-x="1149" 
d="M124 336v419q0 164 124.5 253t333.5 89q248 0 352.5 -95t104.5 -257v-260h-643v-175q0 -95 49 -119.5t146 -24.5q78 0 120 13.5t58.5 49t16.5 101.5h252q0 -133 -49.5 -210t-150 -110t-252.5 -33q-131 0 -236 32.5t-165.5 110.5t-60.5 216zM782 651v126q0 60 -25.5 87.5
t-69 35t-98.5 7.5q-82 0 -137.5 -24.5t-55.5 -110.5v-121h386zM431 -485v122h178q32 0 44 13.5t12 32.5v58q0 20 -14 33t-42 13h-90v243h131v-166l-65 46q125 0 181.5 -42t56.5 -130v-50q0 -71 -46 -122t-159 -51h-187z" />
    <glyph glyph-name="uni022A" unicode="&#x22a;" horiz-adv-x="1606" 
d="M814 -26q-199 0 -327 41t-199 113t-99.5 168t-28.5 205v462q0 112 28 209.5t99 171.5t199 115.5t328 41.5q191 0 314.5 -44t193 -120.5t97 -176.5t27.5 -212v-431q0 -109 -28 -206.5t-97.5 -173.5t-192.5 -119.5t-314 -43.5zM814 207q112 0 186 23t111 80t37 158v535
q0 99 -37 157t-111.5 83t-185.5 25q-110 0 -190 -24t-123 -82t-43 -159v-535q0 -101 42.5 -158t122.5 -80t191 -23zM875 1663v233h265v-233h-265zM466 1663v233h264v-233h-264zM461 2057v167h684v-167h-684z" />
    <glyph glyph-name="uni022B" unicode="&#x22b;" horiz-adv-x="1180" 
d="M590 -23q-169 0 -271.5 42.5t-148.5 120.5t-46 185v423q0 110 55 188t159.5 119.5t251.5 41.5t251 -41.5t159.5 -119.5t55.5 -188v-423q0 -106 -44 -184.5t-145.5 -121t-276.5 -42.5zM590 166q87 0 140.5 32.5t53.5 114.5v447q0 82 -51 114.5t-143 32.5q-88 0 -141 -32.5
t-53 -114.5v-447q0 -82 50 -114.5t144 -32.5zM664 1231v233h265v-233h-265zM255 1231v233h264v-233h-264zM300 1576v167h584v-167h-584z" />
    <glyph glyph-name="uni022C" unicode="&#x22c;" horiz-adv-x="1606" 
d="M814 -26q-199 0 -327 41t-199 113t-99.5 168t-28.5 205v462q0 112 28 209.5t99 171.5t199 115.5t328 41.5q191 0 314.5 -44t193 -120.5t97 -176.5t27.5 -212v-431q0 -109 -28 -206.5t-97.5 -173.5t-192.5 -119.5t-314 -43.5zM814 207q112 0 186 23t111 80t37 158v535
q0 99 -37 157t-111.5 83t-185.5 25q-110 0 -190 -24t-123 -82t-43 -159v-535q0 -101 42.5 -158t122.5 -80t191 -23zM929 1648q-65 0 -106.5 15.5t-69.5 36t-51.5 36t-53.5 15.5q-28 0 -46 -20.5t-18 -66.5h-134q0 140 62.5 200t164.5 60q66 0 106.5 -15.5t67 -35.5
t48.5 -35.5t51 -15.5q30 0 51 19.5t21 66.5h134q0 -140 -62.5 -200t-164.5 -60zM461 2055v167h684v-167h-684z" />
    <glyph glyph-name="uni022D" unicode="&#x22d;" horiz-adv-x="1180" 
d="M590 -23q-169 0 -271.5 42.5t-148.5 120.5t-46 185v423q0 110 55 188t159.5 119.5t251.5 41.5t251 -41.5t159.5 -119.5t55.5 -188v-423q0 -106 -44 -184.5t-145.5 -121t-276.5 -42.5zM590 166q87 0 140.5 32.5t53.5 114.5v447q0 82 -51 114.5t-143 32.5q-88 0 -141 -32.5
t-53 -114.5v-447q0 -82 50 -114.5t144 -32.5zM718 1291q-65 0 -106.5 15.5t-69.5 36t-51.5 36t-53.5 15.5q-28 0 -46 -20.5t-18 -66.5h-134q0 140 62.5 200t164.5 60q66 0 106.5 -15.5t67 -35.5t48.5 -35.5t51 -15.5q30 0 51 19.5t21 66.5h134q0 -140 -62.5 -200t-164.5 -60
zM300 1709v167h584v-167h-584z" />
    <glyph glyph-name="uni022E" unicode="&#x22e;" horiz-adv-x="1606" 
d="M814 -26q-199 0 -327 41t-199 113t-99.5 168t-28.5 205v462q0 112 28 209.5t99 171.5t199 115.5t328 41.5q191 0 314.5 -44t193 -120.5t97 -176.5t27.5 -212v-431q0 -109 -28 -206.5t-97.5 -173.5t-192.5 -119.5t-314 -43.5zM814 207q112 0 186 23t111 80t37 158v535
q0 99 -37 157t-111.5 83t-185.5 25q-110 0 -190 -24t-123 -82t-43 -159v-535q0 -101 42.5 -158t122.5 -80t191 -23zM676 1668v265h254v-265h-254z" />
    <glyph glyph-name="uni022F" unicode="&#x22f;" horiz-adv-x="1180" 
d="M590 -23q-169 0 -271.5 42.5t-148.5 120.5t-46 185v423q0 110 55 188t159.5 119.5t251.5 41.5t251 -41.5t159.5 -119.5t55.5 -188v-423q0 -106 -44 -184.5t-145.5 -121t-276.5 -42.5zM590 166q87 0 140.5 32.5t53.5 114.5v447q0 82 -51 114.5t-143 32.5q-88 0 -141 -32.5
t-53 -114.5v-447q0 -82 50 -114.5t144 -32.5zM455 1250v265h274v-265h-274z" />
    <glyph glyph-name="uni0230" unicode="&#x230;" horiz-adv-x="1606" 
d="M814 -26q-199 0 -327 41t-199 113t-99.5 168t-28.5 205v462q0 112 28 209.5t99 171.5t199 115.5t328 41.5q191 0 314.5 -44t193 -120.5t97 -176.5t27.5 -212v-431q0 -109 -28 -206.5t-97.5 -173.5t-192.5 -119.5t-314 -43.5zM814 207q112 0 186 23t111 80t37 158v535
q0 99 -37 157t-111.5 83t-185.5 25q-110 0 -190 -24t-123 -82t-43 -159v-535q0 -101 42.5 -158t122.5 -80t191 -23zM676 1658v265h254v-265h-254zM461 2064v167h684v-167h-684z" />
    <glyph glyph-name="uni0231" unicode="&#x231;" horiz-adv-x="1180" 
d="M590 -23q-169 0 -271.5 42.5t-148.5 120.5t-46 185v423q0 110 55 188t159.5 119.5t251.5 41.5t251 -41.5t159.5 -119.5t55.5 -188v-423q0 -106 -44 -184.5t-145.5 -121t-276.5 -42.5zM590 166q87 0 140.5 32.5t53.5 114.5v447q0 82 -51 114.5t-143 32.5q-88 0 -141 -32.5
t-53 -114.5v-447q0 -82 50 -114.5t144 -32.5zM455 1200v265h274v-265h-274zM300 1577v167h584v-167h-584z" />
    <glyph glyph-name="uni0232" unicode="&#x232;" horiz-adv-x="1304" 
d="M509 567l-509 909h313l368 -674h-44l367 674h300l-499 -909v-567h-296v567zM310 1737v167h684v-167h-684z" />
    <glyph glyph-name="uni0233" unicode="&#x233;" horiz-adv-x="1103" 
d="M148 -485l-20 225q101 15 174.5 75.5t119.5 181.5l24 63l25 -101l-437 1115h271l329 -896h-114l278 896h271l-371 -1062q-87 -249 -221.5 -361.5t-328.5 -135.5zM260 1336v167h584v-167h-584z" />
    <glyph glyph-name="uni0237" unicode="&#x237;" horiz-adv-x="650" 
d="M-18 -168h45q70 0 107 27.5t50.5 68.5t13.5 82v1064h273v-1077q0 -106 -38 -187t-120 -126.5t-216 -45.5h-101z" />
    <glyph glyph-name="uni023A" unicode="&#x23a;" horiz-adv-x="1512" 
d="M435 -157l698 1833l104 -38l-699 -1833zM70 0l486 1476h394l492 -1476h-315l-380 1298h26l-393 -1298h-310zM351 281l59 230h694l57 -230h-810z" />
    <glyph glyph-name="uni023B" unicode="&#x23b;" horiz-adv-x="1490" 
d="M315 -157l698 1833l104 -38l-699 -1833zM780 -26q-197 0 -319.5 38.5t-187.5 107.5t-89 162t-24 202v493q0 112 23.5 207.5t88 166.5t187.5 110.5t321 39.5q189 0 304.5 -38.5t175.5 -108.5t81 -164.5t21 -206.5v-18l-291 -34v75q0 104 -26 160.5t-89 79t-176 22.5
q-110 0 -181.5 -21.5t-106.5 -77t-35 -157.5v-558q0 -101 35 -154.5t106.5 -73t182.5 -19.5q113 0 176 19.5t88.5 74t25.5 159.5v47h291v-27q0 -109 -20 -201t-79 -160.5t-175 -106.5t-308 -38z" />
    <glyph glyph-name="uni023C" unicode="&#x23c;" horiz-adv-x="1111" 
d="M249 -187l531 1474l91 -27l-529 -1474zM573 -23q-183 0 -280 48.5t-133 128.5t-36 173v430q0 161 117 250.5t328 89.5q145 0 242.5 -35.5t147.5 -122t50 -240.5l-256 -20q0 98 -14.5 146.5t-52 65t-107.5 16.5q-87 0 -135 -34t-48 -117v-434q0 -86 45 -120t138 -34
q71 0 109 15t52 60.5t14 136.5h254q0 -148 -37.5 -236.5t-132 -127.5t-265.5 -39z" />
    <glyph glyph-name="uni023D" unicode="&#x23d;" horiz-adv-x="1172" 
d="M30 900h686v-190h-686v190zM190 1476h297v-1244h617v-232h-914v1476z" />
    <glyph glyph-name="uni023E" unicode="&#x23e;" horiz-adv-x="1194" 
d="M315 -157l698 1833l104 -38l-699 -1833zM449 0v1250h-411v226h1118v-226h-411v-1250h-296z" />
    <glyph glyph-name="uni0241" unicode="&#x241;" horiz-adv-x="1304" 
d="M525 0v461l245 279q76 87 106 156.5t30 159.5q0 60 -21.5 110.5t-77 81.5t-158.5 31q-151 0 -218 -64.5t-67 -177.5v-75h-274v74q0 137 49.5 241.5t171.5 164t338 59.5q168 0 275.5 -34.5t167 -95.5t83 -139t23.5 -165q0 -154 -64.5 -265t-192.5 -225l-178 -158l34 75
v-494h-272z" />
    <glyph glyph-name="uni0242" unicode="&#x242;" horiz-adv-x="1244" 
d="M445 0v177l245 199q89 72 112.5 136.5t23.5 139.5q0 65 -13 115.5t-57 79t-137 28.5q-101 0 -146.5 -28.5t-57 -80.5t-11.5 -123v-85h-274v74q0 102 19 187.5t70.5 147.5t148 96t251.5 34q161 0 259.5 -36t150.5 -97.5t70.5 -139.5t18.5 -161q0 -139 -53.5 -258.5
t-203.5 -206.5l-178 -103l34 69v-164h-272z" />
    <glyph glyph-name="uni0243" unicode="&#x243;" horiz-adv-x="1456" 
d="M30 553h686v-190h-686v190zM190 0v1476h568q207 0 320.5 -42t158 -127.5t44.5 -218.5q0 -121 -44 -194.5t-184 -97.5v12q119 -8 182 -54.5t86 -124.5t23 -181q0 -232 -119.5 -340t-394.5 -108h-640zM487 208h288q116 0 174.5 19t78.5 72.5t20 155.5q0 74 -14.5 129.5
t-66 87t-162.5 31.5h-318v-495zM487 882h307q87 0 125.5 23t48.5 68.5t10 111.5q0 78 -18 118.5t-69 55t-152 14.5h-252v-391z" />
    <glyph glyph-name="uni0244" unicode="&#x244;" horiz-adv-x="1574" 
d="M59 964h1456v-184h-1456v184zM796 -26q-189 0 -310.5 37t-189 104t-94 157t-26.5 196v1009h297v-1022q0 -97 38 -151t110.5 -75.5t174.5 -21.5q104 0 171.5 22t100.5 76t33 150v1022h297v-997q0 -105 -25 -197t-89.5 -161.5t-182.5 -108.5t-305 -39z" />
    <glyph glyph-name="uni0245" unicode="&#x245;" horiz-adv-x="1484" 
d="M1444 0h-318l-390 1193l-378 -1193h-318l520 1476h360z" />
    <glyph glyph-name="uni0246" unicode="&#x246;" horiz-adv-x="1334" 
d="M190 1476h1007v-224h-711v-392h635v-214h-635v-422h722v-224h-1018v1476zM455 -189l535 1887l107 -28l-536 -1887z" />
    <glyph glyph-name="uni0247" unicode="&#x247;" horiz-adv-x="1149" 
d="M262 -187l531 1474l91 -27l-529 -1474zM124 336v419q0 164 124.5 253t333.5 89q248 0 352.5 -95t104.5 -257v-260h-643v-175q0 -95 49 -119.5t146 -24.5q78 0 120 13.5t58.5 49t16.5 101.5h252q0 -133 -49.5 -210t-150 -110t-252.5 -33q-131 0 -236 32.5t-165.5 110.5
t-60.5 216zM782 651v126q0 60 -25.5 87.5t-69 35t-98.5 7.5q-82 0 -137.5 -24.5t-55.5 -110.5v-121h386z" />
    <glyph glyph-name="uni0248" unicode="&#x248;" horiz-adv-x="1222" 
d="M1176 873v-190h-716v190h716zM70 67l69 220q49 -22 109.5 -40t122.5 -28t114 -10q140 0 197 68t57 164v809h-508v226h805v-1054q0 -213 -142 -330t-390 -117q-72 0 -147.5 10.5t-148.5 31t-138 50.5z" />
    <glyph glyph-name="uni0249" unicode="&#x249;" horiz-adv-x="650" 
d="M69 671h531v-157h-531v157zM-18 -168h45q70 0 107 27.5t50.5 68.5t13.5 82v1064h273v-1077q0 -106 -38 -187t-120 -126.5t-216 -45.5h-101zM197 1250v265h274v-265h-274z" />
    <glyph glyph-name="uni024A" unicode="&#x24a;" horiz-adv-x="1595" 
d="M733 -23q-286 0 -429.5 136.5t-143.5 358.5v546q0 136 59 245t182 173t315 64q127 0 232.5 -34.5t163.5 -97.5l-41 -55l46 163h259v-1539q0 -47 9.5 -73.5t33 -37.5t66.5 -11l-12 -225h-73q-164 0 -241.5 65t-77.5 198v322l105 -19q-107 -104 -212 -141.5t-241 -37.5z
M767 207q118 0 194.5 22t116.5 47v905q0 15 -28 35t-88.5 35.5t-160.5 15.5q-158 0 -250.5 -61t-92.5 -190v-570q0 -119 90 -179t219 -60z" />
    <glyph glyph-name="uni024B" unicode="&#x24b;" horiz-adv-x="1194" 
d="M1041 -410q-131 0 -201 80t-70 207v156q-49 -28 -110 -42t-123 -14q-151 0 -241.5 47.5t-131 125t-40.5 167.5v433q0 158 111.5 252.5t307.5 94.5q56 0 108 -12.5t95.5 -33t73.5 -46.5l19 69h203v-1168q0 -73 18.5 -95.5t68.5 -22.5l-11 -198h-77zM588 166q86 0 133 24.5
t49 29.5v619q-19 29 -64 48.5t-118 19.5q-87 0 -139.5 -34.5t-52.5 -116.5v-448q0 -81 50.5 -111.5t141.5 -30.5z" />
    <glyph glyph-name="uni024C" unicode="&#x24c;" horiz-adv-x="1484" 
d="M30 783h696v-190h-696v190zM190 0v1476h637q196 0 303 -55t148.5 -154t41.5 -232q0 -91 -16.5 -170.5t-63.5 -140.5t-137 -98l285 -626h-308l-259 583h-334v-583h-297zM487 795h365q76 0 115.5 30.5t54 82t14.5 114.5q0 60 -12.5 116t-49 91.5t-110.5 35.5h-377v-470z
" />
    <glyph glyph-name="uni024D" unicode="&#x24d;" horiz-adv-x="831" 
d="M30 522h686v-190h-686v190zM160 1074h272v-128q24 42 84.5 74.5t138.5 51t156 18.5l-6 -231q-52 -3 -113 -13t-117.5 -27t-95.5 -42t-47 -57v-720h-272v1074z" />
    <glyph glyph-name="uni024E" unicode="&#x24e;" horiz-adv-x="1304" 
d="M10 1303h1284v-190h-1284v190zM509 567l-509 909h313l368 -674h-44l367 674h300l-499 -909v-567h-296v567z" />
    <glyph glyph-name="uni024F" unicode="&#x24f;" horiz-adv-x="1103" 
d="M30 859h1056v-190h-1056v190zM148 -485l-20 225q101 15 174.5 75.5t119.5 181.5l24 63l25 -101l-437 1115h271l329 -896h-114l278 896h271l-371 -1062q-87 -249 -221.5 -361.5t-328.5 -135.5z" />
    <glyph glyph-name="uni0251" unicode="&#x251;" horiz-adv-x="1213" 
d="M551 -23q-218 0 -322.5 92.5t-104.5 254.5v429q0 149 102.5 246.5t316.5 97.5q50 0 106.5 -16.5t106.5 -43t80 -57.5l-32 -26l36 120h202v-766q0 -73 18.5 -95.5t68.5 -22.5l-11 -198h-57q-112 0 -174 31t-91 96l98 -11q-101 -76 -180.5 -103.5t-162.5 -27.5zM583 168
q56 0 106 12t81 31v648q0 17 -56.5 32.5t-120.5 15.5q-93 0 -145 -33t-52 -115v-439q0 -82 48.5 -117t138.5 -35z" />
    <glyph glyph-name="uni0253" unicode="&#x253;" horiz-adv-x="1206" 
d="M655 -23q-88 0 -158.5 27t-122.5 61l-27 -65h-187v1155q0 186 73.5 273t270.5 87h94l7 -188h-57q-40 0 -65.5 -15t-38 -46t-12.5 -80v-146q49 26 111 41.5t129 15.5q151 0 241 -48.5t129.5 -126.5t39.5 -169v-424q0 -105 -52.5 -184t-148 -123.5t-226.5 -44.5zM610 168
q88 0 144 37t56 118v435q0 80 -48 114.5t-139 34.5q-73 0 -124 -20.5t-67 -29.5v-641q31 -23 77 -35.5t101 -12.5z" />
    <glyph glyph-name="uni0254" unicode="&#x254;" horiz-adv-x="1111" 
d="M538 -23q-171 0 -265.5 39t-132 127.5t-37.5 236.5h254q0 -91 14 -136.5t52 -60.5t109 -15q93 0 138 34t45 120v434q0 83 -48 117t-135 34q-70 0 -107.5 -16.5t-52 -65t-14.5 -146.5l-256 20q0 154 50 240.5t148 122t242 35.5q211 0 328 -89.5t117 -250.5v-430
q0 -93 -36 -173t-132.5 -128.5t-280.5 -48.5z" />
    <glyph glyph-name="uni0256" unicode="&#x256;" horiz-adv-x="1198" 
d="M1041 -410q-131 0 -201 80t-70 207v227l79 -6q-52 -57 -129.5 -89t-168.5 -32q-145 0 -240 42t-141 119.5t-46 185.5v429q0 149 105.5 246.5t340.5 97.5q46 0 99.5 -10.5t100.5 -27.5v456h272v-1609q0 -73 18.5 -95.5t68.5 -22.5l-11 -198h-77zM583 168q56 0 106 12
t81 31v659q-27 13 -73.5 25t-103.5 12q-93 0 -145 -33t-52 -115v-439q0 -82 48.5 -117t138.5 -35z" />
    <glyph glyph-name="uni0257" unicode="&#x257;" horiz-adv-x="1198" 
d="M551 -23q-145 0 -240 42t-141 119.5t-46 185.5v429q0 149 105.5 246.5t340.5 97.5q46 0 99.5 -10.5t100.5 -27.5v126q0 164 71 247t253 83h84l7 -188h-47q-52 0 -74 -34t-22 -107v-1186h-184l-29 63q-52 -37 -123.5 -61.5t-154.5 -24.5zM583 168q56 0 106 12t81 31v659
q-27 13 -73.5 25t-103.5 12q-93 0 -145 -33t-52 -115v-439q0 -82 48.5 -117t138.5 -35z" />
    <glyph glyph-name="uni0259" unicode="&#x259;" horiz-adv-x="1149" 
d="M567 -23q-248 0 -352.5 95t-104.5 257v260h643v175q0 95 -48.5 119.5t-146.5 24.5q-77 0 -119.5 -13.5t-59 -49t-16.5 -101.5h-252q0 133 49.5 210t150 110t252.5 33q132 0 236.5 -32t165 -110.5t60.5 -216.5v-419q0 -164 -124.5 -253t-333.5 -89zM560 167q82 0 137.5 25
t55.5 110v121h-386v-126q0 -60 25.5 -87.5t69 -35t98.5 -7.5z" />
    <glyph glyph-name="uni025B" unicode="&#x25b;" horiz-adv-x="1127" 
d="M572 -23q-167 0 -269 42.5t-148.5 117t-46.5 169.5q0 67 22 125.5t75.5 95.5t147.5 37v-13q-99 0 -149.5 39t-67.5 95t-17 106q0 149 126 227.5t327 78.5q137 0 237.5 -34t155.5 -110t55 -202l-254 -20q0 70 -17 108t-59.5 53t-119.5 15q-106 0 -144.5 -35.5t-38.5 -94.5
q0 -46 16.5 -76t67.5 -44.5t152 -14.5v-166q-93 0 -146 -14t-75 -49t-22 -97q0 -82 39.5 -116t145.5 -34q74 0 119 14.5t66 47t21 86.5h254q0 -107 -44 -182.5t-143 -115t-266 -39.5z" />
    <glyph glyph-name="uni0260" unicode="&#x260;" horiz-adv-x="1211" 
d="M574 -429q-100 0 -199.5 14.5t-155.5 41.5l56 185q76 -21 151.5 -31.5t137.5 -10.5q117 0 170 50.5t53 161.5v106q-32 -19 -73.5 -31.5t-85.5 -18.5t-85 -6q-194 0 -306.5 88t-112.5 246v385q0 92 39 171t129 127t241 48q65 0 126 -16t111 -42.5t81 -57.5l-65 -27v231
q0 164 71 247t253 83h84l7 -188h-47q-52 0 -73.5 -34t-21.5 -107v-1186q0 -132 -49.5 -228.5t-156 -148.5t-279.5 -52zM588 213q69 0 120 14t79 34v571q0 21 -53.5 48t-145.5 27q-93 0 -142.5 -34.5t-49.5 -115.5v-401q0 -81 53.5 -112t138.5 -31z" />
    <glyph glyph-name="uni0263" unicode="&#x263;" horiz-adv-x="1103" 
d="M551 -432q-175 0 -264.5 80t-89.5 222q0 95 38.5 197t107.5 221l457 786h272l-527 -874q-64 -107 -85.5 -178.5t-21.5 -131.5t26.5 -91t86.5 -31q62 0 88 31t26 91t-21.5 131t-86.5 179l-526 874h274l456 -786q68 -118 106.5 -220.5t38.5 -197.5q0 -142 -90 -222
t-265 -80z" />
    <glyph glyph-name="uni0265" unicode="&#x265;" horiz-adv-x="1254" 
d="M820 -420v524q-34 -56 -129 -91.5t-207 -35.5q-103 0 -177.5 38t-114.5 106t-40 158v795h272v-756q0 -56 28 -86t70.5 -41t84.5 -11q49 0 98 17.5t82 52t33 86.5v738h272v-1494h-272z" />
    <glyph glyph-name="uni0266" unicode="&#x266;" horiz-adv-x="1254" 
d="M162 0v1155q0 186 73.5 273t270.5 87h94l7 -188h-57q-40 0 -65.5 -15t-38 -46t-12.5 -80v-216q35 56 129.5 91.5t206.5 35.5q103 0 177.5 -38t114.5 -105.5t40 -158.5v-795h-272v756q0 57 -28 86.5t-70 40.5t-85 11q-49 0 -98 -17.5t-82 -52t-33 -86.5v-738h-272z" />
    <glyph glyph-name="uni0268" unicode="&#x268;" horiz-adv-x="519" 
d="M-6 671h531v-157h-531v157zM124 1074h271v-1074h-271v1074zM122 1250v265h274v-265h-274z" />
    <glyph glyph-name="uni0269" unicode="&#x269;" horiz-adv-x="564" 
d="M134 1074h272v-758q0 -73 18.5 -95.5t68.5 -22.5l-11 -198h-77q-131 0 -201 80t-70 207v787z" />
    <glyph glyph-name="uni026A" unicode="&#x26a;" horiz-adv-x="788" 
d="M258 901h-179v173h630v-173h-179v-728h179v-173h-630v173h179v728z" />
    <glyph glyph-name="uni026B" unicode="&#x26b;" horiz-adv-x="708" 
d="M164 353v1162h272v-1158q0 -59 17.5 -96t59.5 -54t115 -17h34l-21 -202h-114q-119 0 -200 35t-122 115t-41 215zM425 658q-65 0 -106.5 15.5t-69.5 36t-51.5 36t-53.5 15.5q-28 0 -46 -20.5t-18 -66.5h-134q0 140 62.5 200t164.5 60q66 0 106.5 -15.5t67 -35.5
t48.5 -35.5t51 -15.5q30 0 51 19.5t21 66.5h134q0 -140 -62.5 -200t-164.5 -60z" />
    <glyph glyph-name="uni026C" unicode="&#x26c;" horiz-adv-x="836" 
d="M410 787h-118q0 133 -96 133q-49 0 -73 -19t-24 -66q0 -45 25 -66.5t80 -21.5h537l7 -189h-520q-151 0 -224.5 70.5t-73.5 194.5q0 115 63.5 174.5t179.5 59.5q114 0 175.5 -69.5t61.5 -200.5zM292 353v1162h272v-1158q0 -59 17.5 -96t59.5 -54t115 -17h34l-21 -202h-114
q-119 0 -200 35t-122 115t-41 215z" />
    <glyph glyph-name="uni026F" unicode="&#x26f;" horiz-adv-x="1894" 
d="M493 -23q-103 0 -179.5 38t-119 106.5t-42.5 158.5v794h272v-762q0 -85 45 -110t108 -25q49 0 100 17t87.5 49.5t40.5 80.5v750h272v-762q0 -85 48 -110t112 -25q49 0 101 17.5t88 53t36 87.5v739h272v-1074h-272v96q-15 -16 -56 -44.5t-106 -51.5t-155 -23
q-103 0 -178.5 32t-116.5 101q-58 -58 -143.5 -95.5t-213.5 -37.5z" />
    <glyph glyph-name="uni0272" unicode="&#x272;" horiz-adv-x="1254" 
d="M-26 -365l-28 190q64 9 105.5 24t65.5 49t33.5 99.5t9.5 174.5v902h272v-95q17 17 54.5 45.5t106.5 51t178 22.5q113 0 186.5 -44.5t109 -118.5t35.5 -165v-770h-272v755q0 57 -29.5 87t-73 41t-86.5 11q-49 0 -97 -18t-80 -53t-32 -88v-556q0 -190 -43 -310.5
t-143.5 -177t-271.5 -56.5z" />
    <glyph glyph-name="uni0275" unicode="&#x275;" horiz-adv-x="1180" 
d="M230 639h686v-190h-686v190zM590 -23q-169 0 -271.5 42.5t-148.5 120.5t-46 185v423q0 110 55 188t159.5 119.5t251.5 41.5t251 -41.5t159.5 -119.5t55.5 -188v-423q0 -106 -44 -184.5t-145.5 -121t-276.5 -42.5zM590 166q87 0 140.5 32.5t53.5 114.5v447q0 82 -51 114.5
t-143 32.5q-88 0 -141 -32.5t-53 -114.5v-447q0 -82 50 -114.5t144 -32.5z" />
    <glyph glyph-name="uni027D" unicode="&#x27d;" horiz-adv-x="831" 
d="M431 -410q-131 0 -201 80t-70 207v1197h272v-128q26 50 94 81.5t147.5 47t137.5 15.5l-9 -231q-51 -3 -111.5 -13t-116.5 -27t-95 -42t-47 -57v-814q0 -73 18.5 -95.5t68.5 -22.5l-11 -198h-77z" />
    <glyph glyph-name="uni027E" unicode="&#x27e;" horiz-adv-x="711" 
d="M136 0v673q0 199 103 300t339 101h101l-8 -219h-54q-111 0 -160 -36t-49 -135v-684h-272z" />
    <glyph glyph-name="uni0283" unicode="&#x283;" horiz-adv-x="730" 
d="M13 -410l-7 189h84q89 0 114 43.5t25 97.5v1205q0 191 85.5 291t276.5 100h126l7 -189h-84q-88 0 -113.5 -43.5t-25.5 -97.5v-1205q0 -191 -85.5 -291t-276.5 -100h-126z" />
    <glyph glyph-name="uni0288" unicode="&#x288;" horiz-adv-x="779" 
d="M475 -410q-131 0 -201 80t-70 207v1024h-170v173h178l25 345h239v-345h255v-173h-255v-995q0 -73 18.5 -95.5t68.5 -22.5l-11 -198h-77z" />
    <glyph glyph-name="uni0289" unicode="&#x289;" horiz-adv-x="1247" 
d="M30 739h1183v-190h-1183v190zM485 -23q-103 0 -177.5 41t-115 112t-40.5 161v783h272v-739q0 -56 28 -89.5t70 -48.5t84 -15q50 0 99 17t81.5 54t32.5 97v724h272v-1074h-256l-8 118q-32 -67 -131 -104t-211 -37z" />
    <glyph glyph-name="uni028A" unicode="&#x28a;" horiz-adv-x="1180" 
d="M590 -22q-165 0 -267.5 47.5t-150.5 158t-48 297.5q0 184 69 297t167 167v-44h-230v173h402v-150q-48 -36 -78 -87t-44 -132.5t-14 -207.5q0 -135 19 -206t61.5 -97t113.5 -26t113.5 26t61.5 97t19 206q0 126 -14 207.5t-44 132.5t-78 87v150h402v-173h-230v44
q98 -54 167 -167t69 -297q0 -187 -47.5 -297.5t-150.5 -158t-268 -47.5z" />
    <glyph glyph-name="uni028B" unicode="&#x28b;" horiz-adv-x="1180" 
d="M560 -23q-164 0 -259.5 37t-136 108t-40.5 173v779h272v-791q0 -59 39 -88t125 -29q110 0 167 47.5t57 159.5v387q0 82 -38.5 114.5t-115.5 32.5v190q205 0 315.5 -92.5t110.5 -256.5v-363q0 -190 -124.5 -299t-371.5 -109z" />
    <glyph glyph-name="uni028C" unicode="&#x28c;" horiz-adv-x="1103" 
d="M1069 0h-271l-261 851h27l-273 -851h-257l373 1074h289z" />
    <glyph glyph-name="uni0292" unicode="&#x292;" horiz-adv-x="1098" 
d="M519 -428q-163 0 -265.5 55.5t-151 159t-48.5 248.5h232q0 -92 24.5 -144t76.5 -73t135 -21q116 0 168 58.5t52 176.5q0 122 -46 183.5t-187 61.5h-112v199l284 451l2 -39h-587v186h854v-164l-336 -542l-27 106q140 0 228 -59t129.5 -160.5t41.5 -229.5
q0 -129 -47 -231.5t-149.5 -162t-270.5 -59.5z" />
    <glyph glyph-name="uni0294" unicode="&#x294;" horiz-adv-x="1244" 
d="M445 0v461l245 279q76 87 106 156.5t30 159.5q0 55 -13 106t-57 84t-137 33q-101 0 -146.5 -28.5t-57 -80.5t-11.5 -123v-85h-274v74q0 102 16.5 187.5t66 147.5t147 96t259.5 34q161 0 259.5 -36t150.5 -97.5t70.5 -139.5t18.5 -161q0 -102 -28.5 -184.5t-85.5 -156
t-143 -149.5l-178 -158l34 75v-494h-272z" />
    <glyph glyph-name="uni0295" unicode="&#x295;" horiz-adv-x="1244" 
d="M799 0h-272v494l34 -75l-178 158q-85 76 -142.5 149.5t-86 156t-28.5 184.5q0 83 18.5 161t70.5 139.5t151 97.5t259 36q162 0 259.5 -34t147 -96t66 -147.5t16.5 -187.5v-74h-274v85q0 71 -11.5 123t-57 80.5t-146.5 28.5q-93 0 -137 -33t-57 -84t-13 -106
q0 -90 30 -159.5t106 -156.5l245 -279v-461z" />
    <glyph glyph-name="uni0298" unicode="&#x298;" horiz-adv-x="1538" 
d="M780 -26q-189 0 -311.5 41t-191.5 113t-97 168t-28 205v462q0 112 27.5 209.5t96.5 171.5t191.5 115.5t312.5 41.5q182 0 300 -44t185 -120.5t94 -176.5t27 -212v-431q0 -109 -27.5 -206.5t-94.5 -173.5t-185 -119.5t-299 -43.5zM780 167q112 0 186 25t111 90t37 186v535
q0 179 -83.5 242t-250.5 63q-110 0 -190 -26t-123 -92t-43 -187v-535q0 -121 42.5 -186.5t122.5 -90t191 -24.5zM645 615v245h248v-245h-248z" />
    <glyph glyph-name="uni029D" unicode="&#x29d;" horiz-adv-x="869" 
d="M340 -329q-184 0 -264.5 92t-80.5 243t85 243t266 92h466l7 -189h-515q-60 0 -90.5 -30.5t-30.5 -112.5q0 -84 30.5 -114t90.5 -30q113 0 113 138v1071h273v-1084q0 -86 -37 -159t-114 -116.5t-199 -43.5zM426 1250v265h254v-265h-254z" />
    <glyph glyph-name="uni02B0" unicode="&#x2b0;" horiz-adv-x="878" 
d="M113 658v1060h211v-426l-28 26q13 47 83 77.5t157 30.5q108 0 171.5 -58.5t63.5 -153.5v-556h-210v519q0 52 -32 69.5t-76 17.5q-52 0 -90.5 -26.5t-38.5 -73.5v-506h-211z" />
    <glyph glyph-name="uni02B7" unicode="&#x2b7;" horiz-adv-x="1154" 
d="M240 674l-208 752h198l142 -569h-71l167 569h203l171 -576h-50l132 576h197l-200 -752h-192l-163 549h30l-169 -549h-187z" />
    <glyph glyph-name="uni02B9" unicode="&#x2b9;" horiz-adv-x="562" 
d="M106 1045l122 485h268l-241 -485h-149z" />
    <glyph glyph-name="uni02BA" unicode="&#x2ba;" horiz-adv-x="912" 
d="M456 1045l122 485h268l-241 -485h-149zM106 1045l122 485h268l-241 -485h-149z" />
    <glyph glyph-name="uni02BB" unicode="&#x2bb;" horiz-adv-x="402" 
d="M40 1200v173q0 151 49.5 257.5t136.5 188.5l117 -50q-64 -62 -105 -137t-41 -156h165v-276h-322z" />
    <glyph glyph-name="uni02BC" unicode="&#x2bc;" horiz-adv-x="402" 
d="M176 857l-117 50q65 62 105.5 137t40.5 156h-165v276h322v-173q0 -151 -49.5 -257t-136.5 -189z" />
    <glyph glyph-name="uni02BE" unicode="&#x2be;" horiz-adv-x="402" 
d="M66 1108v159q38 0 62 19t24 73q0 53 -23.5 71.5t-61.5 18.5l-1 157q126 0 198 -64.5t72 -183.5q0 -120 -72 -185t-198 -65z" />
    <glyph glyph-name="uni02BF" unicode="&#x2bf;" horiz-adv-x="402" 
d="M336 1108q-126 0 -198 65t-72 185q0 119 72 183.5t198 64.5l-1 -157q-37 0 -61 -18.5t-24 -71.5q0 -54 24 -73t62 -19v-159z" />
    <glyph glyph-name="uni02C0" unicode="&#x2c0;" horiz-adv-x="794" 
d="M284 646v271l144 162q45 50 62.5 91.5t17.5 93.5q0 41 -19 76t-86 35q-73 0 -98 -30.5t-25 -85.5v-49h-180v43q0 80 23.5 141.5t88.5 96t190 34.5q122 0 185.5 -36.5t87 -94.5t23.5 -123q0 -90 -37.5 -155t-112.5 -132l-104 -93l20 44v-289h-180z" />
    <glyph glyph-name="circumflex" unicode="&#x2c6;" horiz-adv-x="872" 
d="M60 1256l277 365h198l277 -365h-179l-230 215h67l-231 -215h-179z" />
    <glyph glyph-name="caron" unicode="&#x2c7;" horiz-adv-x="872" 
d="M337 1255l-277 365h179l231 -215h-67l230 215h179l-277 -365h-198z" />
    <glyph glyph-name="uni02C8" unicode="&#x2c8;" horiz-adv-x="680" 
d="M220 962v553h240v-553h-240z" />
    <glyph glyph-name="uni02C9" unicode="&#x2c9;" horiz-adv-x="804" 
d="M60 1266v167h684v-167h-684z" />
    <glyph glyph-name="uni02CA" unicode="&#x2ca;" horiz-adv-x="502" 
d="M60 1165l114 365h268l-233 -365h-149z" />
    <glyph glyph-name="uni02CB" unicode="&#x2cb;" horiz-adv-x="502" 
d="M293 1164l-233 365h268l114 -365h-149z" />
    <glyph glyph-name="uni02CC" unicode="&#x2cc;" horiz-adv-x="680" 
d="M220 -410v553h240v-553h-240z" />
    <glyph glyph-name="uni02D7" unicode="&#x2d7;" horiz-adv-x="766" 
d="M132 487v162h502v-162h-502z" />
    <glyph glyph-name="breve" unicode="&#x2d8;" horiz-adv-x="798" 
d="M399 1259q-94 0 -171 36t-122.5 114t-45.5 203h172q0 -80 43 -129t124 -49t124 49t43 129h172q0 -125 -45.5 -203t-122 -114t-171.5 -36z" />
    <glyph glyph-name="dotaccent" unicode="&#x2d9;" horiz-adv-x="394" 
d="M60 1250v265h274v-265h-274z" />
    <glyph glyph-name="ring" unicode="&#x2da;" horiz-adv-x="660" 
d="M330 1198q-126 0 -198 65t-72 185q0 119 72 183.5t198 64.5q125 0 197.5 -64.5t72.5 -183.5q0 -120 -72 -185t-198 -65zM330 1357q37 0 61.5 18.5t24.5 71.5t-24.5 72.5t-61.5 19.5q-38 0 -62 -18.5t-24 -71.5q0 -54 24 -73t62 -19z" />
    <glyph glyph-name="ogonek" unicode="&#x2db;" horiz-adv-x="471" 
d="M343 -484q-148 0 -215.5 54t-67.5 160q0 72 55 151.5t137 128.5l126 -10q-60 -51 -96.5 -106.5t-36.5 -114.5q0 -55 32 -83.5t99 -28.5h35l-13 -151h-55z" />
    <glyph glyph-name="tilde" unicode="&#x2dc;" horiz-adv-x="826" 
d="M539 1301q-65 0 -106.5 15.5t-69.5 36t-51.5 36t-53.5 15.5q-28 0 -46 -20.5t-18 -66.5h-134q0 140 62.5 200t164.5 60q66 0 106.5 -15.5t67 -35.5t48.5 -35.5t51 -15.5q30 0 51 19.5t21 66.5h134q0 -140 -62.5 -200t-164.5 -60z" />
    <glyph glyph-name="hungarumlaut" unicode="&#x2dd;" horiz-adv-x="748" 
d="M388 1256l42 365h258l-161 -365h-139zM60 1256l42 365h258l-161 -365h-139z" />
    <glyph glyph-name="uni02EE" unicode="&#x2ee;" horiz-adv-x="832" 
d="M176 857l-117 50q65 62 105.5 137t40.5 156h-165v276h322v-173q0 -151 -49.5 -257t-136.5 -189zM606 857l-117 50q65 62 105.5 137t40.5 156h-165v276h322v-173q0 -151 -49.5 -257t-136.5 -189z" />
    <glyph glyph-name="gravecomb" unicode="&#x300;" 
d="M-19 1256l-241 365h268l122 -365h-149z" />
    <glyph glyph-name="acutecomb" unicode="&#x301;" 
d="M-130 1255l122 365h268l-241 -365h-149z" />
    <glyph glyph-name="uni0302" unicode="&#x302;" 
d="M-376 1256l277 365h198l277 -365h-179l-230 215h67l-231 -215h-179z" />
    <glyph glyph-name="tildecomb" unicode="&#x303;" 
d="M126 1301q-65 0 -106.5 15.5t-69.5 36t-51.5 36t-53.5 15.5q-28 0 -46 -20.5t-18 -66.5h-134q0 140 62.5 200t164.5 60q66 0 106.5 -15.5t67 -35.5t48.5 -35.5t51 -15.5q30 0 51 19.5t21 66.5h134q0 -140 -62.5 -200t-164.5 -60z" />
    <glyph glyph-name="uni0304" unicode="&#x304;" 
d="M-292 1336v167h584v-167h-584z" />
    <glyph glyph-name="uni0306" unicode="&#x306;" 
d="M0 1259q-94 0 -171 36t-122.5 114t-45.5 203h172q0 -80 43 -129t124 -49t124 49t43 129h172q0 -125 -45.5 -203t-122 -114t-171.5 -36z" />
    <glyph glyph-name="uni0307" unicode="&#x307;" 
d="M-137 1250v265h274v-265h-274z" />
    <glyph glyph-name="uni0308" unicode="&#x308;" 
d="M72 1311v233h265v-233h-265zM-337 1311v233h264v-233h-264z" />
    <glyph glyph-name="hookabovecomb" unicode="&#x309;" 
d="M28 1210l-66 134q67 27 93.5 61.5t26.5 77.5q0 46 -23.5 66.5t-62.5 20.5q-32 0 -58.5 -17t-37.5 -58l-155 59q26 82 92.5 123t160.5 41q122 0 189.5 -67t67.5 -174q0 -100 -57 -163t-170 -104z" />
    <glyph glyph-name="uni030A" unicode="&#x30a;" 
d="M0 1198q-126 0 -198 65t-72 185q0 119 72 183.5t198 64.5q125 0 197.5 -64.5t72.5 -183.5q0 -120 -72 -185t-198 -65zM0 1357q37 0 61.5 18.5t24.5 71.5t-24.5 72.5t-61.5 19.5q-38 0 -62 -18.5t-24 -71.5q0 -54 24 -73t62 -19z" />
    <glyph glyph-name="uni030B" unicode="&#x30b;" 
d="M88 1256l42 365h258l-161 -365h-139zM-240 1256l42 365h258l-161 -365h-139z" />
    <glyph glyph-name="uni030C" unicode="&#x30c;" 
d="M-99 1255l-277 365h179l231 -215h-67l230 215h179l-277 -365h-198z" />
    <glyph glyph-name="uni030D" unicode="&#x30d;" 
d="M-120 1165v553h240v-553h-240z" />
    <glyph glyph-name="uni030F" unicode="&#x30f;" 
d="M111 1256l-161 365h258l42 -365h-139zM-201 1256l-161 365h258l42 -365h-139z" />
    <glyph glyph-name="uni0310" unicode="&#x310;" 
d="M0 1165q-99 0 -180.5 30.5t-130 104t-48.5 203.5h172q0 -65 49.5 -107.5t137.5 -42.5q89 0 138 42.5t49 107.5h172q0 -130 -48.5 -203.5t-129.5 -104t-181 -30.5zM-127 1503v255h254v-255h-254z" />
    <glyph glyph-name="uni0311" unicode="&#x311;" 
d="M-339 1256q0 125 45.5 203t122.5 114t171 36q95 0 171.5 -36t122 -114t45.5 -203h-172q0 80 -43 129t-124 49t-124 -49t-43 -129h-172z" />
    <glyph glyph-name="uni0312" unicode="&#x312;" 
d="M-161 1236v173q0 101 20.5 175.5t61.5 132.5t104 108l117 -50q-72 -55 -109 -118.5t-37 -144.5h165v-276h-322z" />
    <glyph glyph-name="uni0313" unicode="&#x313;" 
d="M-161 1165v173q0 101 20.5 175.5t61.5 132.5t104 108l117 -50q-72 -55 -109 -118.5t-37 -144.5h165v-276h-322z" />
    <glyph glyph-name="uni031B" unicode="&#x31b;" 
d="M-10 880v194h60q50 0 85.5 33.5t35.5 94.5v141h223v-124q0 -117 -46.5 -192t-124.5 -111t-173 -36h-60z" />
    <glyph glyph-name="dotbelowcomb" unicode="&#x323;" 
d="M-127 -382v265h254v-265h-254z" />
    <glyph glyph-name="uni0324" unicode="&#x324;" 
d="M72 -368v233h265v-233h-265zM-337 -368v233h264v-233h-264z" />
    <glyph glyph-name="uni0325" unicode="&#x325;" 
d="M0 -532q-126 0 -198 65t-72 185q0 119 72 183.5t198 64.5q125 0 197.5 -64.5t72.5 -183.5q0 -120 -72 -185t-198 -65zM0 -373q37 0 61.5 18.5t24.5 71.5t-24.5 72.5t-61.5 19.5q-38 0 -62 -18.5t-24 -71.5q0 -54 24 -73t62 -19z" />
    <glyph glyph-name="uni0326" unicode="&#x326;" 
d="M-15 -635l-117 50q57 55 86.5 119t29.5 145v15.5t-1 15.5l66 -94h-189v271h281v-106q0 -151 -38 -246t-118 -170z" />
    <glyph glyph-name="uni0327" unicode="&#x327;" 
d="M-155 -485v122h178q32 0 44 13.5t12 32.5v58q0 20 -14 33t-42 13h-90v243h131v-166l-65 46q125 0 181.5 -42t56.5 -130v-50q0 -71 -46 -122t-159 -51h-187z" />
    <glyph glyph-name="uni0328" unicode="&#x328;" 
d="M-35 -484q-148 0 -215.5 54t-67.5 160q0 72 55 151.5t137 128.5l126 -10q-60 -51 -96.5 -106.5t-36.5 -114.5q0 -55 32 -83.5t99 -28.5h35l-13 -151h-55z" />
    <glyph glyph-name="uni0329" unicode="&#x329;" 
d="M-120 -410v553h240v-553h-240z" />
    <glyph glyph-name="uni032D" unicode="&#x32d;" 
d="M-356 -455l257 325h198l257 -325h-179l-210 185h67l-211 -185h-179z" />
    <glyph glyph-name="uni032E" unicode="&#x32e;" 
d="M0 -396q-94 0 -171 32.5t-122.5 101.5t-45.5 179h172q0 -58 43 -98t124 -40t124 40t43 98h172q0 -110 -45.5 -179t-122 -101.5t-171.5 -32.5z" />
    <glyph glyph-name="uni032F" unicode="&#x32f;" 
d="M-339 -396q0 110 45.5 179t122.5 101.5t171 32.5q95 0 171.5 -32.5t122 -101.5t45.5 -179h-172q0 58 -43 98t-124 40t-124 -40t-43 -98h-172z" />
    <glyph glyph-name="uni0330" unicode="&#x330;" 
d="M126 -382q-65 0 -106.5 15.5t-69.5 36t-51.5 36t-53.5 15.5q-28 0 -46 -20.5t-18 -66.5h-134q0 140 62.5 200t164.5 60q66 0 106.5 -15.5t67 -35.5t48.5 -35.5t51 -15.5q30 0 51 19.5t21 66.5h134q0 -140 -62.5 -200t-164.5 -60z" />
    <glyph glyph-name="uni0331" unicode="&#x331;" 
d="M-332 -333v167h664v-167h-664z" />
    <glyph glyph-name="uni0332" unicode="&#x332;" 
d="M0 -282v188h874v-188h-874z" />
    <glyph glyph-name="uni0334" unicode="&#x334;" 
d="M128 657q-65 0 -106.5 15.5t-69.5 36t-51.5 36t-53.5 15.5q-28 0 -46 -20.5t-18 -66.5h-134q0 140 62.5 200t164.5 60q66 0 106.5 -15.5t67 -35.5t48.5 -35.5t51 -15.5q30 0 51 19.5t21 66.5h134q0 -140 -62.5 -200t-164.5 -60z" />
    <glyph glyph-name="uni0335" unicode="&#x335;" 
d="M-591 449v190h1182v-190h-1182z" />
    <glyph glyph-name="uni0358" unicode="&#x358;" 
d="M199 1327v208h193v-208h-193z" />
    <glyph glyph-name="uni0394" unicode="&#x394;" horiz-adv-x="1419" 
d="M614 1476h217l478 -1476h-1201zM965 198l-277 943l-309 -943h586z" />
    <glyph glyph-name="Sigma" unicode="&#x3a3;" horiz-adv-x="1196" 
d="M92 0v191l481 570l-481 530v185h998v-224h-641l424 -440v-78l-427 -508h644v-226h-998z" />
    <glyph glyph-name="uni03A9" unicode="&#x3a9;" horiz-adv-x="1634" 
d="M167 0v206h254q-70 45 -133 116.5t-102.5 175.5t-39.5 248q0 202 32.5 336.5t93 216t143.5 122.5t185 54.5t217 13.5q148 0 271 -23t212.5 -96.5t138.5 -222.5t49 -401q0 -144 -39.5 -248t-102 -175.5t-133.5 -116.5h254v-206h-568v192q112 57 172.5 129.5t84.5 182
t24 275.5q0 170 -22.5 269t-68 146.5t-113.5 62t-159 14.5q-87 0 -155 -14.5t-114 -62t-70 -146.5t-24 -269q0 -166 24 -275.5t85 -182t172 -129.5v-192h-568z" />
    <glyph glyph-name="uni03BC" unicode="&#x3bc;" horiz-adv-x="1246" 
d="M148 -236v1310h272v-766q0 -56 28 -87t70 -43t84 -12q50 0 99 17t81.5 50.5t32.5 83.5v757h273v-1074h-267l-6 135q-28 -70 -93 -112t-160 -42q-41 0 -80.5 5.5t-81.5 15.5v-238h-252z" />
    <glyph glyph-name="pi" unicode="&#x3c0;" horiz-adv-x="1257" 
d="M1110 -20q-117 -1 -196 23t-119 93t-40 201v596h-265v-893h-252v891q-53 -5 -87 -18t-59.5 -31.5t-55.5 -40.5v185q20 23 47 43t65 32.5t89 12.5h952v-181h-182v-550q0 -79 10.5 -114t42 -47.5t95.5 -25.5z" />
    <glyph glyph-name="uni1D7D" unicode="&#x1d7d;" horiz-adv-x="1212" 
d="M30 639h1182v-190h-1182v190zM160 -410v1484h190l27 -70q53 39 129 66t171 27q189 0 295 -95.5t106 -250.5v-425q0 -92 -47 -171.5t-144.5 -128.5t-249.5 -49q-64 0 -115 11.5t-90 28.5v-427h-272zM614 166q93 0 142.5 36t49.5 118v435q0 81 -48.5 116.5t-134.5 35.5
q-43 0 -81 -10t-66 -25t-44 -31v-628q25 -16 70.5 -31.5t111.5 -15.5z" />
    <glyph glyph-name="uni1DBB" unicode="&#x1dbb;" horiz-adv-x="634" 
d="M73 791l301 532l26 -38h-320v141h493v-115l-300 -531l-25 35h321v-141h-496v117z" />
    <glyph glyph-name="uni1DC4" unicode="&#x1dc4;" 
d="M-151 1203l441 327h169l-322 -327h-288zM-420 1203v167h552l-68 -167h-484z" />
    <glyph glyph-name="uni1DC5" unicode="&#x1dc5;" 
d="M-98 1203l-322 327h169l441 -327h-288zM-25 1203l-68 167h552v-167h-484z" />
    <glyph glyph-name="uni1DC6" unicode="&#x1dc6;" 
d="M290 1203l-441 327h288l322 -327h-169zM-420 1363v167h484l68 -167h-552z" />
    <glyph glyph-name="uni1DC7" unicode="&#x1dc7;" 
d="M-420 1203l322 327h288l-441 -327h-169zM-93 1363l68 167h484v-167h-552z" />
    <glyph glyph-name="uni1DCA" unicode="&#x1dca;" 
d="M-202 -772v678h190v-83q18 32 66 52.5t103.5 30.5t96.5 10l-7 -150q-47 -2 -104.5 -13t-102 -30t-52.5 -47v-448h-190z" />
    <glyph glyph-name="uni1E00" unicode="&#x1e00;" horiz-adv-x="1512" 
d="M70 0l486 1476h394l492 -1476h-315l-380 1298h26l-393 -1298h-310zM351 281l59 230h694l57 -230h-810zM756 -532q-126 0 -198 65t-72 185q0 119 72 183.5t198 64.5q125 0 197.5 -64.5t72.5 -183.5q0 -120 -72 -185t-198 -65zM756 -373q37 0 61.5 18.5t24.5 71.5
t-24.5 72.5t-61.5 19.5q-38 0 -62 -18.5t-24 -71.5q0 -54 24 -73t62 -19z" />
    <glyph glyph-name="uni1E01" unicode="&#x1e01;" horiz-adv-x="1174" 
d="M423 -23q-92 0 -162 36t-109.5 102t-39.5 155q0 76 31 135t113 109.5t235 98.5q84 27 138 50t80 50t26 64q0 43 -17 72t-54 43.5t-98 14.5q-68 0 -104 -18t-49.5 -50t-13.5 -74v-42h-255v32q0 156 104 249t324 93q161 0 255 -45t135 -126.5t41 -192.5v-425
q0 -73 18.5 -95.5t68.5 -22.5l-11 -198h-57q-112 0 -174 31t-91 96q-29 -38 -77.5 -70.5t-113 -52t-143.5 -19.5zM514 158q33 0 75 12.5t81.5 37.5t64.5 64v272q-27 -22 -86 -48.5t-127 -51.5q-89 -33 -117 -73t-28 -86q0 -65 38 -96t99 -31zM587 -532q-126 0 -198 65
t-72 185q0 119 72 183.5t198 64.5q125 0 197.5 -64.5t72.5 -183.5q0 -120 -72 -185t-198 -65zM587 -373q37 0 61.5 18.5t24.5 71.5t-24.5 72.5t-61.5 19.5q-38 0 -62 -18.5t-24 -71.5q0 -54 24 -73t62 -19z" />
    <glyph glyph-name="uni1E02" unicode="&#x1e02;" horiz-adv-x="1456" 
d="M190 0v1476h568q207 0 320.5 -42t158 -127.5t44.5 -218.5q0 -121 -44 -194.5t-184 -97.5v12q119 -8 182 -54.5t86 -124.5t23 -181q0 -232 -119.5 -340t-394.5 -108h-640zM487 208h288q116 0 174.5 19t78.5 72.5t20 155.5q0 74 -14.5 129.5t-66 87t-162.5 31.5h-318v-495z
M487 882h307q87 0 125.5 23t48.5 68.5t10 111.5q0 78 -18 118.5t-69 55t-152 14.5h-252v-391zM601 1668v265h254v-265h-254z" />
    <glyph glyph-name="uni1E03" unicode="&#x1e03;" horiz-adv-x="1206" 
d="M655 -23q-88 0 -158.5 27t-122.5 61l-27 -65h-187v1516h272v-476q49 26 105 41.5t124 15.5q156 0 248.5 -48t132.5 -126.5t40 -169.5v-424q0 -105 -52.5 -184t-148 -123.5t-226.5 -44.5zM610 168q88 0 144 37t56 118v435q0 80 -48 114.5t-139 34.5q-73 0 -124 -20.5
t-67 -29.5v-641q31 -23 77 -35.5t101 -12.5zM515 1651v265h274v-265h-274z" />
    <glyph glyph-name="uni1E04" unicode="&#x1e04;" horiz-adv-x="1456" 
d="M190 0v1476h568q207 0 320.5 -42t158 -127.5t44.5 -218.5q0 -121 -44 -194.5t-184 -97.5v12q119 -8 182 -54.5t86 -124.5t23 -181q0 -232 -119.5 -340t-394.5 -108h-640zM487 208h288q116 0 174.5 19t78.5 72.5t20 155.5q0 74 -14.5 129.5t-66 87t-162.5 31.5h-318v-495z
M487 882h307q87 0 125.5 23t48.5 68.5t10 111.5q0 78 -18 118.5t-69 55t-152 14.5h-252v-391zM601 -382v265h254v-265h-254z" />
    <glyph glyph-name="uni1E05" unicode="&#x1e05;" horiz-adv-x="1206" 
d="M655 -23q-88 0 -158.5 27t-122.5 61l-27 -65h-187v1516h272v-476q49 26 105 41.5t124 15.5q156 0 248.5 -48t132.5 -126.5t40 -169.5v-424q0 -105 -52.5 -184t-148 -123.5t-226.5 -44.5zM610 168q88 0 144 37t56 118v435q0 80 -48 114.5t-139 34.5q-73 0 -124 -20.5
t-67 -29.5v-641q31 -23 77 -35.5t101 -12.5zM515 -382v265h254v-265h-254z" />
    <glyph glyph-name="uni1E06" unicode="&#x1e06;" horiz-adv-x="1456" 
d="M190 0v1476h568q207 0 320.5 -42t158 -127.5t44.5 -218.5q0 -121 -44 -194.5t-184 -97.5v12q119 -8 182 -54.5t86 -124.5t23 -181q0 -232 -119.5 -340t-394.5 -108h-640zM487 208h288q116 0 174.5 19t78.5 72.5t20 155.5q0 74 -14.5 129.5t-66 87t-162.5 31.5h-318v-495z
M487 882h307q87 0 125.5 23t48.5 68.5t10 111.5q0 78 -18 118.5t-69 55t-152 14.5h-252v-391zM396 -333v167h664v-167h-664z" />
    <glyph glyph-name="uni1E07" unicode="&#x1e07;" horiz-adv-x="1206" 
d="M655 -23q-88 0 -158.5 27t-122.5 61l-27 -65h-187v1516h272v-476q49 26 105 41.5t124 15.5q156 0 248.5 -48t132.5 -126.5t40 -169.5v-424q0 -105 -52.5 -184t-148 -123.5t-226.5 -44.5zM610 168q88 0 144 37t56 118v435q0 80 -48 114.5t-139 34.5q-73 0 -124 -20.5
t-67 -29.5v-641q31 -23 77 -35.5t101 -12.5zM310 -333v167h664v-167h-664z" />
    <glyph glyph-name="uni1E08" unicode="&#x1e08;" horiz-adv-x="1490" 
d="M780 -26q-197 0 -319.5 38.5t-187.5 107.5t-89 162t-24 202v493q0 112 23.5 207.5t88 166.5t187.5 110.5t321 39.5q189 0 304.5 -38.5t175.5 -108.5t81 -164.5t21 -206.5v-18l-291 -34v75q0 104 -26 160.5t-89 79t-176 22.5q-110 0 -181.5 -21.5t-106.5 -77t-35 -157.5
v-558q0 -101 35 -154.5t106.5 -73t182.5 -19.5q113 0 176 19.5t88.5 74t25.5 159.5v47h291v-27q0 -109 -20 -201t-79 -160.5t-175 -106.5t-308 -38zM622 -485v122h178q32 0 44 13.5t12 32.5v58q0 20 -14 33t-42 13h-90v243h131v-166l-65 46q125 0 181.5 -42t56.5 -130v-50
q0 -71 -46 -122t-159 -51h-187zM620 1657l162 365h318l-281 -365h-199z" />
    <glyph glyph-name="uni1E09" unicode="&#x1e09;" horiz-adv-x="1111" 
d="M573 -23q-183 0 -280 48.5t-133 128.5t-36 173v430q0 161 117 250.5t328 89.5q145 0 242.5 -35.5t147.5 -122t50 -240.5l-256 -20q0 98 -14.5 146.5t-52 65t-107.5 16.5q-87 0 -135 -34t-48 -117v-434q0 -86 45 -120t138 -34q71 0 109 15t52 60.5t14 136.5h254
q0 -148 -37.5 -236.5t-132 -127.5t-265.5 -39zM419 -485v122h178q32 0 44 13.5t12 32.5v58q0 20 -14 33t-42 13h-90v243h131v-166l-65 46q125 0 181.5 -42t56.5 -130v-50q0 -71 -46 -122t-159 -51h-187zM444 1255l122 365h268l-241 -365h-149z" />
    <glyph glyph-name="uni1E0A" unicode="&#x1e0a;" horiz-adv-x="1534" 
d="M190 0v1476h640q214 0 332 -68.5t165 -185t47 -261.5v-453q0 -147 -49.5 -262t-167.5 -180.5t-326 -65.5h-641zM487 231h318q105 0 164 25.5t83.5 78.5t24.5 135v530q0 80 -25 134.5t-84.5 82.5t-162.5 28h-318v-1014zM640 1668v265h254v-265h-254z" />
    <glyph glyph-name="uni1E0B" unicode="&#x1e0b;" horiz-adv-x="1198" 
d="M124 324v429q0 149 105.5 246.5t340.5 97.5q46 0 99.5 -10.5t100.5 -27.5v456h272v-1515h-184l-29 63q-52 -37 -123.5 -61.5t-154.5 -24.5q-145 0 -240 42t-141 119.5t-46 185.5zM770 211v659q-27 13 -73.5 25t-103.5 12q-93 0 -145 -33t-52 -115v-439q0 -82 48.5 -117
t138.5 -35q56 0 106 12t81 31zM467 1568v265h274v-265h-274z" />
    <glyph glyph-name="uni1E0C" unicode="&#x1e0c;" horiz-adv-x="1534" 
d="M190 0v1476h640q214 0 332 -68.5t165 -185t47 -261.5v-453q0 -147 -49.5 -262t-167.5 -180.5t-326 -65.5h-641zM487 231h318q105 0 164 25.5t83.5 78.5t24.5 135v530q0 80 -25 134.5t-84.5 82.5t-162.5 28h-318v-1014zM640 -382v265h254v-265h-254z" />
    <glyph glyph-name="uni1E0D" unicode="&#x1e0d;" horiz-adv-x="1198" 
d="M124 324v429q0 149 105.5 246.5t340.5 97.5q46 0 99.5 -10.5t100.5 -27.5v456h272v-1515h-184l-29 63q-52 -37 -123.5 -61.5t-154.5 -24.5q-145 0 -240 42t-141 119.5t-46 185.5zM770 211v659q-27 13 -73.5 25t-103.5 12q-93 0 -145 -33t-52 -115v-439q0 -82 48.5 -117
t138.5 -35q56 0 106 12t81 31zM472 -382v265h254v-265h-254z" />
    <glyph glyph-name="uni1E0E" unicode="&#x1e0e;" horiz-adv-x="1534" 
d="M190 0v1476h640q214 0 332 -68.5t165 -185t47 -261.5v-453q0 -147 -49.5 -262t-167.5 -180.5t-326 -65.5h-641zM487 231h318q105 0 164 25.5t83.5 78.5t24.5 135v530q0 80 -25 134.5t-84.5 82.5t-162.5 28h-318v-1014zM435 -333v167h664v-167h-664z" />
    <glyph glyph-name="uni1E0F" unicode="&#x1e0f;" horiz-adv-x="1198" 
d="M124 324v429q0 149 105.5 246.5t340.5 97.5q46 0 99.5 -10.5t100.5 -27.5v456h272v-1515h-184l-29 63q-52 -37 -123.5 -61.5t-154.5 -24.5q-145 0 -240 42t-141 119.5t-46 185.5zM770 211v659q-27 13 -73.5 25t-103.5 12q-93 0 -145 -33t-52 -115v-439q0 -82 48.5 -117
t138.5 -35q56 0 106 12t81 31zM267 -333v167h664v-167h-664z" />
    <glyph glyph-name="uni1E10" unicode="&#x1e10;" horiz-adv-x="1534" 
d="M190 0v1476h640q214 0 332 -68.5t165 -185t47 -261.5v-453q0 -147 -49.5 -262t-167.5 -180.5t-326 -65.5h-641zM487 231h318q105 0 164 25.5t83.5 78.5t24.5 135v530q0 80 -25 134.5t-84.5 82.5t-162.5 28h-318v-1014zM751 -635l-117 50q57 55 86.5 119t29.5 145v15.5
t-1 15.5l66 -94h-189v271h281v-106q0 -151 -38 -246t-118 -170z" />
    <glyph glyph-name="uni1E11" unicode="&#x1e11;" horiz-adv-x="1198" 
d="M124 324v429q0 149 105.5 246.5t340.5 97.5q46 0 99.5 -10.5t100.5 -27.5v456h272v-1515h-184l-29 63q-52 -37 -123.5 -61.5t-154.5 -24.5q-145 0 -240 42t-141 119.5t-46 185.5zM770 211v659q-27 13 -73.5 25t-103.5 12q-93 0 -145 -33t-52 -115v-439q0 -82 48.5 -117
t138.5 -35q56 0 106 12t81 31zM584 -635l-117 50q57 55 86.5 119t29.5 145v15.5t-1 15.5l66 -94h-189v271h281v-106q0 -151 -38 -246t-118 -170z" />
    <glyph glyph-name="uni1E12" unicode="&#x1e12;" horiz-adv-x="1534" 
d="M190 0v1476h640q214 0 332 -68.5t165 -185t47 -261.5v-453q0 -147 -49.5 -262t-167.5 -180.5t-326 -65.5h-641zM487 231h318q105 0 164 25.5t83.5 78.5t24.5 135v530q0 80 -25 134.5t-84.5 82.5t-162.5 28h-318v-1014zM411 -455l257 325h198l257 -325h-179l-210 185h67
l-211 -185h-179z" />
    <glyph glyph-name="uni1E13" unicode="&#x1e13;" horiz-adv-x="1198" 
d="M124 324v429q0 149 105.5 246.5t340.5 97.5q46 0 99.5 -10.5t100.5 -27.5v456h272v-1515h-184l-29 63q-52 -37 -123.5 -61.5t-154.5 -24.5q-145 0 -240 42t-141 119.5t-46 185.5zM770 211v659q-27 13 -73.5 25t-103.5 12q-93 0 -145 -33t-52 -115v-439q0 -82 48.5 -117
t138.5 -35q56 0 106 12t81 31zM243 -455l257 325h198l257 -325h-179l-210 185h67l-211 -185h-179z" />
    <glyph glyph-name="uni1E14" unicode="&#x1e14;" horiz-adv-x="1294" 
d="M190 1476h967v-224h-671v-392h595v-214h-595v-422h682v-224h-978v1476zM333 1687v167h684v-167h-684zM636 1985l-281 365h318l162 -365h-199z" />
    </font>
</defs>
</svg>
