<?xml version="1.0" standalone="no"?>
<!DOCTYPE svg PUBLIC "-//W3C//DTD SVG 1.1//EN" "http://www.w3.org/Graphics/SVG/1.1/DTD/svg11.dtd" >
<svg xmlns="http://www.w3.org/2000/svg" xmlns:xlink="http://www.w3.org/1999/xlink" version="1.1">
<metadata>
Created by FontForge 20201107 at Fri Apr 12 13:35:01 2024
 By 
Copyright 2021 The Monda Project Authors (https://github.com/googlefonts/mondaFont)
</metadata>
<defs>
<font id="Monda-Medium" horiz-adv-x="0" >
  <font-face 
    font-family="Monda Medium"
    font-weight="500"
    font-stretch="normal"
    units-per-em="2048"
    panose-1="0 0 0 0 0 0 0 0 0 0"
    ascent="1638"
    descent="-410"
    x-height="1065"
    cap-height="1456"
    bbox="-583 -771 2624 2410"
    underline-thickness="50"
    underline-position="-125"
    unicode-range="U+000D-FB02"
  />
<missing-glyph horiz-adv-x="732" 
d="M638 0h-544v1365h544v-1365zM175 1284v-1203h382v1203h-382z" />
    <glyph glyph-name="fi" unicode="fi" horiz-adv-x="1320" 
d="M268 0v912h-166v153h166v124q0 163 82.5 241.5t255.5 78.5h121l12 -152h-107q-87 0 -117.5 -37.5t-30.5 -98.5v-156h512v-153h-512v-912h-216zM925 0v1065h216v-1065h-216zM922 1281v227h221v-227h-221z" />
    <glyph glyph-name="fl" unicode="fl" horiz-adv-x="1447" 
d="M268 912h-166v153h166v124q0 163 82.5 241.5t255.5 78.5h404v-152h-378q-87 0 -117.5 -37.5t-30.5 -98.5v-156h242v-153h-242v-912h-216v912zM928 356v1152h216v-1152q0 -77 16.5 -119t59 -58t118.5 -16h34l-22 -172h-74q-117 0 -194.5 29.5t-115.5 109t-38 226.5z" />
    <glyph glyph-name="f_f" unicode="ff" horiz-adv-x="1462" 
d="M268 912h-166v153h166v97q0 163 82.5 241.5t255.5 78.5h122l12 -152h-108q-87 0 -117.5 -37.5t-30.5 -93.5v-134h429v-153h-429v-912h-216v912zM944 912h-305v153h305v124q0 163 83 241.5t255 78.5h122l12 -152h-107q-87 0 -118 -37.5t-31 -98.5v-156h243v-153h-243v-912
h-216v912z" />
    <glyph glyph-name="f_f_i" unicode="ffi" horiz-adv-x="1997" 
d="M944 0v912h-305v153h305v124q0 163 83 241.5t255 78.5h122l12 -152h-107q-87 0 -118 -37.5t-31 -98.5v-156h526v-153h-526v-912h-216zM268 0v912h-166v153h166v97q0 163 82.5 241.5t255.5 78.5h122l12 -152h-108q-87 0 -117.5 -37.5t-30.5 -93.5v-134h429v-153h-429v-912
h-216zM1605 0v1065h216v-1065h-216zM1602 1281v227h221v-227h-221z" />
    <glyph glyph-name="f_f_l" unicode="ffl" horiz-adv-x="2124" 
d="M944 0v912h-319v153h319v124q0 163 83 241.5t255 78.5h405v-152h-378q-87 0 -118 -37.5t-31 -98.5v-156h243v-153h-243v-912h-216zM268 0v912h-166v153h166v97q0 163 82.5 241.5t255.5 78.5h121l12 -152h-107q-87 0 -117.5 -37.5t-30.5 -93.5v-134h442v-153h-442v-912
h-216zM1953 -9q-117 0 -194.5 29.5t-115.5 109t-38 226.5v1152h216v-1152q0 -77 16.5 -119t59 -58t118.5 -16h33l-21 -172h-74z" />
    <glyph glyph-name=".notdef" horiz-adv-x="732" 
d="M638 0h-544v1365h544v-1365zM175 1284v-1203h382v1203h-382z" />
    <glyph glyph-name=".null" 
 />
    <glyph glyph-name="nonmarkingreturn" horiz-adv-x="682" 
 />
    <glyph glyph-name="CR" unicode="&#xd;" horiz-adv-x="600" 
 />
    <glyph glyph-name="space" unicode=" " horiz-adv-x="513" 
 />
    <glyph glyph-name="exclam" unicode="!" horiz-adv-x="728" 
d="M329 384q-16 164 -29 327t-23 308.5t-15.5 258.5t-5.5 178h221q0 -64 -6.5 -176t-18 -256.5t-27 -308t-34.5 -331.5h-62zM236 0v246h249v-246h-249z" />
    <glyph glyph-name="quotedbl" unicode="&#x22;" horiz-adv-x="935" 
d="M579 911l-49 598h221l-58 -598h-114zM239 911l-56 598h221l-51 -598h-114z" />
    <glyph glyph-name="numbersign" unicode="#" horiz-adv-x="1313" 
d="M194 0l87 476h-189v126h212l55 303h-243v126h265l77 425h180l-75 -425h287l77 425h179l-74 -425h189v-126h-212l-53 -303h241v-126h-263l-84 -476h-187l87 476h-285l-83 -476h-188zM487 602h285l55 303h-286z" />
    <glyph glyph-name="dollar" unicode="$" horiz-adv-x="1296" 
d="M620 -218v1892h99v-1892h-99zM690 -23q-158 0 -299.5 35t-254.5 99l81 175q84 -47 209 -85.5t259 -38.5q109 0 166 29.5t78.5 88.5t21.5 149q0 41 -13.5 73.5t-53 60.5t-118.5 53l-317 102q-106 34 -169.5 83.5t-92 121t-28.5 168.5q0 138 65 223.5t177 125t253 39.5
q172 0 289.5 -28.5t198.5 -77.5l-61 -174q-71 36 -168 65t-227 29q-143 0 -221 -38.5t-78 -161.5q0 -69 32 -110.5t131 -73.5l326 -107q148 -49 219 -136t71 -255q0 -130 -49 -228t-154 -152t-273 -54z" />
    <glyph glyph-name="percent" unicode="%" horiz-adv-x="1851" 
d="M451 673q-115 0 -180.5 47.5t-92 132.5t-26.5 199v53q0 175 63 273t236 98t238 -97.5t65 -272.5v-54q0 -114 -28 -199.5t-94 -132.5t-181 -47zM451 794q67 0 99.5 31.5t42.5 86.5t10 124v91q0 68 -9 119.5t-41 80.5t-102 29q-69 0 -101 -28.5t-40.5 -80t-8.5 -118.5v-93
q0 -69 9.5 -124t41.5 -86.5t99 -31.5zM569 0l543 1446h157l-538 -1446h-162zM1396 -19q-115 0 -180 47t-92 132.5t-27 199.5v53q0 175 63 273t236 98t238 -97.5t65 -272.5v-54q0 -114 -28 -199.5t-94 -132.5t-181 -47zM1396 102q67 0 99.5 31.5t42.5 86.5t10 124v91
q0 68 -8.5 119.5t-41 80t-102.5 28.5q-69 0 -101 -28.5t-40.5 -79.5t-8.5 -118v-93q0 -69 9.5 -124t41.5 -86.5t99 -31.5z" />
    <glyph glyph-name="ampersand" unicode="&#x26;" horiz-adv-x="1509" 
d="M167 446q0 151 62 240.5t208 132.5q-79 73 -127 144.5t-48 186.5q0 99 40.5 175.5t138 121t269.5 44.5q154 0 254 -23.5t149 -86t49 -180.5v-95h-190v54q0 69 -23.5 104t-78 46.5t-148.5 11.5q-103 0 -156.5 -24t-71.5 -67t-18 -97q0 -39 10.5 -70t37 -63.5t73.5 -78.5
l501 -482q1 11 1 19.5v20.5v313h195v-277q0 -65 -4 -127t-17 -112l173 -164l-123 -133l-137 130q-56 -64 -163.5 -99.5t-297.5 -35.5q-166 0 -275 34.5t-170.5 97t-87 149t-25.5 190.5zM1040 246l-495 471q-73 -20 -105 -59.5t-40 -92t-8 -113.5q0 -103 29.5 -170
t102.5 -100t201 -33q80 0 142.5 5.5t106 26.5t66.5 65z" />
    <glyph glyph-name="quotesingle" unicode="'" horiz-adv-x="588" 
d="M183 1509h221l-51 -598h-114z" />
    <glyph glyph-name="parenleft" unicode="(" horiz-adv-x="827" 
d="M690 -153q-184 0 -295 55.5t-161 176t-50 314.5v615q0 191 47 315.5t157.5 185.5t301.5 61v-173q-109 0 -171.5 -31t-88 -107.5t-25.5 -214.5v-681q0 -135 25 -210t87.5 -104.5t172.5 -29.5v-172z" />
    <glyph glyph-name="parenright" unicode=")" horiz-adv-x="827" 
d="M142 -153v172q113 0 174.5 31.5t86 106.5t24.5 207v682q0 135 -24.5 211t-86.5 108t-174 32v173q183 0 294.5 -57t161 -180t49.5 -322v-614q0 -195 -49.5 -316.5t-160.5 -177.5t-295 -56z" />
    <glyph glyph-name="asterisk" unicode="*" horiz-adv-x="1015" 
d="M419 609l29 325l-273 -174l-80 161l290 117l-280 142l95 153l247 -190l-28 313h178l-30 -325l273 174l81 -161l-291 -117l280 -142l-95 -153l-247 190l29 -313h-178z" />
    <glyph glyph-name="plus" unicode="+" horiz-adv-x="1005" 
d="M425 492h-273v152h273v324h155v-324h273v-152h-273v-336h-155v336z" />
    <glyph glyph-name="comma" unicode="," horiz-adv-x="683" 
d="M211 -310q25 28 57.5 75t57.5 107.5t25 127.5h-149v247h279v-196q0 -97 -32.5 -179t-75 -141t-72.5 -86z" />
    <glyph glyph-name="hyphen" unicode="-" horiz-adv-x="892" 
d="M159 491v158h574v-158h-574z" />
    <glyph glyph-name="period" unicode="." horiz-adv-x="675" 
d="M202 256h270v-256h-270v256z" />
    <glyph glyph-name="slash" unicode="/" horiz-adv-x="853" 
d="M572 1509h203l-491 -1509h-206z" />
    <glyph glyph-name="zero" unicode="0" horiz-adv-x="1307" 
d="M656 -24q-136 0 -229.5 35.5t-151.5 97t-89 140.5t-42.5 166.5t-11.5 174.5v260q0 89 11 178.5t41.5 170.5t88.5 144t152 100t231 37t230 -37t150.5 -100.5t87 -144.5t40.5 -170.5t11 -178.5v-258q0 -86 -11 -173.5t-41.5 -166.5t-88 -141t-150 -98t-228.5 -36zM656 159
q98 0 156 35t86 94t37 134t9 155v293q0 81 -8.5 157t-37 137t-86 96.5t-156.5 35.5q-98 0 -156 -35.5t-87 -96.5t-37.5 -137t-8.5 -157v-293q0 -80 9 -155t38 -134t87 -94t155 -35z" />
    <glyph glyph-name="one" unicode="1" horiz-adv-x="1307" 
d="M205 177h411v1133l46 -43l-431 -50l-21 182l462 57h177v-1279h363v-177h-1007v177z" />
    <glyph glyph-name="two" unicode="2" horiz-adv-x="1307" 
d="M236 0l-25 181l508 518q75 76 119.5 131.5t64 109t19.5 120.5q0 127 -57.5 182t-186.5 55q-101 0 -162.5 -23.5t-89 -84.5t-27.5 -176h-236q0 248 127.5 357.5t373.5 109.5q167 0 273 -56t156.5 -150.5t50.5 -211.5q0 -100 -27 -177.5t-86 -151.5t-154 -168l-423 -420
l-16 35h693v-180h-895z" />
    <glyph glyph-name="three" unicode="3" horiz-adv-x="1307" 
d="M693 -24q-170 0 -274.5 47t-156 147.5t-63.5 262.5h218q5 -112 35 -171t90.5 -81t158.5 -22q131 0 189.5 64.5t58.5 188.5q0 105 -25 165t-98.5 85t-216.5 25v165q114 0 178.5 14.5t95 44t38.5 74t8 103.5q0 98 -52.5 153.5t-186.5 55.5q-93 0 -151.5 -20t-86 -78
t-27.5 -171h-217q0 181 62 279t170.5 135.5t247.5 37.5q136 0 239.5 -42t161.5 -127.5t58 -216.5q0 -92 -24 -162t-82 -112t-161 -53l6 11q96 -16 159 -59t94.5 -119t31.5 -193q0 -135 -53.5 -231.5t-159.5 -148t-265 -51.5z" />
    <glyph glyph-name="four" unicode="4" horiz-adv-x="1307" 
d="M802 0v328h-650v188l502 940h241l-507 -982l-24 39h438v332h190v-332h221v-185h-221v-328h-190z" />
    <glyph glyph-name="five" unicode="5" horiz-adv-x="1307" 
d="M663 -23q-94 0 -179.5 16.5t-161 47t-142.5 71.5l62 168q69 -44 131.5 -70.5t129.5 -38t150 -11.5q138 0 218.5 68.5t80.5 214.5q0 100 -30.5 166.5t-90 99t-145.5 32.5q-84 0 -153.5 -31t-125.5 -76l-167 75l61 747h772v-192h-590l-38 -463l-32 11q52 55 130 83.5
t178 28.5q143 0 243.5 -55t154 -161t53.5 -259q0 -154 -64 -259.5t-178.5 -159t-266.5 -53.5z" />
    <glyph glyph-name="six" unicode="6" horiz-adv-x="1307" 
d="M687 -24q-183 0 -292 63.5t-157 169t-48 232.5q0 99 21.5 188.5t65 183.5t108.5 208l250 435h240l-392 -674l-27 39q61 41 120.5 57.5t144.5 16.5q157 0 258.5 -58t151.5 -158.5t50 -230.5q0 -127 -47.5 -234.5t-155.5 -172.5t-291 -65zM691 157q111 0 170 40t81 103.5
t22 135.5q0 71 -22 135t-81.5 105t-173.5 41q-112 0 -173 -41t-84 -105t-23 -135q0 -72 24.5 -135.5t85.5 -103.5t174 -40z" />
    <glyph glyph-name="seven" unicode="7" horiz-adv-x="1307" 
d="M359 0l531 1317l28 -53h-723v192h920v-173l-511 -1283h-245z" />
    <glyph glyph-name="eight" unicode="8" horiz-adv-x="1307" 
d="M651 -22q-186 0 -298 54t-161 145.5t-49 205.5q0 138 91 239.5t241 158.5l3 -27q-80 37 -150 84.5t-113 115t-43 164.5q0 94 48 176t153.5 133.5t277.5 51.5q187 0 292.5 -52.5t148.5 -133.5t43 -168q0 -84 -39.5 -153t-109 -121t-161.5 -86l3 25q89 -41 165.5 -94.5
t123.5 -128.5t47 -183q0 -113 -50.5 -205t-163 -146.5t-299.5 -54.5zM659 156q118 0 179 31t83.5 85t22.5 122q0 77 -48.5 132t-127 97t-169.5 79l75 -10q-154 -53 -233.5 -127t-79.5 -171q0 -68 25.5 -122t90 -85t182.5 -31zM628 851q68 21 134.5 58.5t110.5 88.5t44 114
q0 46 -17 89.5t-71.5 72.5t-170.5 29q-102 0 -161 -26.5t-83.5 -69t-24.5 -90.5q0 -66 45 -114.5t118.5 -86t158.5 -72.5z" />
    <glyph glyph-name="nine" unicode="9" horiz-adv-x="1307" 
d="M467 0l392 675l27 -40q-61 -41 -120.5 -57.5t-144.5 -16.5q-157 0 -259 58t-151.5 159t-49.5 230q0 128 47 235t155.5 172t291.5 65q184 0 292.5 -63t156.5 -168.5t48 -233.5q0 -99 -21.5 -188.5t-65 -183.5t-108.5 -207l-250 -436h-240zM655 740q113 0 173.5 40.5
t83.5 105.5t23 135q0 72 -24 135.5t-85.5 103t-174.5 39.5q-111 0 -170 -39.5t-81 -103t-22 -135.5q0 -70 21.5 -135t81.5 -105.5t174 -40.5z" />
    <glyph glyph-name="colon" unicode=":" horiz-adv-x="768" 
d="M251 256h270v-256h-270v256zM251 954h270v-256h-270v256z" />
    <glyph glyph-name="semicolon" unicode=";" horiz-adv-x="768" 
d="M264 -310q25 28 57.5 75t57.5 107.5t25 127.5h-149v247h279v-196q0 -97 -32.5 -179t-75 -141t-72.5 -86zM245 954h270v-256h-270v256z" />
    <glyph glyph-name="less" unicode="&#x3c;" horiz-adv-x="1005" 
d="M853 132l-701 350v162l701 350v-164l-598 -290v46l598 -290v-164z" />
    <glyph glyph-name="equal" unicode="=" horiz-adv-x="1005" 
d="M152 665v153h701v-153h-701zM152 322v152h701v-152h-701z" />
    <glyph glyph-name="greater" unicode="&#x3e;" horiz-adv-x="1005" 
d="M152 132v164l598 290v-46l-598 290v164l701 -350v-162z" />
    <glyph glyph-name="question" unicode="?" horiz-adv-x="1241" 
d="M724 777q68 87 104 154.5t36 155.5q0 59 -17 106t-64.5 75.5t-138.5 28.5q-105 0 -161 -27t-77 -76t-21 -117v-64h-222v46q0 110 23.5 189.5t78 130.5t147.5 75.5t232 24.5q141 0 230.5 -33.5t139.5 -88.5t69.5 -122.5t19.5 -136.5q0 -94 -31 -171t-89.5 -148.5
t-141.5 -151.5l-199 -196h-183zM421 0v246h249v-246h-249z" />
    <glyph glyph-name="at" unicode="@" horiz-adv-x="1509" 
d="M797 -326q-328 0 -492.5 143.5t-164.5 422.5v388q0 249 148 373t447 124q289 0 423 -96.5t134 -296.5v-388q0 -72 25 -96t98 -24l-21 -165h-71q-110 0 -161 45.5t-51 128.5l32 -4q-48 -92 -134 -139.5t-215 -47.5q-97 0 -167.5 38.5t-108 102.5t-37.5 142q0 125 71 206.5
t220 120.5l319 83q0 76 -32 125t-109.5 72.5t-214.5 23.5q-205 0 -296.5 -74t-91.5 -229v-434q0 -195 115.5 -284.5t334.5 -89.5q125 0 244.5 27.5t217.5 73.5l53 -165q-104 -47 -240 -77t-275 -30zM845 207q83 0 151.5 38.5t94.5 98.5v251l-259 -78q-81 -24 -112 -66.5
t-31 -105.5q0 -61 40.5 -99.5t115.5 -38.5z" />
    <glyph glyph-name="A" unicode="A" horiz-adv-x="1456" 
d="M81 0l521 1456h249l524 -1456h-241l-416 1272l29 -1l-424 -1271h-242zM321 282l52 175h713l50 -175h-815z" />
    <glyph glyph-name="B" unicode="B" horiz-adv-x="1432" 
d="M209 0v1456h538q203 0 309.5 -45t146 -133t39.5 -216q0 -109 -47 -185t-175 -103l2 15q104 -12 167 -61t91.5 -127t28.5 -178q0 -220 -120.5 -321.5t-387.5 -101.5h-592zM442 169h330q114 0 181 21t96.5 79.5t29.5 170.5q0 69 -20 128t-76.5 94.5t-167.5 35.5h-373v-529z
M442 849h350q90 0 136 25.5t62.5 72.5t16.5 113q0 96 -24 144.5t-86 66t-177 17.5h-278v-439z" />
    <glyph glyph-name="C" unicode="C" horiz-adv-x="1467" 
d="M767 -23q-186 0 -303 37.5t-179.5 105.5t-86 161t-23.5 204v467q0 114 22.5 210.5t85 167.5t179.5 110t304 39q172 0 281.5 -32.5t168.5 -94.5t82 -150.5t23 -200.5v-15l-225 -22v43q0 122 -31 183.5t-103 82t-196 20.5q-121 0 -200.5 -26t-118.5 -92t-39 -186v-534
q0 -119 40 -182.5t120 -87t202 -23.5t193.5 18t102 76.5t30.5 179.5v32h225v-16q0 -109 -20.5 -196.5t-77.5 -150t-166.5 -95.5t-289.5 -33z" />
    <glyph glyph-name="D" unicode="D" horiz-adv-x="1526" 
d="M209 0v1456h596q205 0 324.5 -66t170.5 -178t51 -252v-469q0 -153 -56.5 -263t-176.5 -169t-312 -59h-597zM442 177h342q105 0 179.5 23.5t114.5 86t40 178.5v516q0 116 -40.5 180.5t-115.5 90.5t-178 26h-342v-1101z" />
    <glyph glyph-name="E" unicode="E" horiz-adv-x="1268" 
d="M209 1456h924v-175h-692v-448h612v-171h-612v-487h704v-175h-936v1456z" />
    <glyph glyph-name="F" unicode="F" horiz-adv-x="1164" 
d="M209 1456h845v-176h-612v-455h574v-171h-574v-654h-233v1456z" />
    <glyph glyph-name="G" unicode="G" horiz-adv-x="1573" 
d="M796 -23q-186 0 -307 37.5t-188.5 105.5t-95.5 161t-28 204v467q0 114 27.5 210.5t95 167.5t188.5 110t308 39q181 0 294 -34t173.5 -95.5t83 -143.5t22.5 -179v-22l-220 -18v35q0 107 -31 166t-108 82t-214 23q-121 0 -207 -26t-132 -92t-46 -186v-534
q0 -119 45.5 -182.5t131.5 -87t208 -23.5q124 0 203.5 23.5t118 87t38.5 182.5v124h-328v163h552v-742h-126l-32 221q-8 -46 -34 -89t-75.5 -78.5t-127 -56t-189.5 -20.5z" />
    <glyph glyph-name="H" unicode="H" horiz-adv-x="1560" 
d="M205 1456h233v-635h684v635h233v-1456h-233v644h-684v-644h-233v1456z" />
    <glyph glyph-name="I" unicode="I" horiz-adv-x="1137" 
d="M179 174h274v1109h-274v173h779v-173h-272v-1109h272v-174h-779v174z" />
    <glyph glyph-name="J" unicode="J" horiz-adv-x="1211" 
d="M91 69l60 177q32 -15 90.5 -33.5t128.5 -31.5t136 -13q142 0 203.5 72t61.5 197v834h-538v185h771v-1028q0 -208 -121.5 -328t-366.5 -120q-80 0 -161.5 13.5t-150.5 34t-113 41.5z" />
    <glyph glyph-name="K" unicode="K" horiz-adv-x="1428" 
d="M710 706l-43 -3l-225 -264v-439h-233v1456h233v-765l647 765h255zM605 728l163 130l607 -858h-260z" />
    <glyph glyph-name="L" unicode="L" horiz-adv-x="1154" 
d="M209 1456h233v-1275h638v-181h-871v1456z" />
    <glyph glyph-name="M" unicode="M" horiz-adv-x="1810" 
d="M209 0v1456h232l493 -815h-51l489 815h229v-1456h-219v1156l23 -7l-416 -701h-166l-420 697l26 7v-1152h-220z" />
    <glyph glyph-name="N" unicode="N" horiz-adv-x="1607" 
d="M209 1456h176l834 -1145l-26 -8v1153h206v-1456h-194l-816 1104l27 9v-1113h-207v1456z" />
    <glyph glyph-name="O" unicode="O" horiz-adv-x="1566" 
d="M793 -23q-187 0 -307.5 38t-187.5 107t-94 163t-27 206v457q0 114 26.5 210.5t93.5 168.5t187.5 112t308.5 40q180 0 296.5 -42t181.5 -116.5t91.5 -173t26.5 -212.5v-429q0 -111 -26.5 -207t-92 -168.5t-182 -113t-295.5 -40.5zM793 162q123 0 203.5 25t119.5 89t39 183
v527q0 119 -39.5 186t-120 94t-202.5 27t-207 -27t-130 -93.5t-45 -186.5v-527q0 -119 44.5 -183t129.5 -89t208 -25z" />
    <glyph glyph-name="P" unicode="P" horiz-adv-x="1329" 
d="M209 1456h578q202 0 315 -106t113 -354q0 -173 -49 -276.5t-146.5 -150.5t-244.5 -47h-333v-522h-233v1456zM794 697q83 0 124.5 38t55.5 103t14 143q0 74 -12 143t-52 114.5t-124 45.5h-358v-587h352z" />
    <glyph glyph-name="Q" unicode="Q" horiz-adv-x="1563" 
d="M966 -434l-261 413q-212 13 -326.5 81t-158 179.5t-43.5 251.5v457q0 114 26.5 210.5t93.5 168.5t187.5 112t308.5 40q180 0 296.5 -42t181.5 -116.5t91.5 -173t26.5 -212.5v-429q0 -134 -40 -246t-142.5 -185t-291.5 -93l211 -327zM793 162q123 0 203.5 25t119.5 89
t39 183v527q0 119 -39.5 186t-120 94t-202.5 27t-207 -27t-130 -93.5t-45 -186.5v-527q0 -119 44.5 -183t129.5 -89t208 -25z" />
    <glyph glyph-name="R" unicode="R" horiz-adv-x="1471" 
d="M209 0v1456h642q147 0 243 -44.5t143.5 -140t47.5 -247.5q0 -109 -23 -185.5t-69 -126.5t-117 -79l300 -633h-241l-277 594h-416v-594h-233zM442 766h406q84 0 128.5 32.5t61.5 87t17 121.5t-11.5 130.5t-51 105t-125.5 41.5h-425v-518z" />
    <glyph glyph-name="S" unicode="S" horiz-adv-x="1296" 
d="M690 -23q-158 0 -299.5 35t-254.5 99l81 175q84 -47 209 -85.5t259 -38.5q109 0 166 29.5t78.5 88.5t21.5 149q0 41 -13.5 73.5t-53 60.5t-118.5 53l-317 102q-106 34 -169.5 83.5t-92 121t-28.5 168.5q0 138 65 223.5t177 125t253 39.5q172 0 289.5 -28.5t198.5 -77.5
l-61 -174q-71 36 -168 65t-227 29q-143 0 -221 -38.5t-78 -161.5q0 -69 32 -110.5t131 -73.5l326 -107q148 -49 219 -136t71 -255q0 -130 -49 -228t-154 -152t-273 -54z" />
    <glyph glyph-name="T" unicode="T" horiz-adv-x="1201" 
d="M484 0v1271h-415v185h1063v-185h-416v-1271h-232z" />
    <glyph glyph-name="U" unicode="U" horiz-adv-x="1550" 
d="M785 -23q-181 0 -297.5 38t-181 106t-89.5 157.5t-25 192.5v985h234v-1003q0 -121 47.5 -183.5t129 -85t182.5 -22.5q102 0 178.5 22.5t118.5 85t42 183.5v1003h234v-981q0 -101 -24.5 -191.5t-87 -159.5t-174.5 -108t-287 -39z" />
    <glyph glyph-name="V" unicode="V" horiz-adv-x="1419" 
d="M71 1456h244l396 -1166l392 1166h245l-521 -1456h-238z" />
    <glyph glyph-name="W" unicode="W" horiz-adv-x="2017" 
d="M88 1456h219l289 -1074l297 1074h227l318 -1070l274 1070h217l-390 -1456h-185l-338 1172l-337 -1172h-190z" />
    <glyph glyph-name="X" unicode="X" horiz-adv-x="1341" 
d="M94 1456h252l920 -1456h-254zM775 709l-126 174l355 573h250zM559 778l126 -174l-362 -604h-250z" />
    <glyph glyph-name="Y" unicode="Y" horiz-adv-x="1313" 
d="M543 568l-511 888h246l404 -719h-44l405 719h238l-505 -888v-568h-233v568z" />
    <glyph glyph-name="Z" unicode="Z" horiz-adv-x="1223" 
d="M162 159l661 1114h-631v183h893v-160l-660 -1116h673v-180h-936v159z" />
    <glyph glyph-name="bracketleft" unicode="[" horiz-adv-x="793" 
d="M241 1550h413v-142h-196v-1345h196v-143h-413v1630z" />
    <glyph glyph-name="backslash" unicode="\" horiz-adv-x="853" 
d="M78 1509h206l491 -1509h-203z" />
    <glyph glyph-name="bracketright" unicode="]" horiz-adv-x="793" 
d="M179 62h196v1345h-196v143h412v-1630h-412v142z" />
    <glyph glyph-name="asciicircum" unicode="^" horiz-adv-x="1257" 
d="M508 1283h234l382 -695h-205l-310 597h42l-309 -597h-209z" />
    <glyph glyph-name="underscore" unicode="_" horiz-adv-x="818" 
d="M0 -252v158h818v-158h-818z" />
    <glyph glyph-name="grave" unicode="`" horiz-adv-x="490" 
d="M295 1242l-235 355h240l130 -355h-135z" />
    <glyph glyph-name="a" unicode="a" horiz-adv-x="1173" 
d="M451 -22q-109 0 -181 39t-108.5 105t-36.5 147q0 78 31.5 134t117 102.5t249.5 95.5q87 26 140 47t78 51t25 81q0 43 -15 76t-55 51.5t-117 18.5q-93 0 -137.5 -20.5t-58 -55t-13.5 -76.5v-46h-206v43q0 157 104.5 236t316.5 79q147 0 233.5 -45t124 -126t37.5 -191v-443
q0 -80 20.5 -103.5t82.5 -23.5l-18 -162h-44q-108 0 -160 38t-78 110q-25 -37 -68 -74.5t-107.5 -62.5t-156.5 -25zM497 131q49 0 104 20.5t100.5 56t64.5 81.5v276q-24 -22 -80 -54.5t-146 -59.5q-112 -35 -159.5 -73t-47.5 -100q0 -75 40.5 -111t123.5 -36z" />
    <glyph glyph-name="b" unicode="b" horiz-adv-x="1205" 
d="M636 -22q-92 0 -162.5 31t-116.5 60l-25 -69h-155v1509h216v-489q51 28 121 47t149 19q139 0 228 -46t131.5 -123.5t42.5 -174.5v-398q0 -105 -51 -188t-147 -130.5t-231 -47.5zM602 140q103 0 175 48.5t72 140.5v424q0 90 -57 131.5t-157 41.5q-68 0 -134.5 -20.5
t-107.5 -39.5v-669q38 -23 92 -40t117 -17z" />
    <glyph glyph-name="c" unicode="c" horiz-adv-x="1108" 
d="M577 -22q-166 0 -261.5 49.5t-135.5 132t-40 178.5v413q0 154 115.5 244.5t316.5 90.5q133 0 228.5 -31.5t146.5 -112t51 -226.5l-205 -18q0 97 -19.5 146t-66 65.5t-128.5 16.5q-110 0 -166.5 -40t-56.5 -139v-421q0 -105 58 -147t165 -42q86 0 131 14t63 56.5t22 125.5
h201q-7 -130 -47.5 -208.5t-129.5 -112.5t-242 -34z" />
    <glyph glyph-name="d" unicode="d" horiz-adv-x="1199" 
d="M140 331v410q0 156 106 250.5t338 94.5q49 0 112 -11t111 -29v462h216v-1508h-146l-31 68q-48 -37 -124.5 -63.5t-159.5 -26.5q-149 0 -242.5 45t-136.5 124.5t-43 183.5zM807 196v689q-37 17 -94 29t-120 12q-105 0 -171 -38t-66 -131v-436q0 -94 63 -137.5t162 -43.5
q72 0 133.5 18.5t92.5 37.5z" />
    <glyph glyph-name="e" unicode="e" horiz-adv-x="1142" 
d="M140 361v386q0 155 110 247t332 92q228 0 331.5 -89t103.5 -243v-255h-661v-158q0 -117 50.5 -160.5t183.5 -43.5q85 0 133.5 8.5t70 43t27.5 109.5h194q-8 -128 -52.5 -197t-135 -96t-239.5 -27t-248.5 40t-149.5 124.5t-50 218.5zM810 639v139q0 62 -29 94t-79.5 43
t-117.5 11q-102 0 -165 -34t-63 -128v-125h454z" />
    <glyph glyph-name="f" unicode="f" horiz-adv-x="783" 
d="M268 912h-166v153h166v124q0 163 82.5 241.5t255.5 78.5h121l10 -152h-105q-87 0 -117.5 -40t-30.5 -96v-156h242v-153h-242v-912h-216v912z" />
    <glyph glyph-name="g" unicode="g" horiz-adv-x="1192" 
d="M573 -419q-104 0 -188.5 11t-142.5 34l46 156q54 -18 130 -28.5t146 -10.5q130 0 188 55.5t58 170.5v138q-30 -25 -77.5 -40.5t-97 -22.5t-87.5 -7q-200 0 -304 87.5t-104 250.5v361q0 102 41.5 181t131 124t231.5 45q56 0 113 -15.5t102.5 -39t66.5 -49.5l8 83h192
v-1052q0 -127 -43.5 -224.5t-142.5 -152.5t-267 -55zM582 194q93 0 148.5 25t79.5 44v541q0 53 -57.5 87.5t-171.5 34.5q-105 0 -165 -41.5t-60 -133.5v-399q0 -90 64.5 -124t161.5 -34z" />
    <glyph glyph-name="h" unicode="h" horiz-adv-x="1234" 
d="M178 1508h216v-545q43 55 126 89t197 34q121 0 198.5 -40.5t114.5 -109.5t37 -156v-780h-216v774q0 54 -27.5 86.5t-74.5 47t-105 14.5q-78 0 -134 -21.5t-86 -59.5t-30 -90v-751h-216v1508z" />
    <glyph glyph-name="i" unicode="i" horiz-adv-x="570" 
d="M178 1065h216v-1065h-216v1065zM176 1281v227h220v-227h-220z" />
    <glyph glyph-name="j" unicode="j" horiz-adv-x="618" 
d="M3 -187h34q68 0 108 17.5t58 58.5t18 112v1064h216v-1061q0 -140 -37.5 -218t-113 -110t-188.5 -32h-78zM219 1281v227h220v-227h-220z" />
    <glyph glyph-name="k" unicode="k" horiz-adv-x="1163" 
d="M178 1509h216v-959l480 515h240l-422 -465l457 -600h-244l-365 494l-146 -147v-347h-216v1509z" />
    <glyph glyph-name="l" unicode="l" horiz-adv-x="700" 
d="M181 356v1152h216v-1152q0 -77 16.5 -119t58.5 -58t119 -16h34l-22 -172h-74q-117 0 -194.5 29.5t-115.5 109t-38 226.5z" />
    <glyph glyph-name="m" unicode="m" horiz-adv-x="1871" 
d="M177 1065h216v-101q26 30 67.5 58t101 46t140.5 18q116 0 191.5 -36.5t113.5 -100.5q66 65 149 101t202 36q121 0 197.5 -41t112 -111t35.5 -156v-778h-216v775q0 81 -51.5 114.5t-137.5 33.5q-78 0 -132.5 -21.5t-84 -60t-30.5 -88.5v-753h-216v775q0 81 -54.5 114.5
t-141.5 33.5q-78 0 -133 -22t-84 -61t-29 -90v-750h-216v1065z" />
    <glyph glyph-name="n" unicode="n" horiz-adv-x="1235" 
d="M177 1065h216v-101q52 54 128 88t191 34q128 0 206 -43t113.5 -115t35.5 -158v-770h-216v772q0 55 -28.5 87.5t-76 47.5t-106.5 15q-77 0 -132.5 -22t-85 -61t-29.5 -91v-748h-216v1065z" />
    <glyph glyph-name="o" unicode="o" horiz-adv-x="1176" 
d="M588 -22q-162 0 -260.5 43t-143 119.5t-44.5 177.5v426q0 102 47.5 179t146.5 120t254 43q154 0 253 -43t147 -120t48 -179v-426q0 -100 -44 -177t-142 -120t-262 -43zM588 137q102 0 167 37t65 130v455q0 92 -64 129.5t-168 37.5t-168 -37.5t-64 -129.5v-455
q0 -93 63 -130t169 -37z" />
    <glyph glyph-name="p" unicode="p" horiz-adv-x="1199" 
d="M177 -409v1474h162l24 -77q46 38 124 68t171 30q198 0 299.5 -98t101.5 -252v-398q0 -101 -48 -183t-144 -129.5t-239 -47.5q-80 0 -138 16t-97 34v-437h-216zM613 137q105 0 167.5 47t62.5 139v425q0 90 -62.5 134t-160.5 44q-58 0 -105.5 -18t-78.5 -41t-43 -37v-640
q33 -18 88 -35.5t132 -17.5z" />
    <glyph glyph-name="q" unicode="q" horiz-adv-x="1198" 
d="M807 42q-49 -34 -119 -49t-127 -15q-140 0 -233.5 43.5t-140.5 119.5t-47 174v420q0 160 105.5 255.5t308.5 95.5q55 0 109.5 -15t97.5 -38t63 -48l6 80h193v-1474h-216v451zM586 137q99 0 157.5 29t63.5 41v613q-6 39 -58.5 72.5t-160.5 33.5q-103 0 -167.5 -41.5
t-64.5 -133.5v-459q0 -90 65.5 -122.5t164.5 -32.5z" />
    <glyph glyph-name="r" unicode="r" horiz-adv-x="809" 
d="M177 1065h216v-143q24 54 84.5 89t137.5 52t150 17l-6 -184q-63 -1 -126 -14t-116.5 -35t-87 -51t-36.5 -61v-735h-216v1065z" />
    <glyph glyph-name="s" unicode="s" horiz-adv-x="993" 
d="M131 63l49 154q52 -25 140.5 -52.5t187.5 -27.5q108 0 149 42.5t41 107.5q0 57 -17.5 90t-84.5 57l-247 86q-119 41 -165.5 105t-46.5 166q0 141 85.5 218t272.5 77q121 0 215.5 -21.5t152.5 -47.5l-50 -153q-31 15 -80.5 29t-104 23.5t-101.5 9.5q-115 0 -150.5 -31.5
t-35.5 -97.5q0 -44 17.5 -68t67.5 -42l240 -88q90 -32 137.5 -72.5t66 -97t18.5 -139.5q0 -86 -37 -157t-116.5 -113t-206.5 -42q-144 0 -244.5 28.5t-152.5 56.5z" />
    <glyph glyph-name="t" unicode="t" horiz-adv-x="825" 
d="M240 318v594h-165v153h172l24 333h185v-333h262v-153h-262v-580q0 -103 56 -136t186 -33h31l-16 -172h-44q-150 0 -245 30t-139.5 101.5t-44.5 195.5z" />
    <glyph glyph-name="u" unicode="u" horiz-adv-x="1233" 
d="M522 -22q-121 0 -199.5 42t-116.5 113t-38 157v775h216v-761q0 -53 26.5 -89t73 -54.5t103.5 -18.5q78 0 135 24.5t87.5 65.5t30.5 91v742h216v-1065h-198l-16 128q-37 -70 -121 -110t-199 -40z" />
    <glyph glyph-name="v" unicode="v" horiz-adv-x="1104" 
d="M54 1065h216l313 -885l-29 -1l287 886h209l-372 -1065h-223z" />
    <glyph glyph-name="w" unicode="w" horiz-adv-x="1625" 
d="M50 1065h199l233 -855h-25l258 855h194l269 -858h-25l222 858h200l-302 -1065h-205l-268 853h28l-271 -853h-205z" />
    <glyph glyph-name="x" unicode="x" horiz-adv-x="1065" 
d="M785 0l-317 470l-408 595h230l304 -449l421 -616h-230zM52 0l379 565l112 -155l-261 -410h-230zM632 505l-112 155l264 405h227z" />
    <glyph glyph-name="y" unicode="y" horiz-adv-x="1113" 
d="M181 -432l-6 173q107 5 178.5 55t118.5 167l30 74l8 -80l-448 1108h220l343 -900h-64l286 900h216l-393 -1126q-65 -187 -178.5 -275.5t-310.5 -95.5z" />
    <glyph glyph-name="z" unicode="z" horiz-adv-x="941" 
d="M128 140l498 810l22 -38h-505v153h693v-138l-501 -814l-22 40h527v-153h-712v140z" />
    <glyph glyph-name="braceleft" unicode="{" horiz-adv-x="965" 
d="M859 -181q-165 0 -261 28.5t-142 85t-59 142t-13 201.5v56q0 87 -5 137t-21.5 74t-50.5 31t-93 7h-46v180h47q58 0 92 8t50.5 33t21.5 76t5 137v62q0 121 14 206t60.5 137.5t142 77.5t258.5 25v-159q-92 0 -144 -11t-75.5 -39t-29 -76.5t-5.5 -124.5v-85
q0 -132 -28.5 -229.5t-94.5 -124.5q67 -29 95 -123t28 -230v-80q0 -78 6 -128.5t29 -80t75 -42t144 -12.5v-159z" />
    <glyph glyph-name="bar" unicode="|" horiz-adv-x="669" 
d="M235 1573h200v-1726h-200v1726z" />
    <glyph glyph-name="braceright" unicode="}" horiz-adv-x="965" 
d="M143 -181v159q93 0 144.5 12.5t75 42t29.5 80.5t6 128v84q0 136 28.5 230t94.5 123q-65 27 -94 124.5t-29 229.5v81q0 75 -5.5 124t-29 77t-75.5 39t-145 11v159q164 0 259.5 -25t142 -77.5t60.5 -137.5t14 -206v-58q0 -86 5 -137t21 -76t50 -33t92 -8h48v-180h-48
q-58 0 -91.5 -7t-50 -31.5t-21.5 -74.5t-5 -136v-60q0 -116 -13 -201.5t-59 -142t-142 -85t-262 -28.5z" />
    <glyph glyph-name="asciitilde" unicode="~" horiz-adv-x="937" 
d="M643 1156q-53 0 -101.5 17.5t-92.5 41.5t-84.5 42t-76.5 18q-56 0 -77 -25t-21 -65h-113q0 122 65 181t151 59q54 0 101.5 -18t90.5 -41t81.5 -41t72.5 -18q59 0 83.5 24.5t24.5 65.5h113q0 -122 -64.5 -181.5t-152.5 -59.5z" />
    <glyph glyph-name="uni00A0" unicode="&#xa0;" horiz-adv-x="513" 
 />
    <glyph glyph-name="exclamdown" unicode="&#xa1;" horiz-adv-x="728" 
d="M399 681q16 -164 29 -327t23 -308.5t15.5 -258.5t5.5 -179h-221q0 65 6.5 177t18 256t27 308t34.5 332h62zM492 1065v-246h-249v246h249z" />
    <glyph glyph-name="cent" unicode="&#xa2;" horiz-adv-x="1108" 
d="M531 -218v1500h95v-1500h-95zM577 -22q-166 0 -261.5 49.5t-135.5 132t-40 178.5v413q0 154 115.5 244.5t316.5 90.5q133 0 228.5 -31.5t146.5 -112t51 -226.5l-205 -18q0 97 -19.5 146t-66 65.5t-128.5 16.5q-110 0 -166.5 -40t-56.5 -139v-421q0 -105 58 -147t165 -42
q86 0 131 14t63 56.5t22 125.5h201q-7 -130 -47.5 -208.5t-129.5 -112.5t-242 -34z" />
    <glyph glyph-name="sterling" unicode="&#xa3;" horiz-adv-x="1280" 
d="M237 0l108 1104q11 112 58 200t135 139t221 51q82 0 169.5 -23.5t169.5 -66.5l-60 -160q-30 15 -73 30.5t-90 26.5t-93 11q-91 0 -144.5 -54.5t-66.5 -173.5l-88 -901h586v-183h-832zM157 662v137h851v-137h-851z" />
    <glyph glyph-name="currency" unicode="&#xa4;" horiz-adv-x="1141" 
d="M563 367q-75 0 -137.5 27.5t-106.5 77.5l-143 -104l-50 83l141 101q-32 69 -32 148q0 93 44 172l-160 110l53 81l165 -116q43 42 100.5 64t125.5 22t126 -23t101 -65l176 127l49 -81l-168 -122q19 -38 30 -80.5t11 -88.5q0 -34 -6 -67.5t-19 -64.5l160 -108l-52 -81
l-156 107q-43 -56 -108.5 -87.5t-143.5 -31.5zM563 472q97 0 155 68t58 161t-58 161t-155 68t-155.5 -68t-58.5 -161t58.5 -161t155.5 -68z" />
    <glyph glyph-name="yen" unicode="&#xa5;" horiz-adv-x="1313" 
d="M488 951l56 -126h-428v126h372zM116 523v126h1087v-126h-1087zM796 825l58 126h349v-126h-407zM543 568l-511 888h246l404 -719h-44l405 719h238l-505 -888v-568h-233v568z" />
    <glyph glyph-name="brokenbar" unicode="&#xa6;" horiz-adv-x="668" 
d="M235 537h198v-690h-198v690zM235 1573h198v-697h-198v697z" />
    <glyph glyph-name="section" unicode="&#xa7;" horiz-adv-x="999" 
d="M762 430l-101 120q31 20 46 47.5t15 71.5q0 57 -18.5 92.5t-89.5 59.5l-267 91q-119 41 -165.5 105t-46.5 166q0 141 85.5 218t272.5 77q130 0 224 -24.5t156 -54.5l-50 -153q-33 17 -83 33.5t-106 27.5t-110 11q-114 0 -150 -31.5t-36 -97.5q0 -44 18 -68.5t67 -41.5
l247 -88q93 -33 142 -74.5t68 -100t19 -141.5q0 -74 -33.5 -140.5t-103.5 -104.5zM534 -18q-131 0 -224.5 23.5t-156.5 55.5l50 149q34 -16 83.5 -32t106 -26.5t109.5 -10.5q115 0 150.5 32t35.5 97q0 45 -17.5 69t-67.5 42l-246 88q-92 33 -142 74.5t-68.5 100t-18.5 141.5
q0 75 33 141.5t104 103.5l100 -120q-30 -20 -45.5 -47.5t-15.5 -71.5q0 -57 19 -92.5t90 -60.5l267 -91q120 -40 166 -104t46 -166q0 -141 -85 -218t-273 -77z" />
    <glyph glyph-name="dieresis" unicode="&#xa8;" horiz-adv-x="725" 
d="M439 1278v199h225v-199h-225zM60 1278v199h225v-199h-225z" />
    <glyph glyph-name="copyright" unicode="&#xa9;" horiz-adv-x="1781" 
d="M891 -14q-155 0 -288.5 55.5t-234 155.5t-157 234t-56.5 291q0 156 56.5 290t157 233.5t234 155t288.5 55.5q156 0 290 -55.5t234 -155t156 -233.5t56 -290q0 -157 -56 -291t-156 -234t-234 -155.5t-290 -55.5zM893 82q183 0 325 84t222.5 229t80.5 327t-80.5 326.5
t-222.5 228.5t-325 84q-182 0 -324 -84t-223.5 -228.5t-81.5 -326.5t81.5 -327t223.5 -229t324 -84zM902 287q-143 0 -219.5 38.5t-104.5 107t-28 157.5v278q0 91 28 162t103.5 111.5t219.5 40.5q139 0 208.5 -42.5t93.5 -115t24 -163.5v-25l-116 -10v64q0 114 -48 157.5
t-162 43.5q-113 0 -172 -43.5t-59 -157.5v-319q0 -114 59 -154.5t173 -40.5q115 0 162 40.5t47 154.5v61h116v-34q0 -88 -24 -158.5t-93.5 -111.5t-207.5 -41z" />
    <glyph glyph-name="ordfeminine" unicode="&#xaa;" horiz-adv-x="973" 
d="M388 514q-141 0 -202.5 69t-61.5 179q0 66 23 112.5t90 84.5t199 79q80 25 124.5 44.5t63 46.5t18.5 74q0 56 -28.5 91t-121.5 35q-76 0 -112 -17.5t-47 -47t-11 -66.5v-39h-166v37q0 134 84 202t256 68q178 0 249 -84.5t71 -226.5v-376q0 -70 17.5 -91.5t71.5 -21.5
l-18 -140h-49q-87 0 -124 36t-58 97q-20 -32 -54.5 -65.5t-87 -56.5t-126.5 -23zM424 650q40 0 84.5 16.5t81.5 46.5t51 68v238q-18 -19 -63.5 -47t-118.5 -49q-90 -27 -129 -59.5t-39 -87.5q0 -64 30 -95t103 -31z" />
    <glyph glyph-name="guillemotleft" unicode="&#xab;" horiz-adv-x="1044" 
d="M86 530l273 450l147 -70l-229 -420v80l229 -420l-140 -70zM500 530l273 450l145 -70l-226 -420v80l226 -420l-138 -70z" />
    <glyph glyph-name="logicalnot" unicode="&#xac;" horiz-adv-x="1005" 
d="M698 492h-546v152h701v-388h-155v236z" />
    <glyph glyph-name="registered" unicode="&#xae;" horiz-adv-x="1781" 
d="M892 -14q-155 0 -288.5 55.5t-234 155.5t-157 234t-56.5 291q0 156 56.5 290t157 233.5t234 155t288.5 55.5q156 0 290 -55.5t234 -155t156 -233.5t56 -290q0 -157 -56 -291t-156 -234t-234 -155.5t-290 -55.5zM894 82q183 0 325 84t222.5 229t80.5 327t-80.5 326.5
t-222.5 228.5t-325 84q-182 0 -324 -84t-223.5 -228.5t-81.5 -326.5t81.5 -327t223.5 -229t324 -84zM585 319v834h423q125 0 184 -61t59 -184v-14q0 -108 -41.5 -158.5t-110.5 -69.5l184 -347h-128l-180 333h-259v-333h-131zM716 742h267q72 0 104 39t32 106v24
q0 39 -7 73.5t-34 56t-86 21.5h-276v-320z" />
    <glyph glyph-name="macron" unicode="&#xaf;" horiz-adv-x="651" 
d="M60 1315v159h530v-159h-530z" />
    <glyph glyph-name="degree" unicode="&#xb0;" horiz-adv-x="829" 
d="M415 849q-165 0 -251 90t-86 227t86 227.5t251 90.5q166 0 251 -90.5t85 -227.5t-85 -227t-251 -90zM415 996q87 0 129.5 46t42.5 125q0 80 -42.5 125.5t-129.5 45.5t-130 -45.5t-43 -125.5q0 -79 43 -125t130 -46z" />
    <glyph glyph-name="plusminus" unicode="&#xb1;" horiz-adv-x="1005" 
d="M425 592h-273v152h273v224h155v-224h273v-152h-273v-236h-155v236zM152 96v152h701v-152h-701z" />
    <glyph glyph-name="uni00B2" unicode="&#xb2;" horiz-adv-x="759" 
d="M127 882l-15 109l285 309q65 70 91.5 113t26.5 100q0 58 -34 88t-107 30q-78 0 -110 -32.5t-32 -107.5h-149q0 145 78 213t223 68q150 0 219 -73.5t69 -178.5q0 -52 -15 -95t-50 -90.5t-95 -112.5l-230 -253l-33 39h422v-126h-544z" />
    <glyph glyph-name="uni00B3" unicode="&#xb3;" horiz-adv-x="750" 
d="M379 870q-148 0 -217 64t-79 210h148q5 -77 40.5 -105t102.5 -28q68 0 101.5 28.5t33.5 101.5q0 55 -14.5 86t-53 43.5t-112.5 12.5v126q101 0 133 29t32 83q0 50 -28.5 78.5t-96.5 28.5t-100.5 -28t-32.5 -99h-147q0 138 72.5 203.5t214.5 65.5q123 0 199.5 -56.5
t76.5 -172.5q0 -56 -14.5 -98t-49.5 -70t-97 -39l4 27q86 -22 128.5 -75t42.5 -158q0 -121 -72 -189.5t-215 -68.5z" />
    <glyph glyph-name="acute" unicode="&#xb4;" horiz-adv-x="490" 
d="M60 1242l130 355h240l-235 -355h-135z" />
    <glyph glyph-name="uni00B5" unicode="&#xb5;" horiz-adv-x="1231" 
d="M165 -334v1399h216v-770q0 -53 27 -88.5t73 -52.5t104 -17q78 0 134.5 24t87 64.5t30.5 86.5v753h216v-1065h-201l-15 134q-36 -71 -108.5 -113t-181.5 -42q-49 0 -91.5 8t-80.5 21v-342h-210z" />
    <glyph glyph-name="paragraph" unicode="&#xb6;" horiz-adv-x="1194" 
d="M496 0v866q-166 0 -259 74t-93 226t95 221t272 69h475v-1456h-179v1281h-133v-1281h-178z" />
    <glyph glyph-name="periodcentered" unicode="&#xb7;" horiz-adv-x="419" 
d="M100 840h219v-219h-219v219z" />
    <glyph glyph-name="cedilla" unicode="&#xb8;" horiz-adv-x="505" 
d="M60 -472v116h185q32 0 44 13.5t12 32.5v64q0 20 -14 33t-42 13h-97v230h111v-166l-31 46q118 0 168 -42t50 -130v-37q0 -71 -46 -122t-159 -51h-181z" />
    <glyph glyph-name="uni00B9" unicode="&#xb9;" horiz-adv-x="731" 
d="M88 1008h221v661l49 -46l-259 -30l-16 129l277 34h107v-748h211v-126h-590v126z" />
    <glyph glyph-name="ordmasculine" unicode="&#xba;" horiz-adv-x="975" 
d="M488 513q-198 0 -280.5 81t-82.5 212v366q0 132 87 213t275 81t275.5 -81t87.5 -213v-366q0 -130 -82 -211.5t-280 -81.5zM487 650q86 0 137 33t51 111v391q0 81 -51.5 113t-136.5 32q-84 0 -135.5 -32t-51.5 -113v-391q0 -80 51 -112t136 -32z" />
    <glyph glyph-name="guillemotright" unicode="&#xbb;" horiz-adv-x="1044" 
d="M135 150l226 420v-80l-226 420l138 70l280 -450l-273 -450zM547 150l229 420v-80l-229 420l140 70l280 -450l-273 -450z" />
    <glyph glyph-name="onequarter" unicode="&#xbc;" horiz-adv-x="1785" 
d="M88 708h221v661l49 -46l-259 -30l-16 129l277 34h107v-748h211v-126h-590v126zM1201 1466h142l-666 -1466h-146zM1470 0v197h-374v113l290 564h168l-304 -589l-26 38h246v189h157v-189h108v-126h-108v-197h-157z" />
    <glyph glyph-name="onehalf" unicode="&#xbd;" horiz-adv-x="1814" 
d="M88 708h221v661l49 -46l-259 -30l-16 129l277 34h107v-748h211v-126h-590v126zM1201 1466h142l-666 -1466h-146zM1182 0l-15 109l285 309q65 70 91.5 113t26.5 100q0 58 -34 88t-107 30q-78 0 -110 -32.5t-32 -107.5h-149q0 145 78 213t223 68q150 0 219 -73.5t69 -178.5
q0 -52 -15 -95t-50 -90.5t-95 -112.5l-230 -253l-33 39h422v-126h-544z" />
    <glyph glyph-name="threequarters" unicode="&#xbe;" horiz-adv-x="1803" 
d="M379 570q-148 0 -217 64t-79 210h148q5 -77 40.5 -105t102.5 -28q68 0 101.5 28.5t33.5 101.5q0 55 -14.5 86t-53 43.5t-112.5 12.5v126q101 0 133 29t32 83q0 50 -28.5 78.5t-96.5 28.5t-100.5 -28t-32.5 -99h-147q0 138 72.5 203.5t214.5 65.5q123 0 199.5 -56.5
t76.5 -172.5q0 -56 -14.5 -98t-49.5 -70t-97 -39l4 27q86 -22 128.5 -75t42.5 -158q0 -121 -72 -189.5t-215 -68.5zM1220 1466h142l-666 -1466h-146zM1488 0v197h-374v113l290 564h168l-304 -589l-26 38h246v189h157v-189h108v-126h-108v-197h-157z" />
    <glyph glyph-name="questiondown" unicode="&#xbf;" horiz-adv-x="1241" 
d="M520 288q-66 -87 -102.5 -154.5t-36.5 -156.5q0 -57 17 -105t64.5 -76t137.5 -28q106 0 162 26.5t76.5 76t20.5 117.5v63h223v-46q0 -110 -23.5 -189.5t-78 -130.5t-147.5 -75t-233 -24t-230 33t-140 88.5t-69.5 123t-19.5 135.5q0 96 31.5 172.5t90.5 148t140 150.5
l200 197h183zM824 1065v-246h-250v246h250z" />
    <glyph glyph-name="Agrave" unicode="&#xc0;" horiz-adv-x="1456" 
d="M81 0l521 1456h249l524 -1456h-241l-416 1272l29 -1l-424 -1271h-242zM321 282l52 175h713l50 -175h-815zM716 1640l-268 355h256l164 -355h-152z" />
    <glyph glyph-name="Aacute" unicode="&#xc1;" horiz-adv-x="1456" 
d="M81 0l521 1456h249l524 -1456h-241l-416 1272l29 -1l-424 -1271h-242zM321 282l52 175h713l50 -175h-815zM588 1640l164 355h256l-268 -355h-152z" />
    <glyph glyph-name="Acircumflex" unicode="&#xc2;" horiz-adv-x="1456" 
d="M81 0l521 1456h249l524 -1456h-241l-416 1272l29 -1l-424 -1271h-242zM321 282l52 175h713l50 -175h-815zM375 1636l262 332h183l262 -332h-151l-248 222h92l-248 -222h-152z" />
    <glyph glyph-name="Atilde" unicode="&#xc3;" horiz-adv-x="1456" 
d="M81 0l521 1456h249l524 -1456h-241l-416 1272l29 -1l-424 -1271h-242zM321 282l52 175h713l50 -175h-815zM843 1617q-56 0 -92.5 16t-62.5 37t-48.5 37t-50.5 16q-30 0 -49 -22t-19 -69h-109q0 129 53 184t147 55q56 0 92.5 -15.5t62 -36.5t47 -37t49.5 -16q30 0 50 22
t20 69h110q0 -130 -53 -185t-147 -55z" />
    <glyph glyph-name="Adieresis" unicode="&#xc4;" horiz-adv-x="1456" 
d="M81 0l521 1456h249l524 -1456h-241l-416 1272l29 -1l-424 -1271h-242zM321 282l52 175h713l50 -175h-815zM805 1660v199h225v-199h-225zM426 1660v199h225v-199h-225z" />
    <glyph glyph-name="Aring" unicode="&#xc5;" horiz-adv-x="1456" 
d="M81 0l521 1456h249l524 -1456h-241l-416 1272l29 -1l-424 -1271h-242zM321 282l52 175h713l50 -175h-815zM728 1541q-113 0 -179.5 61t-66.5 173t66.5 172t179.5 60q112 0 179 -60t67 -172t-66.5 -173t-179.5 -61zM728 1663q40 0 72.5 23t32.5 88t-32.5 89.5t-73.5 24.5
t-72.5 -23.5t-31.5 -88.5q0 -66 31.5 -89.5t73.5 -23.5z" />
    <glyph glyph-name="AE" unicode="&#xc6;" horiz-adv-x="1735" 
d="M331 473l43 175h506v632h-206l-342 -1280l-239 2l415 1454h1092v-176h-499v-451h435v-171h-435v-482h508v-176h-729v473h-549z" />
    <glyph glyph-name="Ccedilla" unicode="&#xc7;" horiz-adv-x="1467" 
d="M767 -23q-186 0 -303 37.5t-179.5 105.5t-86 161t-23.5 204v467q0 114 22.5 210.5t85 167.5t179.5 110t304 39q172 0 281.5 -32.5t168.5 -94.5t82 -150.5t23 -200.5v-15l-225 -22v43q0 122 -31 183.5t-103 82t-196 20.5q-121 0 -200.5 -26t-118.5 -92t-39 -186v-534
q0 -119 40 -182.5t120 -87t202 -23.5t193.5 18t102 76.5t30.5 179.5v32h225v-16q0 -109 -20.5 -196.5t-77.5 -150t-166.5 -95.5t-289.5 -33zM622 -472v116h185q32 0 44 13.5t12 32.5v64q0 20 -14 33t-42 13h-97v230h111v-166l-31 46q118 0 168 -42t50 -130v-37
q0 -71 -46 -122t-159 -51h-181z" />
    <glyph glyph-name="Egrave" unicode="&#xc8;" horiz-adv-x="1268" 
d="M209 1456h924v-175h-692v-448h612v-171h-612v-487h704v-175h-936v1456zM660 1640l-268 355h256l164 -355h-152z" />
    <glyph glyph-name="Eacute" unicode="&#xc9;" horiz-adv-x="1268" 
d="M209 1456h924v-175h-692v-448h612v-171h-612v-487h704v-175h-936v1456zM532 1640l164 355h256l-268 -355h-152z" />
    <glyph glyph-name="Ecircumflex" unicode="&#xca;" horiz-adv-x="1268" 
d="M209 1456h924v-175h-692v-448h612v-171h-612v-487h704v-175h-936v1456zM318 1636l262 332h183l262 -332h-151l-248 222h92l-248 -222h-152z" />
    <glyph glyph-name="Edieresis" unicode="&#xcb;" horiz-adv-x="1268" 
d="M209 1456h924v-175h-692v-448h612v-171h-612v-487h704v-175h-936v1456zM749 1660v199h225v-199h-225zM370 1660v199h225v-199h-225z" />
    <glyph glyph-name="Igrave" unicode="&#xcc;" horiz-adv-x="1137" 
d="M179 174h274v1109h-274v173h779v-173h-272v-1109h272v-174h-779v174zM557 1640l-268 355h256l164 -355h-152z" />
    <glyph glyph-name="Iacute" unicode="&#xcd;" horiz-adv-x="1137" 
d="M179 174h274v1109h-274v173h779v-173h-272v-1109h272v-174h-779v174zM429 1640l164 355h256l-268 -355h-152z" />
    <glyph glyph-name="Icircumflex" unicode="&#xce;" horiz-adv-x="1137" 
d="M179 174h274v1109h-274v173h779v-173h-272v-1109h272v-174h-779v174zM215 1636l262 332h183l262 -332h-151l-248 222h92l-248 -222h-152z" />
    <glyph glyph-name="Idieresis" unicode="&#xcf;" horiz-adv-x="1137" 
d="M179 174h274v1109h-274v173h779v-173h-272v-1109h272v-174h-779v174zM646 1660v199h225v-199h-225zM267 1660v199h225v-199h-225z" />
    <glyph glyph-name="Eth" unicode="&#xd0;" horiz-adv-x="1526" 
d="M209 0v1456h596q205 0 324.5 -66t170.5 -178t51 -252v-469q0 -153 -56.5 -263t-176.5 -169t-312 -59h-597zM442 177h342q105 0 179.5 23.5t114.5 86t40 178.5v516q0 116 -40.5 180.5t-115.5 90.5t-178 26h-342v-1101zM17 698v145h675v-145h-675z" />
    <glyph glyph-name="Ntilde" unicode="&#xd1;" horiz-adv-x="1607" 
d="M209 1456h176l834 -1145l-26 -8v1153h206v-1456h-194l-816 1104l27 9v-1113h-207v1456zM919 1617q-56 0 -92.5 16t-62.5 37t-48.5 37t-50.5 16q-30 0 -49 -22t-19 -69h-109q0 129 53 184t147 55q56 0 92.5 -15.5t62 -36.5t47 -37t49.5 -16q30 0 50 22t20 69h110
q0 -130 -53 -185t-147 -55z" />
    <glyph glyph-name="Ograve" unicode="&#xd2;" horiz-adv-x="1566" 
d="M793 -23q-187 0 -307.5 38t-187.5 107t-94 163t-27 206v457q0 114 26.5 210.5t93.5 168.5t187.5 112t308.5 40q180 0 296.5 -42t181.5 -116.5t91.5 -173t26.5 -212.5v-429q0 -111 -26.5 -207t-92 -168.5t-182 -113t-295.5 -40.5zM793 162q123 0 203.5 25t119.5 89t39 183
v527q0 119 -39.5 186t-120 94t-202.5 27t-207 -27t-130 -93.5t-45 -186.5v-527q0 -119 44.5 -183t129.5 -89t208 -25zM771 1640l-268 355h256l164 -355h-152z" />
    <glyph glyph-name="Oacute" unicode="&#xd3;" horiz-adv-x="1566" 
d="M793 -23q-187 0 -307.5 38t-187.5 107t-94 163t-27 206v457q0 114 26.5 210.5t93.5 168.5t187.5 112t308.5 40q180 0 296.5 -42t181.5 -116.5t91.5 -173t26.5 -212.5v-429q0 -111 -26.5 -207t-92 -168.5t-182 -113t-295.5 -40.5zM793 162q123 0 203.5 25t119.5 89t39 183
v527q0 119 -39.5 186t-120 94t-202.5 27t-207 -27t-130 -93.5t-45 -186.5v-527q0 -119 44.5 -183t129.5 -89t208 -25zM643 1640l164 355h256l-268 -355h-152z" />
    <glyph glyph-name="Ocircumflex" unicode="&#xd4;" horiz-adv-x="1566" 
d="M793 -23q-187 0 -307.5 38t-187.5 107t-94 163t-27 206v457q0 114 26.5 210.5t93.5 168.5t187.5 112t308.5 40q180 0 296.5 -42t181.5 -116.5t91.5 -173t26.5 -212.5v-429q0 -111 -26.5 -207t-92 -168.5t-182 -113t-295.5 -40.5zM793 162q123 0 203.5 25t119.5 89t39 183
v527q0 119 -39.5 186t-120 94t-202.5 27t-207 -27t-130 -93.5t-45 -186.5v-527q0 -119 44.5 -183t129.5 -89t208 -25zM430 1636l262 332h183l262 -332h-151l-248 222h92l-248 -222h-152z" />
    <glyph glyph-name="Otilde" unicode="&#xd5;" horiz-adv-x="1566" 
d="M793 -23q-187 0 -307.5 38t-187.5 107t-94 163t-27 206v457q0 114 26.5 210.5t93.5 168.5t187.5 112t308.5 40q180 0 296.5 -42t181.5 -116.5t91.5 -173t26.5 -212.5v-429q0 -111 -26.5 -207t-92 -168.5t-182 -113t-295.5 -40.5zM793 162q123 0 203.5 25t119.5 89t39 183
v527q0 119 -39.5 186t-120 94t-202.5 27t-207 -27t-130 -93.5t-45 -186.5v-527q0 -119 44.5 -183t129.5 -89t208 -25zM898 1617q-56 0 -92.5 16t-62.5 37t-48.5 37t-50.5 16q-30 0 -49 -22t-19 -69h-109q0 129 53 184t147 55q56 0 92.5 -15.5t62 -36.5t47 -37t49.5 -16
q30 0 50 22t20 69h110q0 -130 -53 -185t-147 -55z" />
    <glyph glyph-name="Odieresis" unicode="&#xd6;" horiz-adv-x="1566" 
d="M793 -23q-187 0 -307.5 38t-187.5 107t-94 163t-27 206v457q0 114 26.5 210.5t93.5 168.5t187.5 112t308.5 40q180 0 296.5 -42t181.5 -116.5t91.5 -173t26.5 -212.5v-429q0 -111 -26.5 -207t-92 -168.5t-182 -113t-295.5 -40.5zM793 162q123 0 203.5 25t119.5 89t39 183
v527q0 119 -39.5 186t-120 94t-202.5 27t-207 -27t-130 -93.5t-45 -186.5v-527q0 -119 44.5 -183t129.5 -89t208 -25zM860 1660v199h225v-199h-225zM481 1660v199h225v-199h-225z" />
    <glyph glyph-name="multiply" unicode="&#xd7;" horiz-adv-x="1005" 
d="M145 344l237 232l-237 230l110 131l248 -243l248 243l110 -131l-237 -230l237 -232l-110 -128l-248 242l-248 -242z" />
    <glyph glyph-name="Oslash" unicode="&#xd8;" horiz-adv-x="1566" 
d="M392 -157l685 1833l104 -38l-686 -1833zM793 -23q-187 0 -307.5 38t-187.5 107t-94 163t-27 206v457q0 114 26.5 210.5t93.5 168.5t187.5 112t308.5 40q180 0 296.5 -42t181.5 -116.5t91.5 -173t26.5 -212.5v-429q0 -111 -26.5 -207t-92 -168.5t-182 -113t-295.5 -40.5z
M793 162q123 0 203.5 25t119.5 89t39 183v527q0 119 -39.5 186t-120 94t-202.5 27t-207 -27t-130 -93.5t-45 -186.5v-527q0 -119 44.5 -183t129.5 -89t208 -25z" />
    <glyph glyph-name="Ugrave" unicode="&#xd9;" horiz-adv-x="1550" 
d="M785 -23q-181 0 -297.5 38t-181 106t-89.5 157.5t-25 192.5v985h234v-1003q0 -121 47.5 -183.5t129 -85t182.5 -22.5q102 0 178.5 22.5t118.5 85t42 183.5v1003h234v-981q0 -101 -24.5 -191.5t-87 -159.5t-174.5 -108t-287 -39zM763 1640l-268 355h256l164 -355h-152z
" />
    <glyph glyph-name="Uacute" unicode="&#xda;" horiz-adv-x="1550" 
d="M785 -23q-181 0 -297.5 38t-181 106t-89.5 157.5t-25 192.5v985h234v-1003q0 -121 47.5 -183.5t129 -85t182.5 -22.5q102 0 178.5 22.5t118.5 85t42 183.5v1003h234v-981q0 -101 -24.5 -191.5t-87 -159.5t-174.5 -108t-287 -39zM635 1640l164 355h256l-268 -355h-152z
" />
    <glyph glyph-name="Ucircumflex" unicode="&#xdb;" horiz-adv-x="1550" 
d="M785 -23q-181 0 -297.5 38t-181 106t-89.5 157.5t-25 192.5v985h234v-1003q0 -121 47.5 -183.5t129 -85t182.5 -22.5q102 0 178.5 22.5t118.5 85t42 183.5v1003h234v-981q0 -101 -24.5 -191.5t-87 -159.5t-174.5 -108t-287 -39zM422 1636l262 332h183l262 -332h-151
l-248 222h92l-248 -222h-152z" />
    <glyph glyph-name="Udieresis" unicode="&#xdc;" horiz-adv-x="1550" 
d="M785 -23q-181 0 -297.5 38t-181 106t-89.5 157.5t-25 192.5v985h234v-1003q0 -121 47.5 -183.5t129 -85t182.5 -22.5q102 0 178.5 22.5t118.5 85t42 183.5v1003h234v-981q0 -101 -24.5 -191.5t-87 -159.5t-174.5 -108t-287 -39zM852 1660v199h225v-199h-225zM473 1660
v199h225v-199h-225z" />
    <glyph glyph-name="Yacute" unicode="&#xdd;" horiz-adv-x="1313" 
d="M543 568l-511 888h246l404 -719h-44l405 719h238l-505 -888v-568h-233v568zM517 1640l164 355h256l-268 -355h-152z" />
    <glyph glyph-name="Thorn" unicode="&#xde;" horiz-adv-x="1334" 
d="M213 1456h234v-237h347q136 0 230.5 -39.5t144.5 -134t50 -259.5q0 -173 -48 -270t-144.5 -137t-242.5 -40h-337v-339h-234v1456zM802 512q84 0 125 31.5t54.5 90.5t13.5 138q0 73 -12.5 135.5t-52 101.5t-123.5 39h-360v-536h355z" />
    <glyph glyph-name="germandbls" unicode="&#xdf;" horiz-adv-x="1283" 
d="M173 0v1107q0 150 64 232.5t172.5 116t242.5 33.5q219 0 321.5 -95t102.5 -255q0 -127 -47 -193t-150 -85l-11 28q51 -5 105.5 -27t102 -67.5t76.5 -121t29 -188.5q0 -183 -68 -290t-205.5 -152.5t-346.5 -45.5l-20 166q94 4 172.5 16t135.5 43.5t88 92.5t31 164
q0 123 -43.5 182.5t-124.5 78t-194 18.5v158q100 0 154.5 22.5t76 68.5t21.5 115q0 82 -25.5 125.5t-74 60.5t-115.5 17q-69 0 -123.5 -16t-86 -57.5t-31.5 -119.5v-1132h-229z" />
    <glyph glyph-name="agrave" unicode="&#xe0;" horiz-adv-x="1173" 
d="M451 -22q-109 0 -181 39t-108.5 105t-36.5 147q0 78 31.5 134t117 102.5t249.5 95.5q87 26 140 47t78 51t25 81q0 43 -15 76t-55 51.5t-117 18.5q-93 0 -137.5 -20.5t-58 -55t-13.5 -76.5v-46h-206v43q0 157 104.5 236t316.5 79q147 0 233.5 -45t124 -126t37.5 -191v-443
q0 -80 20.5 -103.5t82.5 -23.5l-18 -162h-44q-108 0 -160 38t-78 110q-25 -37 -68 -74.5t-107.5 -62.5t-156.5 -25zM497 131q49 0 104 20.5t100.5 56t64.5 81.5v276q-24 -22 -80 -54.5t-146 -59.5q-112 -35 -159.5 -73t-47.5 -100q0 -75 40.5 -111t123.5 -36zM563 1242
l-235 355h240l130 -355h-135z" />
    <glyph glyph-name="aacute" unicode="&#xe1;" horiz-adv-x="1173" 
d="M451 -22q-109 0 -181 39t-108.5 105t-36.5 147q0 78 31.5 134t117 102.5t249.5 95.5q87 26 140 47t78 51t25 81q0 43 -15 76t-55 51.5t-117 18.5q-93 0 -137.5 -20.5t-58 -55t-13.5 -76.5v-46h-206v43q0 157 104.5 236t316.5 79q147 0 233.5 -45t124 -126t37.5 -191v-443
q0 -80 20.5 -103.5t82.5 -23.5l-18 -162h-44q-108 0 -160 38t-78 110q-25 -37 -68 -74.5t-107.5 -62.5t-156.5 -25zM497 131q49 0 104 20.5t100.5 56t64.5 81.5v276q-24 -22 -80 -54.5t-146 -59.5q-112 -35 -159.5 -73t-47.5 -100q0 -75 40.5 -111t123.5 -36zM452 1242
l130 355h240l-235 -355h-135z" />
    <glyph glyph-name="acircumflex" unicode="&#xe2;" horiz-adv-x="1173" 
d="M451 -22q-109 0 -181 39t-108.5 105t-36.5 147q0 78 31.5 134t117 102.5t249.5 95.5q87 26 140 47t78 51t25 81q0 43 -15 76t-55 51.5t-117 18.5q-93 0 -137.5 -20.5t-58 -55t-13.5 -76.5v-46h-206v43q0 157 104.5 236t316.5 79q147 0 233.5 -45t124 -126t37.5 -191v-443
q0 -80 20.5 -103.5t82.5 -23.5l-18 -162h-44q-108 0 -160 38t-78 110q-25 -37 -68 -74.5t-107.5 -62.5t-156.5 -25zM497 131q49 0 104 20.5t100.5 56t64.5 81.5v276q-24 -22 -80 -54.5t-146 -59.5q-112 -35 -159.5 -73t-47.5 -100q0 -75 40.5 -111t123.5 -36zM222 1242
l262 348h183l262 -348h-151l-248 238h92l-248 -238h-152z" />
    <glyph glyph-name="atilde" unicode="&#xe3;" horiz-adv-x="1173" 
d="M451 -22q-109 0 -181 39t-108.5 105t-36.5 147q0 78 31.5 134t117 102.5t249.5 95.5q87 26 140 47t78 51t25 81q0 43 -15 76t-55 51.5t-117 18.5q-93 0 -137.5 -20.5t-58 -55t-13.5 -76.5v-46h-206v43q0 157 104.5 236t316.5 79q147 0 233.5 -45t124 -126t37.5 -191v-443
q0 -80 20.5 -103.5t82.5 -23.5l-18 -162h-44q-108 0 -160 38t-78 110q-25 -37 -68 -74.5t-107.5 -62.5t-156.5 -25zM497 131q49 0 104 20.5t100.5 56t64.5 81.5v276q-24 -22 -80 -54.5t-146 -59.5q-112 -35 -159.5 -73t-47.5 -100q0 -75 40.5 -111t123.5 -36zM691 1269
q-56 0 -92.5 16t-62.5 37t-48.5 37t-50.5 16q-30 0 -49 -22.5t-19 -68.5h-109q0 129 53 184t147 55q56 0 92.5 -16t62 -37t47 -36.5t49.5 -15.5q30 0 50 22t20 68h110q0 -129 -53 -184t-147 -55z" />
    <glyph glyph-name="adieresis" unicode="&#xe4;" horiz-adv-x="1173" 
d="M451 -22q-109 0 -181 39t-108.5 105t-36.5 147q0 78 31.5 134t117 102.5t249.5 95.5q87 26 140 47t78 51t25 81q0 43 -15 76t-55 51.5t-117 18.5q-93 0 -137.5 -20.5t-58 -55t-13.5 -76.5v-46h-206v43q0 157 104.5 236t316.5 79q147 0 233.5 -45t124 -126t37.5 -191v-443
q0 -80 20.5 -103.5t82.5 -23.5l-18 -162h-44q-108 0 -160 38t-78 110q-25 -37 -68 -74.5t-107.5 -62.5t-156.5 -25zM497 131q49 0 104 20.5t100.5 56t64.5 81.5v276q-24 -22 -80 -54.5t-146 -59.5q-112 -35 -159.5 -73t-47.5 -100q0 -75 40.5 -111t123.5 -36zM652 1278v199
h225v-199h-225zM273 1278v199h225v-199h-225z" />
    <glyph glyph-name="aring" unicode="&#xe5;" horiz-adv-x="1173" 
d="M451 -22q-109 0 -181 39t-108.5 105t-36.5 147q0 78 31.5 134t117 102.5t249.5 95.5q87 26 140 47t78 51t25 81q0 43 -15 76t-55 51.5t-117 18.5q-93 0 -137.5 -20.5t-58 -55t-13.5 -76.5v-46h-206v43q0 157 104.5 236t316.5 79q147 0 233.5 -45t124 -126t37.5 -191v-443
q0 -80 20.5 -103.5t82.5 -23.5l-18 -162h-44q-108 0 -160 38t-78 110q-25 -37 -68 -74.5t-107.5 -62.5t-156.5 -25zM497 131q49 0 104 20.5t100.5 56t64.5 81.5v276q-24 -22 -80 -54.5t-146 -59.5q-112 -35 -159.5 -73t-47.5 -100q0 -75 40.5 -111t123.5 -36zM575 1181
q-113 0 -179.5 60.5t-66.5 173.5q0 111 66.5 171.5t179.5 60.5q112 0 179 -60.5t67 -171.5q0 -113 -66.5 -173.5t-179.5 -60.5zM575 1302q40 0 72.5 23t32.5 89q0 65 -32.5 89t-73.5 24t-72.5 -23t-31.5 -88q0 -67 31.5 -90.5t73.5 -23.5z" />
    <glyph glyph-name="ae" unicode="&#xe6;" horiz-adv-x="1739" 
d="M453 -21q-106 0 -179 40t-110.5 107.5t-38.5 151.5q-1 54 10.5 102t48.5 89t114.5 74.5t210.5 58.5q110 21 165.5 35.5t75 41.5t19.5 85q0 70 -38 117.5t-149 47.5q-94 0 -139.5 -26t-59.5 -67.5t-14 -89.5v-28h-206v28q0 159 104.5 249.5t316.5 90.5q103 0 186.5 -33.5
t113.5 -104.5q49 72 126.5 105t183.5 33q146 0 239 -40t137 -114.5t44 -177.5v-242h-628v-186q0 -100 51 -145t152 -45q76 0 123.5 11t71 52.5t28.5 130.5h197q-7 -138 -51.5 -214.5t-134.5 -107t-235 -30.5q-149 0 -225.5 56.5t-107.5 150.5l42 -2q-51 -58 -109.5 -104.5
t-138.5 -73t-196 -26.5zM506 128q50 0 104 16.5t97.5 48t62.5 77.5v277q-4 -10 -27.5 -22t-74.5 -25.5t-138 -31.5q-116 -24 -157 -71.5t-41 -110.5q1 -80 49 -119t125 -39zM986 640h429v134q0 93 -60 123.5t-160 30.5q-102 0 -155.5 -37t-53.5 -131v-120z" />
    <glyph glyph-name="ccedilla" unicode="&#xe7;" horiz-adv-x="1108" 
d="M577 -22q-166 0 -261.5 49.5t-135.5 132t-40 178.5v413q0 154 115.5 244.5t316.5 90.5q133 0 228.5 -31.5t146.5 -112t51 -226.5l-205 -18q0 97 -19.5 146t-66 65.5t-128.5 16.5q-110 0 -166.5 -40t-56.5 -139v-421q0 -105 58 -147t165 -42q86 0 131 14t63 56.5t22 125.5
h201q-7 -130 -47.5 -208.5t-129.5 -112.5t-242 -34zM427 -472v116h185q32 0 44 13.5t12 32.5v64q0 20 -14 33t-42 13h-97v230h111v-166l-31 46q118 0 168 -42t50 -130v-37q0 -71 -46 -122t-159 -51h-181z" />
    <glyph glyph-name="egrave" unicode="&#xe8;" horiz-adv-x="1142" 
d="M140 361v386q0 155 110 247t332 92q228 0 331.5 -89t103.5 -243v-255h-661v-158q0 -117 50.5 -160.5t183.5 -43.5q85 0 133.5 8.5t70 43t27.5 109.5h194q-8 -128 -52.5 -197t-135 -96t-239.5 -27t-248.5 40t-149.5 124.5t-50 218.5zM810 639v139q0 62 -29 94t-79.5 43
t-117.5 11q-102 0 -165 -34t-63 -128v-125h454zM575 1242l-235 355h240l130 -355h-135z" />
    <glyph glyph-name="eacute" unicode="&#xe9;" horiz-adv-x="1142" 
d="M140 361v386q0 155 110 247t332 92q228 0 331.5 -89t103.5 -243v-255h-661v-158q0 -117 50.5 -160.5t183.5 -43.5q85 0 133.5 8.5t70 43t27.5 109.5h194q-8 -128 -52.5 -197t-135 -96t-239.5 -27t-248.5 40t-149.5 124.5t-50 218.5zM810 639v139q0 62 -29 94t-79.5 43
t-117.5 11q-102 0 -165 -34t-63 -128v-125h454zM464 1242l130 355h240l-235 -355h-135z" />
    <glyph glyph-name="ecircumflex" unicode="&#xea;" horiz-adv-x="1142" 
d="M140 361v386q0 155 110 247t332 92q228 0 331.5 -89t103.5 -243v-255h-661v-158q0 -117 50.5 -160.5t183.5 -43.5q85 0 133.5 8.5t70 43t27.5 109.5h194q-8 -128 -52.5 -197t-135 -96t-239.5 -27t-248.5 40t-149.5 124.5t-50 218.5zM810 639v139q0 62 -29 94t-79.5 43
t-117.5 11q-102 0 -165 -34t-63 -128v-125h454zM234 1242l262 348h183l262 -348h-151l-248 238h92l-248 -238h-152z" />
    <glyph glyph-name="edieresis" unicode="&#xeb;" horiz-adv-x="1142" 
d="M140 361v386q0 155 110 247t332 92q228 0 331.5 -89t103.5 -243v-255h-661v-158q0 -117 50.5 -160.5t183.5 -43.5q85 0 133.5 8.5t70 43t27.5 109.5h194q-8 -128 -52.5 -197t-135 -96t-239.5 -27t-248.5 40t-149.5 124.5t-50 218.5zM810 639v139q0 62 -29 94t-79.5 43
t-117.5 11q-102 0 -165 -34t-63 -128v-125h454zM664 1278v199h225v-199h-225zM285 1278v199h225v-199h-225z" />
    <glyph glyph-name="igrave" unicode="&#xec;" horiz-adv-x="546" 
d="M165 1065h216v-1065h-216v1065zM261 1242l-235 355h240l130 -355h-135z" />
    <glyph glyph-name="iacute" unicode="&#xed;" horiz-adv-x="546" 
d="M165 1065h216v-1065h-216v1065zM150 1242l130 355h240l-235 -355h-135z" />
    <glyph glyph-name="icircumflex" unicode="&#xee;" horiz-adv-x="539" 
d="M-33 1238l222 349h183l222 -349h-152l-207 239h92l-209 -239h-151zM165 1065h216v-1065h-216v1065z" />
    <glyph glyph-name="idieresis" unicode="&#xef;" horiz-adv-x="546" 
d="M165 1065h216v-1065h-216v1065zM350 1278v199h225v-199h-225zM-29 1278v199h225v-199h-225z" />
    <glyph glyph-name="eth" unicode="&#xf0;" horiz-adv-x="1191" 
d="M605 -21q-237 0 -343.5 95t-106.5 249v327q0 105 53.5 181t149.5 116.5t222 40.5q87 0 151.5 -21t85.5 -39q-5 145 -62 236.5t-148 132.5l-124 -194l-103 54l112 176q-69 19 -133.5 27t-140.5 8l27 141q89 0 164 -8t170 -29l96 158l104 -54l-91 -142q119 -50 199 -153.5
t120.5 -250t40.5 -327.5v-306q0 -82 -17 -157t-63.5 -133.5t-134 -93t-228.5 -34.5zM605 140q90 0 139.5 23t70 76t20.5 143q0 59 -1 125.5t-2.5 136.5t-4.5 137q-22 15 -62.5 27t-83.5 18.5t-76 6.5q-102 0 -168 -41.5t-66 -139.5v-336q0 -98 63 -137t171 -39z" />
    <glyph glyph-name="ntilde" unicode="&#xf1;" horiz-adv-x="1235" 
d="M177 1065h216v-101q52 54 128 88t191 34q128 0 206 -43t113.5 -115t35.5 -158v-770h-216v772q0 55 -28.5 87.5t-76 47.5t-106.5 15q-77 0 -132.5 -22t-85 -61t-29.5 -91v-748h-216v1065zM760 1269q-56 0 -92.5 16t-62.5 37t-48.5 37t-50.5 16q-30 0 -49 -22.5t-19 -68.5
h-109q0 129 53 184t147 55q56 0 92.5 -16t62 -37t47 -36.5t49.5 -15.5q30 0 50 22t20 68h110q0 -129 -53 -184t-147 -55z" />
    <glyph glyph-name="ograve" unicode="&#xf2;" horiz-adv-x="1176" 
d="M588 -22q-162 0 -260.5 43t-143 119.5t-44.5 177.5v426q0 102 47.5 179t146.5 120t254 43q154 0 253 -43t147 -120t48 -179v-426q0 -100 -44 -177t-142 -120t-262 -43zM588 137q102 0 167 37t65 130v455q0 92 -64 129.5t-168 37.5t-168 -37.5t-64 -129.5v-455
q0 -93 63 -130t169 -37zM575 1242l-235 355h240l130 -355h-135z" />
    <glyph glyph-name="oacute" unicode="&#xf3;" horiz-adv-x="1176" 
d="M588 -22q-162 0 -260.5 43t-143 119.5t-44.5 177.5v426q0 102 47.5 179t146.5 120t254 43q154 0 253 -43t147 -120t48 -179v-426q0 -100 -44 -177t-142 -120t-262 -43zM588 137q102 0 167 37t65 130v455q0 92 -64 129.5t-168 37.5t-168 -37.5t-64 -129.5v-455
q0 -93 63 -130t169 -37zM464 1242l130 355h240l-235 -355h-135z" />
    <glyph glyph-name="ocircumflex" unicode="&#xf4;" horiz-adv-x="1176" 
d="M588 -22q-162 0 -260.5 43t-143 119.5t-44.5 177.5v426q0 102 47.5 179t146.5 120t254 43q154 0 253 -43t147 -120t48 -179v-426q0 -100 -44 -177t-142 -120t-262 -43zM588 137q102 0 167 37t65 130v455q0 92 -64 129.5t-168 37.5t-168 -37.5t-64 -129.5v-455
q0 -93 63 -130t169 -37zM234 1242l262 348h183l262 -348h-151l-248 238h92l-248 -238h-152z" />
    <glyph glyph-name="otilde" unicode="&#xf5;" horiz-adv-x="1176" 
d="M588 -22q-162 0 -260.5 43t-143 119.5t-44.5 177.5v426q0 102 47.5 179t146.5 120t254 43q154 0 253 -43t147 -120t48 -179v-426q0 -100 -44 -177t-142 -120t-262 -43zM588 137q102 0 167 37t65 130v455q0 92 -64 129.5t-168 37.5t-168 -37.5t-64 -129.5v-455
q0 -93 63 -130t169 -37zM703 1269q-56 0 -92.5 16t-62.5 37t-48.5 37t-50.5 16q-30 0 -49 -22.5t-19 -68.5h-109q0 129 53 184t147 55q56 0 92.5 -16t62 -37t47 -36.5t49.5 -15.5q30 0 50 22t20 68h110q0 -129 -53 -184t-147 -55z" />
    <glyph glyph-name="odieresis" unicode="&#xf6;" horiz-adv-x="1176" 
d="M588 -22q-162 0 -260.5 43t-143 119.5t-44.5 177.5v426q0 102 47.5 179t146.5 120t254 43q154 0 253 -43t147 -120t48 -179v-426q0 -100 -44 -177t-142 -120t-262 -43zM588 137q102 0 167 37t65 130v455q0 92 -64 129.5t-168 37.5t-168 -37.5t-64 -129.5v-455
q0 -93 63 -130t169 -37zM664 1278v199h225v-199h-225zM285 1278v199h225v-199h-225z" />
    <glyph glyph-name="divide" unicode="&#xf7;" horiz-adv-x="1005" 
d="M152 492v152h701v-152h-701zM396 111v216h213v-216h-213zM396 809v216h213v-216h-213z" />
    <glyph glyph-name="oslash" unicode="&#xf8;" horiz-adv-x="1176" 
d="M274 -192l537 1455l90 -30l-535 -1455zM588 -22q-162 0 -260.5 43t-143 119.5t-44.5 177.5v426q0 102 47.5 179t146.5 120t254 43q154 0 253 -43t147 -120t48 -179v-426q0 -100 -44 -177t-142 -120t-262 -43zM588 137q102 0 167 37t65 130v455q0 92 -64 129.5t-168 37.5
t-168 -37.5t-64 -129.5v-455q0 -93 63 -130t169 -37z" />
    <glyph glyph-name="ugrave" unicode="&#xf9;" horiz-adv-x="1233" 
d="M522 -22q-121 0 -199.5 42t-116.5 113t-38 157v775h216v-761q0 -53 26.5 -89t73 -54.5t103.5 -18.5q78 0 135 24.5t87.5 65.5t30.5 91v742h216v-1065h-198l-16 128q-37 -70 -121 -110t-199 -40zM602 1242l-235 355h240l130 -355h-135z" />
    <glyph glyph-name="uacute" unicode="&#xfa;" horiz-adv-x="1233" 
d="M522 -22q-121 0 -199.5 42t-116.5 113t-38 157v775h216v-761q0 -53 26.5 -89t73 -54.5t103.5 -18.5q78 0 135 24.5t87.5 65.5t30.5 91v742h216v-1065h-198l-16 128q-37 -70 -121 -110t-199 -40zM491 1242l130 355h240l-235 -355h-135z" />
    <glyph glyph-name="ucircumflex" unicode="&#xfb;" horiz-adv-x="1233" 
d="M522 -22q-121 0 -199.5 42t-116.5 113t-38 157v775h216v-761q0 -53 26.5 -89t73 -54.5t103.5 -18.5q78 0 135 24.5t87.5 65.5t30.5 91v742h216v-1065h-198l-16 128q-37 -70 -121 -110t-199 -40zM261 1242l262 348h183l262 -348h-151l-248 238h92l-248 -238h-152z" />
    <glyph glyph-name="udieresis" unicode="&#xfc;" horiz-adv-x="1233" 
d="M522 -22q-121 0 -199.5 42t-116.5 113t-38 157v775h216v-761q0 -53 26.5 -89t73 -54.5t103.5 -18.5q78 0 135 24.5t87.5 65.5t30.5 91v742h216v-1065h-198l-16 128q-37 -70 -121 -110t-199 -40zM691 1278v199h225v-199h-225zM312 1278v199h225v-199h-225z" />
    <glyph glyph-name="yacute" unicode="&#xfd;" horiz-adv-x="1113" 
d="M181 -432l-6 173q107 5 178.5 55t118.5 167l30 74l8 -80l-448 1108h220l343 -900h-64l286 900h216l-393 -1126q-65 -187 -178.5 -275.5t-310.5 -95.5zM437 1242l130 355h240l-235 -355h-135z" />
    <glyph glyph-name="thorn" unicode="&#xfe;" horiz-adv-x="1199" 
d="M173 1509h217v-501q45 31 114.5 52.5t146.5 21.5q201 0 304.5 -96t103.5 -250v-398q0 -101 -49 -183.5t-146 -130.5t-239 -48q-81 0 -139 17t-96 35v-437h-217v1918zM609 133q105 0 169 49t64 141v423q0 90 -63.5 134.5t-161.5 44.5q-59 0 -106.5 -18t-78.5 -40.5
t-42 -36.5v-640q33 -20 87 -38.5t132 -18.5z" />
    <glyph glyph-name="ydieresis" unicode="&#xff;" horiz-adv-x="1113" 
d="M181 -432l-6 173q107 5 178.5 55t118.5 167l30 74l8 -80l-448 1108h220l343 -900h-64l286 900h216l-393 -1126q-65 -187 -178.5 -275.5t-310.5 -95.5zM637 1278v199h225v-199h-225zM258 1278v199h225v-199h-225z" />
    <glyph glyph-name="Amacron" unicode="&#x100;" horiz-adv-x="1456" 
d="M81 0l521 1456h249l524 -1456h-241l-416 1272l29 -1l-424 -1271h-242zM321 282l52 175h713l50 -175h-815zM446 1684v159h564v-159h-564z" />
    <glyph glyph-name="amacron" unicode="&#x101;" horiz-adv-x="1173" 
d="M451 -22q-109 0 -181 39t-108.5 105t-36.5 147q0 78 31.5 134t117 102.5t249.5 95.5q87 26 140 47t78 51t25 81q0 43 -15 76t-55 51.5t-117 18.5q-93 0 -137.5 -20.5t-58 -55t-13.5 -76.5v-46h-206v43q0 157 104.5 236t316.5 79q147 0 233.5 -45t124 -126t37.5 -191v-443
q0 -80 20.5 -103.5t82.5 -23.5l-18 -162h-44q-108 0 -160 38t-78 110q-25 -37 -68 -74.5t-107.5 -62.5t-156.5 -25zM497 131q49 0 104 20.5t100.5 56t64.5 81.5v276q-24 -22 -80 -54.5t-146 -59.5q-112 -35 -159.5 -73t-47.5 -100q0 -75 40.5 -111t123.5 -36zM310 1315v159
h530v-159h-530z" />
    <glyph glyph-name="Abreve" unicode="&#x102;" horiz-adv-x="1456" 
d="M81 0l521 1456h249l524 -1456h-241l-416 1272l29 -1l-424 -1271h-242zM321 282l52 175h713l50 -175h-815zM728 1647q-143 0 -228.5 77t-85.5 235h157q0 -65 37.5 -102.5t119.5 -37.5q81 0 118.5 37.5t37.5 102.5h158q0 -158 -86 -235t-228 -77z" />
    <glyph glyph-name="abreve" unicode="&#x103;" horiz-adv-x="1173" 
d="M451 -22q-109 0 -181 39t-108.5 105t-36.5 147q0 78 31.5 134t117 102.5t249.5 95.5q87 26 140 47t78 51t25 81q0 43 -15 76t-55 51.5t-117 18.5q-93 0 -137.5 -20.5t-58 -55t-13.5 -76.5v-46h-206v43q0 157 104.5 236t316.5 79q147 0 233.5 -45t124 -126t37.5 -191v-443
q0 -80 20.5 -103.5t82.5 -23.5l-18 -162h-44q-108 0 -160 38t-78 110q-25 -37 -68 -74.5t-107.5 -62.5t-156.5 -25zM497 131q49 0 104 20.5t100.5 56t64.5 81.5v276q-24 -22 -80 -54.5t-146 -59.5q-112 -35 -159.5 -73t-47.5 -100q0 -75 40.5 -111t123.5 -36zM575 1243
q-91 0 -162 33.5t-111.5 106.5t-40.5 190h148q0 -78 41 -127.5t125 -49.5q83 0 124.5 49.5t41.5 127.5h148q0 -117 -40.5 -190t-111 -106.5t-162.5 -33.5z" />
    <glyph glyph-name="Aogonek" unicode="&#x104;" horiz-adv-x="1456" 
d="M81 0l521 1456h249l524 -1456h-241l-416 1272l29 -1l-424 -1271h-242zM321 282l52 175h713l50 -175h-815zM1320 -464q-123 0 -186.5 51t-63.5 150q0 67 53 145.5t135 127.5l117 -10q-60 -51 -98 -105.5t-38 -108.5q0 -50 27 -78t84 -28h51l-12 -144h-69z" />
    <glyph glyph-name="aogonek" unicode="&#x105;" horiz-adv-x="1173" 
d="M451 -22q-109 0 -181 39t-108.5 105t-36.5 147q0 78 31.5 134t117 102.5t249.5 95.5q87 26 140 47t78 51t25 81q0 43 -15 76t-55 51.5t-117 18.5q-93 0 -137.5 -20.5t-58 -55t-13.5 -76.5v-46h-206v43q0 157 104.5 236t316.5 79q147 0 233.5 -45t124 -126t37.5 -191v-443
q0 -80 20.5 -103.5t82.5 -23.5l-18 -162h-44q-108 0 -160 38t-78 110q-25 -37 -68 -74.5t-107.5 -62.5t-156.5 -25zM497 131q49 0 104 20.5t100.5 56t64.5 81.5v276q-24 -22 -80 -54.5t-146 -59.5q-112 -35 -159.5 -73t-47.5 -100q0 -75 40.5 -111t123.5 -36zM1010 -472
q-123 0 -186.5 51t-63.5 150q0 67 53 145.5t135 127.5l117 -10q-60 -51 -98 -105.5t-38 -108.5q0 -50 27 -78t84 -28h51l-12 -144h-69z" />
    <glyph glyph-name="Cacute" unicode="&#x106;" horiz-adv-x="1467" 
d="M767 -23q-186 0 -303 37.5t-179.5 105.5t-86 161t-23.5 204v467q0 114 22.5 210.5t85 167.5t179.5 110t304 39q172 0 281.5 -32.5t168.5 -94.5t82 -150.5t23 -200.5v-15l-225 -22v43q0 122 -31 183.5t-103 82t-196 20.5q-121 0 -200.5 -26t-118.5 -92t-39 -186v-534
q0 -119 40 -182.5t120 -87t202 -23.5t193.5 18t102 76.5t30.5 179.5v32h225v-16q0 -109 -20.5 -196.5t-77.5 -150t-166.5 -95.5t-289.5 -33zM630 1640l164 355h256l-268 -355h-152z" />
    <glyph glyph-name="cacute" unicode="&#x107;" horiz-adv-x="1108" 
d="M577 -22q-166 0 -261.5 49.5t-135.5 132t-40 178.5v413q0 154 115.5 244.5t316.5 90.5q133 0 228.5 -31.5t146.5 -112t51 -226.5l-205 -18q0 97 -19.5 146t-66 65.5t-128.5 16.5q-110 0 -166.5 -40t-56.5 -139v-421q0 -105 58 -147t165 -42q86 0 131 14t63 56.5t22 125.5
h201q-7 -130 -47.5 -208.5t-129.5 -112.5t-242 -34zM450 1242l130 355h240l-235 -355h-135z" />
    <glyph glyph-name="Ccircumflex" unicode="&#x108;" horiz-adv-x="1467" 
d="M767 -23q-186 0 -303 37.5t-179.5 105.5t-86 161t-23.5 204v467q0 114 22.5 210.5t85 167.5t179.5 110t304 39q172 0 281.5 -32.5t168.5 -94.5t82 -150.5t23 -200.5v-15l-225 -22v43q0 122 -31 183.5t-103 82t-196 20.5q-121 0 -200.5 -26t-118.5 -92t-39 -186v-534
q0 -119 40 -182.5t120 -87t202 -23.5t193.5 18t102 76.5t30.5 179.5v32h225v-16q0 -109 -20.5 -196.5t-77.5 -150t-166.5 -95.5t-289.5 -33zM417 1636l262 332h183l262 -332h-151l-248 222h92l-248 -222h-152z" />
    <glyph glyph-name="ccircumflex" unicode="&#x109;" horiz-adv-x="1108" 
d="M577 -22q-166 0 -261.5 49.5t-135.5 132t-40 178.5v413q0 154 115.5 244.5t316.5 90.5q133 0 228.5 -31.5t146.5 -112t51 -226.5l-205 -18q0 97 -19.5 146t-66 65.5t-128.5 16.5q-110 0 -166.5 -40t-56.5 -139v-421q0 -105 58 -147t165 -42q86 0 131 14t63 56.5t22 125.5
h201q-7 -130 -47.5 -208.5t-129.5 -112.5t-242 -34zM220 1242l262 348h183l262 -348h-151l-248 238h92l-248 -238h-152z" />
    <glyph glyph-name="Cdotaccent" unicode="&#x10a;" horiz-adv-x="1467" 
d="M767 -23q-186 0 -303 37.5t-179.5 105.5t-86 161t-23.5 204v467q0 114 22.5 210.5t85 167.5t179.5 110t304 39q172 0 281.5 -32.5t168.5 -94.5t82 -150.5t23 -200.5v-15l-225 -22v43q0 122 -31 183.5t-103 82t-196 20.5q-121 0 -200.5 -26t-118.5 -92t-39 -186v-534
q0 -119 40 -182.5t120 -87t202 -23.5t193.5 18t102 76.5t30.5 179.5v32h225v-16q0 -109 -20.5 -196.5t-77.5 -150t-166.5 -95.5t-289.5 -33zM663 1632v227h214v-227h-214z" />
    <glyph glyph-name="cdotaccent" unicode="&#x10b;" horiz-adv-x="1108" 
d="M577 -22q-166 0 -261.5 49.5t-135.5 132t-40 178.5v413q0 154 115.5 244.5t316.5 90.5q133 0 228.5 -31.5t146.5 -112t51 -226.5l-205 -18q0 97 -19.5 146t-66 65.5t-128.5 16.5q-110 0 -166.5 -40t-56.5 -139v-421q0 -105 58 -147t165 -42q86 0 131 14t63 56.5t22 125.5
h201q-7 -130 -47.5 -208.5t-129.5 -112.5t-242 -34zM463 1281v227h220v-227h-220z" />
    <glyph glyph-name="Ccaron" unicode="&#x10c;" horiz-adv-x="1467" 
d="M767 -23q-186 0 -303 37.5t-179.5 105.5t-86 161t-23.5 204v467q0 114 22.5 210.5t85 167.5t179.5 110t304 39q172 0 281.5 -32.5t168.5 -94.5t82 -150.5t23 -200.5v-15l-225 -22v43q0 122 -31 183.5t-103 82t-196 20.5q-121 0 -200.5 -26t-118.5 -92t-39 -186v-534
q0 -119 40 -182.5t120 -87t202 -23.5t193.5 18t102 76.5t30.5 179.5v32h225v-16q0 -109 -20.5 -196.5t-77.5 -150t-166.5 -95.5t-289.5 -33zM679 1636l-262 332h152l248 -222h-92l248 222h151l-262 -332h-183z" />
    <glyph glyph-name="ccaron" unicode="&#x10d;" horiz-adv-x="1108" 
d="M577 -22q-166 0 -261.5 49.5t-135.5 132t-40 178.5v413q0 154 115.5 244.5t316.5 90.5q133 0 228.5 -31.5t146.5 -112t51 -226.5l-205 -18q0 97 -19.5 146t-66 65.5t-128.5 16.5q-110 0 -166.5 -40t-56.5 -139v-421q0 -105 58 -147t165 -42q86 0 131 14t63 56.5t22 125.5
h201q-7 -130 -47.5 -208.5t-129.5 -112.5t-242 -34zM482 1242l-262 348h152l248 -238h-92l248 238h151l-262 -348h-183z" />
    <glyph glyph-name="Dcaron" unicode="&#x10e;" horiz-adv-x="1526" 
d="M209 0v1456h596q205 0 324.5 -66t170.5 -178t51 -252v-469q0 -153 -56.5 -263t-176.5 -169t-312 -59h-597zM442 177h342q105 0 179.5 23.5t114.5 86t40 178.5v516q0 116 -40.5 180.5t-115.5 90.5t-178 26h-342v-1101zM672 1636l-262 332h152l248 -222h-92l248 222h151
l-262 -332h-183z" />
    <glyph glyph-name="dcaron" unicode="&#x10f;" horiz-adv-x="1463" 
d="M140 331v410q0 156 106 250.5t338 94.5q49 0 112 -11t111 -29v462h216v-1508h-146l-31 68q-48 -37 -124.5 -63.5t-159.5 -26.5q-149 0 -242.5 45t-136.5 124.5t-43 183.5zM807 196v689q-37 17 -94 29t-120 12q-105 0 -171 -38t-66 -131v-436q0 -94 63 -137.5t162 -43.5
q72 0 133.5 18.5t92.5 37.5zM1301 980l-87 44q56 41 92 103.5t36 149.5h-136v231h256v-158q0 -148 -49.5 -238.5t-111.5 -131.5z" />
    <glyph glyph-name="Dcroat" unicode="&#x110;" horiz-adv-x="1526" 
d="M209 0v1456h596q205 0 324.5 -66t170.5 -178t51 -252v-469q0 -153 -56.5 -263t-176.5 -169t-312 -59h-597zM442 177h342q105 0 179.5 23.5t114.5 86t40 178.5v516q0 116 -40.5 180.5t-115.5 90.5t-178 26h-342v-1101zM17 698v145h675v-145h-675z" />
    <glyph glyph-name="dcroat" unicode="&#x111;" horiz-adv-x="1199" 
d="M608 1367h560v-150h-560v150zM140 331v410q0 156 106 250.5t338 94.5q49 0 112 -11t111 -29v462h216v-1508h-146l-31 68q-48 -37 -124.5 -63.5t-159.5 -26.5q-149 0 -242.5 45t-136.5 124.5t-43 183.5zM807 196v689q-37 17 -94 29t-120 12q-105 0 -171 -38t-66 -131v-436
q0 -94 63 -137.5t162 -43.5q72 0 133.5 18.5t92.5 37.5z" />
    <glyph glyph-name="Emacron" unicode="&#x112;" horiz-adv-x="1268" 
d="M209 1456h924v-175h-692v-448h612v-171h-612v-487h704v-175h-936v1456zM390 1684v159h564v-159h-564z" />
    <glyph glyph-name="emacron" unicode="&#x113;" horiz-adv-x="1142" 
d="M140 361v386q0 155 110 247t332 92q228 0 331.5 -89t103.5 -243v-255h-661v-158q0 -117 50.5 -160.5t183.5 -43.5q85 0 133.5 8.5t70 43t27.5 109.5h194q-8 -128 -52.5 -197t-135 -96t-239.5 -27t-248.5 40t-149.5 124.5t-50 218.5zM810 639v139q0 62 -29 94t-79.5 43
t-117.5 11q-102 0 -165 -34t-63 -128v-125h454zM322 1315v159h530v-159h-530z" />
    <glyph glyph-name="Ebreve" unicode="&#x114;" horiz-adv-x="1268" 
d="M209 1456h924v-175h-692v-448h612v-171h-612v-487h704v-175h-936v1456zM672 1647q-143 0 -228.5 77t-85.5 235h157q0 -65 37.5 -102.5t119.5 -37.5q81 0 118.5 37.5t37.5 102.5h158q0 -158 -86 -235t-228 -77z" />
    <glyph glyph-name="ebreve" unicode="&#x115;" horiz-adv-x="1142" 
d="M140 361v386q0 155 110 247t332 92q228 0 331.5 -89t103.5 -243v-255h-661v-158q0 -117 50.5 -160.5t183.5 -43.5q85 0 133.5 8.5t70 43t27.5 109.5h194q-8 -128 -52.5 -197t-135 -96t-239.5 -27t-248.5 40t-149.5 124.5t-50 218.5zM810 639v139q0 62 -29 94t-79.5 43
t-117.5 11q-102 0 -165 -34t-63 -128v-125h454zM587 1243q-91 0 -162 33.5t-111.5 106.5t-40.5 190h148q0 -78 41 -127.5t125 -49.5q83 0 124.5 49.5t41.5 127.5h148q0 -117 -40.5 -190t-111 -106.5t-162.5 -33.5z" />
    <glyph glyph-name="Edotaccent" unicode="&#x116;" horiz-adv-x="1268" 
d="M209 1456h924v-175h-692v-448h612v-171h-612v-487h704v-175h-936v1456zM565 1632v227h214v-227h-214z" />
    <glyph glyph-name="edotaccent" unicode="&#x117;" horiz-adv-x="1142" 
d="M140 361v386q0 155 110 247t332 92q228 0 331.5 -89t103.5 -243v-255h-661v-158q0 -117 50.5 -160.5t183.5 -43.5q85 0 133.5 8.5t70 43t27.5 109.5h194q-8 -128 -52.5 -197t-135 -96t-239.5 -27t-248.5 40t-149.5 124.5t-50 218.5zM810 639v139q0 62 -29 94t-79.5 43
t-117.5 11q-102 0 -165 -34t-63 -128v-125h454zM477 1281v227h220v-227h-220z" />
    <glyph glyph-name="Eogonek" unicode="&#x118;" horiz-adv-x="1268" 
d="M209 1456h924v-175h-692v-448h612v-171h-612v-487h704v-175h-936v1456zM1090 -464q-123 0 -186.5 51t-63.5 150q0 67 53 145.5t135 127.5l117 -10q-60 -51 -98 -105.5t-38 -108.5q0 -50 27 -78t84 -28h51l-12 -144h-69z" />
    <glyph glyph-name="eogonek" unicode="&#x119;" horiz-adv-x="1142" 
d="M140 361v386q0 155 110 247t332 92q228 0 331.5 -89t103.5 -243v-255h-661v-158q0 -117 50.5 -160.5t183.5 -43.5q85 0 133.5 8.5t70 43t27.5 109.5h194q-8 -128 -52.5 -197t-135 -96t-239.5 -27t-248.5 40t-149.5 124.5t-50 218.5zM810 639v139q0 62 -29 94t-79.5 43
t-117.5 11q-102 0 -165 -34t-63 -128v-125h454zM751 -464q-123 0 -186.5 51t-63.5 150q0 67 53 145.5t135 127.5l117 -10q-60 -51 -98 -105.5t-38 -108.5q0 -50 27 -78t84 -28h51l-12 -144h-69z" />
    <glyph glyph-name="Ecaron" unicode="&#x11a;" horiz-adv-x="1268" 
d="M209 1456h924v-175h-692v-448h612v-171h-612v-487h704v-175h-936v1456zM580 1636l-262 332h152l248 -222h-92l248 222h151l-262 -332h-183z" />
    <glyph glyph-name="ecaron" unicode="&#x11b;" horiz-adv-x="1142" 
d="M140 361v386q0 155 110 247t332 92q228 0 331.5 -89t103.5 -243v-255h-661v-158q0 -117 50.5 -160.5t183.5 -43.5q85 0 133.5 8.5t70 43t27.5 109.5h194q-8 -128 -52.5 -197t-135 -96t-239.5 -27t-248.5 40t-149.5 124.5t-50 218.5zM810 639v139q0 62 -29 94t-79.5 43
t-117.5 11q-102 0 -165 -34t-63 -128v-125h454zM495 1242l-262 348h152l248 -238h-92l248 238h151l-262 -348h-183z" />
    <glyph glyph-name="Gcircumflex" unicode="&#x11c;" horiz-adv-x="1573" 
d="M796 -23q-186 0 -307 37.5t-188.5 105.5t-95.5 161t-28 204v467q0 114 27.5 210.5t95 167.5t188.5 110t308 39q181 0 294 -34t173.5 -95.5t83 -143.5t22.5 -179v-22l-220 -18v35q0 107 -31 166t-108 82t-214 23q-121 0 -207 -26t-132 -92t-46 -186v-534
q0 -119 45.5 -182.5t131.5 -87t208 -23.5q124 0 203.5 23.5t118 87t38.5 182.5v124h-328v163h552v-742h-126l-32 221q-8 -46 -34 -89t-75.5 -78.5t-127 -56t-189.5 -20.5zM440 1636l262 332h183l262 -332h-151l-248 222h92l-248 -222h-152z" />
    <glyph glyph-name="gcircumflex" unicode="&#x11d;" horiz-adv-x="1192" 
d="M573 -419q-104 0 -188.5 11t-142.5 34l46 156q54 -18 130 -28.5t146 -10.5q130 0 188 55.5t58 170.5v138q-30 -25 -77.5 -40.5t-97 -22.5t-87.5 -7q-200 0 -304 87.5t-104 250.5v361q0 102 41.5 181t131 124t231.5 45q56 0 113 -15.5t102.5 -39t66.5 -49.5l8 83h192
v-1052q0 -127 -43.5 -224.5t-142.5 -152.5t-267 -55zM582 194q93 0 148.5 25t79.5 44v541q0 53 -57.5 87.5t-171.5 34.5q-105 0 -165 -41.5t-60 -133.5v-399q0 -90 64.5 -124t161.5 -34zM218 1242l262 348h183l262 -348h-151l-248 238h92l-248 -238h-152z" />
    <glyph glyph-name="Gbreve" unicode="&#x11e;" horiz-adv-x="1573" 
d="M796 -23q-186 0 -307 37.5t-188.5 105.5t-95.5 161t-28 204v467q0 114 27.5 210.5t95 167.5t188.5 110t308 39q181 0 294 -34t173.5 -95.5t83 -143.5t22.5 -179v-22l-220 -18v35q0 107 -31 166t-108 82t-214 23q-121 0 -207 -26t-132 -92t-46 -186v-534
q0 -119 45.5 -182.5t131.5 -87t208 -23.5q124 0 203.5 23.5t118 87t38.5 182.5v124h-328v163h552v-742h-126l-32 221q-8 -46 -34 -89t-75.5 -78.5t-127 -56t-189.5 -20.5zM794 1647q-143 0 -228.5 77t-85.5 235h157q0 -65 37.5 -102.5t119.5 -37.5q81 0 118.5 37.5
t37.5 102.5h158q0 -158 -86 -235t-228 -77z" />
    <glyph glyph-name="gbreve" unicode="&#x11f;" horiz-adv-x="1192" 
d="M573 -419q-104 0 -188.5 11t-142.5 34l46 156q54 -18 130 -28.5t146 -10.5q130 0 188 55.5t58 170.5v138q-30 -25 -77.5 -40.5t-97 -22.5t-87.5 -7q-200 0 -304 87.5t-104 250.5v361q0 102 41.5 181t131 124t231.5 45q56 0 113 -15.5t102.5 -39t66.5 -49.5l8 83h192
v-1052q0 -127 -43.5 -224.5t-142.5 -152.5t-267 -55zM582 194q93 0 148.5 25t79.5 44v541q0 53 -57.5 87.5t-171.5 34.5q-105 0 -165 -41.5t-60 -133.5v-399q0 -90 64.5 -124t161.5 -34zM571 1243q-91 0 -162 33.5t-111.5 106.5t-40.5 190h148q0 -78 41 -127.5t125 -49.5
q83 0 124.5 49.5t41.5 127.5h148q0 -117 -40.5 -190t-111 -106.5t-162.5 -33.5z" />
    <glyph glyph-name="Gdotaccent" unicode="&#x120;" horiz-adv-x="1573" 
d="M796 -23q-186 0 -307 37.5t-188.5 105.5t-95.5 161t-28 204v467q0 114 27.5 210.5t95 167.5t188.5 110t308 39q181 0 294 -34t173.5 -95.5t83 -143.5t22.5 -179v-22l-220 -18v35q0 107 -31 166t-108 82t-214 23q-121 0 -207 -26t-132 -92t-46 -186v-534
q0 -119 45.5 -182.5t131.5 -87t208 -23.5q124 0 203.5 23.5t118 87t38.5 182.5v124h-328v163h552v-742h-126l-32 221q-8 -46 -34 -89t-75.5 -78.5t-127 -56t-189.5 -20.5zM687 1632v227h214v-227h-214z" />
    <glyph glyph-name="gdotaccent" unicode="&#x121;" horiz-adv-x="1192" 
d="M573 -419q-104 0 -188.5 11t-142.5 34l46 156q54 -18 130 -28.5t146 -10.5q130 0 188 55.5t58 170.5v138q-30 -25 -77.5 -40.5t-97 -22.5t-87.5 -7q-200 0 -304 87.5t-104 250.5v361q0 102 41.5 181t131 124t231.5 45q56 0 113 -15.5t102.5 -39t66.5 -49.5l8 83h192
v-1052q0 -127 -43.5 -224.5t-142.5 -152.5t-267 -55zM582 194q93 0 148.5 25t79.5 44v541q0 53 -57.5 87.5t-171.5 34.5q-105 0 -165 -41.5t-60 -133.5v-399q0 -90 64.5 -124t161.5 -34zM461 1281v227h220v-227h-220z" />
    <glyph glyph-name="uni0122" unicode="&#x122;" horiz-adv-x="1573" 
d="M796 -23q-186 0 -307 37.5t-188.5 105.5t-95.5 161t-28 204v467q0 114 27.5 210.5t95 167.5t188.5 110t308 39q181 0 294 -34t173.5 -95.5t83 -143.5t22.5 -179v-22l-220 -18v35q0 107 -31 166t-108 82t-214 23q-121 0 -207 -26t-132 -92t-46 -186v-534
q0 -119 45.5 -182.5t131.5 -87t208 -23.5q124 0 203.5 23.5t118 87t38.5 182.5v124h-328v163h552v-742h-126l-32 221q-8 -46 -34 -89t-75.5 -78.5t-127 -56t-189.5 -20.5zM776 -594l-98 41q57 55 83 112.5t26 130.5v14.5t-1 14.5l48 -86h-166v246h250v-97q0 -126 -34.5 -217
t-107.5 -159z" />
    <glyph glyph-name="uni0123" unicode="&#x123;" horiz-adv-x="1192" 
d="M573 -419q-104 0 -188.5 11t-142.5 34l46 156q54 -18 130 -28.5t146 -10.5q130 0 188 55.5t58 170.5v138q-30 -25 -77.5 -40.5t-97 -22.5t-87.5 -7q-200 0 -304 87.5t-104 250.5v361q0 102 41.5 181t131 124t231.5 45q56 0 113 -15.5t102.5 -39t66.5 -49.5l8 83h192
v-1052q0 -127 -43.5 -224.5t-142.5 -152.5t-267 -55zM582 194q93 0 148.5 25t79.5 44v541q0 53 -57.5 87.5t-171.5 34.5q-105 0 -165 -41.5t-60 -133.5v-399q0 -90 64.5 -124t161.5 -34zM496 1239v166q0 81 25 149t65 121t87 88l93 -46q-63 -51 -101.5 -111.5t-38.5 -119.5
h142v-247h-272z" />
    <glyph glyph-name="Hcircumflex" unicode="&#x124;" horiz-adv-x="1560" 
d="M205 1456h233v-635h684v635h233v-1456h-233v644h-684v-644h-233v1456zM427 1636l262 332h183l262 -332h-151l-248 222h92l-248 -222h-152z" />
    <glyph glyph-name="hcircumflex" unicode="&#x125;" horiz-adv-x="1234" 
d="M178 1508h216v-545q43 55 126 89t197 34q121 0 198.5 -40.5t114.5 -109.5t37 -156v-780h-216v774q0 54 -27.5 86.5t-74.5 47t-105 14.5q-78 0 -134 -21.5t-86 -59.5t-30 -90v-751h-216v1508zM307 1633l262 348h183l262 -348h-151l-248 238h92l-248 -238h-152z" />
    <glyph glyph-name="Hbar" unicode="&#x126;" horiz-adv-x="1560" 
d="M95 1227h1370v-157h-1370v157zM205 1456h233v-635h684v635h233v-1456h-233v644h-684v-644h-233v1456z" />
    <glyph glyph-name="hbar" unicode="&#x127;" horiz-adv-x="1234" 
d="M33 1217v150h561v-150h-561zM178 1508h216v-545q43 55 126 89t197 34q121 0 198.5 -40.5t114.5 -109.5t37 -156v-780h-216v774q0 54 -27.5 86.5t-74.5 47t-105 14.5q-78 0 -134 -21.5t-86 -59.5t-30 -90v-751h-216v1508z" />
    <glyph glyph-name="Itilde" unicode="&#x128;" horiz-adv-x="1137" 
d="M179 174h274v1109h-274v173h779v-173h-272v-1109h272v-174h-779v174zM684 1617q-56 0 -92.5 16t-62.5 37t-48.5 37t-50.5 16q-30 0 -49 -22t-19 -69h-109q0 129 53 184t147 55q56 0 92.5 -15.5t62 -36.5t47 -37t49.5 -16q30 0 50 22t20 69h110q0 -130 -53 -185t-147 -55z
" />
    <glyph glyph-name="itilde" unicode="&#x129;" horiz-adv-x="546" 
d="M165 1065h216v-1065h-216v1065zM388 1269q-56 0 -92.5 16t-62.5 37t-48.5 37t-50.5 16q-30 0 -49 -22.5t-19 -68.5h-109q0 129 53 184t147 55q56 0 92.5 -16t62 -37t47 -36.5t49.5 -15.5q30 0 50 22t20 68h110q0 -129 -53 -184t-147 -55z" />
    <glyph glyph-name="Imacron" unicode="&#x12a;" horiz-adv-x="1137" 
d="M179 174h274v1109h-274v173h779v-173h-272v-1109h272v-174h-779v174zM287 1684v159h564v-159h-564z" />
    <glyph glyph-name="imacron" unicode="&#x12b;" horiz-adv-x="546" 
d="M165 1065h216v-1065h-216v1065zM8 1315v159h530v-159h-530z" />
    <glyph glyph-name="Ibreve" unicode="&#x12c;" horiz-adv-x="1137" 
d="M179 174h274v1109h-274v173h779v-173h-272v-1109h272v-174h-779v174zM569 1647q-143 0 -228.5 77t-85.5 235h157q0 -65 37.5 -102.5t119.5 -37.5q81 0 118.5 37.5t37.5 102.5h158q0 -158 -86 -235t-228 -77z" />
    <glyph glyph-name="ibreve" unicode="&#x12d;" horiz-adv-x="539" 
d="M-4 1560h147q0 -78 30.5 -127.5t106.5 -49.5t105.5 49.5t29.5 127.5h148q0 -117 -39 -190t-103.5 -106.5t-140.5 -33.5q-77 0 -141.5 33.5t-103.5 106.5t-39 190zM165 1065h216v-1065h-216v1065z" />
    <glyph glyph-name="Iogonek" unicode="&#x12e;" horiz-adv-x="1137" 
d="M179 174h274v1109h-274v173h779v-173h-272v-1109h272v-174h-779v174zM903 -464q-123 0 -186.5 51t-63.5 150q0 67 53 145.5t135 127.5l117 -10q-60 -51 -98 -105.5t-38 -108.5q0 -50 27 -78t84 -28h51l-12 -144h-69z" />
    <glyph glyph-name="iogonek" unicode="&#x12f;" horiz-adv-x="546" 
d="M165 1065h216v-1065h-216v1065zM163 1281v227h220v-227h-220zM323 -464q-123 0 -186.5 51t-63.5 150q0 67 53 145.5t135 127.5l117 -10q-60 -51 -98 -105.5t-38 -108.5q0 -50 27 -78t84 -28h51l-12 -144h-69z" />
    <glyph glyph-name="Idotaccent" unicode="&#x130;" horiz-adv-x="1137" 
d="M179 174h274v1109h-274v173h779v-173h-272v-1109h272v-174h-779v174zM462 1632v227h214v-227h-214z" />
    <glyph glyph-name="dotlessi" unicode="&#x131;" horiz-adv-x="546" 
d="M165 1065h216v-1065h-216v1065z" />
    <glyph glyph-name="IJ" unicode="&#x132;" horiz-adv-x="2349" 
d="M179 174h274v1109h-274v173h779v-173h-272v-1109h272v-174h-779v174zM1228 69l60 177q32 -15 90.5 -33.5t128.5 -31.5t136 -13q142 0 203.5 72t61.5 197v834h-538v185h771v-1028q0 -208 -121.5 -328t-366.5 -120q-80 0 -161.5 13.5t-150.5 34t-113 41.5z" />
    <glyph glyph-name="ij" unicode="&#x133;" horiz-adv-x="1164" 
d="M165 1065h216v-1065h-216v1065zM163 1281v227h220v-227h-220zM549 -187h34q68 0 108 17.5t58 58.5t18 112v1064h216v-1061q0 -140 -37.5 -218t-113 -110t-188.5 -32h-78zM765 1281v227h220v-227h-220z" />
    <glyph glyph-name="Jcircumflex" unicode="&#x134;" horiz-adv-x="1211" 
d="M91 69l60 177q32 -15 90.5 -33.5t128.5 -31.5t136 -13q142 0 203.5 72t61.5 197v834h-538v185h771v-1028q0 -208 -121.5 -328t-366.5 -120q-80 0 -161.5 13.5t-150.5 34t-113 41.5zM262 1636l262 332h183l262 -332h-151l-248 222h92l-248 -222h-152z" />
    <glyph glyph-name="jcircumflex" unicode="&#x135;" horiz-adv-x="618" 
d="M3 -187h34q68 0 108 17.5t58 58.5t18 112v1064h216v-1061q0 -140 -37.5 -218t-113 -110t-188.5 -32h-78zM-24 1242l262 348h183l262 -348h-151l-248 238h92l-248 -238h-152z" />
    <glyph glyph-name="uni0136" unicode="&#x136;" horiz-adv-x="1428" 
d="M710 706l-43 -3l-225 -264v-439h-233v1456h233v-765l647 765h255zM605 728l163 130l607 -858h-260zM738 -594l-98 41q57 55 83 112.5t26 130.5v14.5t-1 14.5l48 -86h-166v246h250v-97q0 -126 -34.5 -217t-107.5 -159z" />
    <glyph glyph-name="uni0137" unicode="&#x137;" horiz-adv-x="1163" 
d="M178 1509h216v-959l480 515h240l-422 -465l457 -600h-244l-365 494l-146 -147v-347h-216v1509zM612 -594l-98 41q57 55 83 112.5t26 130.5v14.5t-1 14.5l48 -86h-166v246h250v-97q0 -126 -34.5 -217t-107.5 -159z" />
    <glyph glyph-name="kgreenlandic" unicode="&#x138;" horiz-adv-x="1171" 
d="M181 1065h216v-515l480 515h240l-422 -465l457 -600h-244l-365 494l-146 -147v-347h-216v1065z" />
    <glyph glyph-name="Lacute" unicode="&#x139;" horiz-adv-x="1154" 
d="M209 1456h233v-1275h638v-181h-871v1456zM186 1640l164 355h256l-268 -355h-152z" />
    <glyph glyph-name="lacute" unicode="&#x13a;" horiz-adv-x="700" 
d="M181 356v1152h216v-1152q0 -77 16.5 -119t58.5 -58t119 -16h34l-22 -172h-74q-117 0 -194.5 29.5t-115.5 109t-38 226.5zM166 1633l130 355h240l-235 -355h-135z" />
    <glyph glyph-name="uni013B" unicode="&#x13b;" horiz-adv-x="1154" 
d="M209 1456h233v-1275h638v-181h-871v1456zM645 -594l-98 41q57 55 83 112.5t26 130.5v14.5t-1 14.5l48 -86h-166v246h250v-97q0 -126 -34.5 -217t-107.5 -159z" />
    <glyph glyph-name="uni013C" unicode="&#x13c;" horiz-adv-x="700" 
d="M181 356v1152h216v-1152q0 -77 16.5 -119t58.5 -58t119 -16h34l-22 -172h-74q-117 0 -194.5 29.5t-115.5 109t-38 226.5zM399 -594l-98 41q57 55 83 112.5t26 130.5v14.5t-1 14.5l48 -86h-166v246h250v-97q0 -126 -34.5 -217t-107.5 -159z" />
    <glyph glyph-name="Lcaron" unicode="&#x13d;" horiz-adv-x="1154" 
d="M209 1456h233v-1275h638v-181h-871v1456zM852 928l-87 44q56 41 92 103.5t36 149.5h-136v231h256v-158q0 -148 -49.5 -238.5t-111.5 -131.5z" />
    <glyph glyph-name="lcaron" unicode="&#x13e;" horiz-adv-x="838" 
d="M181 356v1152h216v-1152q0 -77 16.5 -119t58.5 -58t119 -16h34l-22 -172h-74q-117 0 -194.5 29.5t-115.5 109t-38 226.5zM674 980l-87 44q56 41 92 103.5t36 149.5h-136v231h256v-158q0 -148 -49.5 -238.5t-111.5 -131.5z" />
    <glyph glyph-name="Ldot" unicode="&#x13f;" horiz-adv-x="1154" 
d="M209 1456h233v-1275h638v-181h-871v1456zM793 908h219v-219h-219v219z" />
    <glyph glyph-name="ldot" unicode="&#x140;" horiz-adv-x="697" 
d="M530 944h219v-219h-219v219zM181 356v1152h216v-1152q0 -77 16.5 -119t58.5 -58t119 -16h34l-22 -172h-74q-117 0 -194.5 29.5t-115.5 109t-38 226.5z" />
    <glyph glyph-name="Lslash" unicode="&#x141;" horiz-adv-x="1154" 
d="M43 731l689 320v-173l-689 -321v174zM209 1456h233v-1275h638v-181h-871v1456z" />
    <glyph glyph-name="lslash" unicode="&#x142;" horiz-adv-x="708" 
d="M43 598v160l570 263v-160zM181 356v1152h216v-1152q0 -77 16.5 -119t58.5 -58t119 -16h34l-22 -172h-74q-117 0 -194.5 29.5t-115.5 109t-38 226.5z" />
    <glyph glyph-name="Nacute" unicode="&#x143;" horiz-adv-x="1607" 
d="M209 1456h176l834 -1145l-26 -8v1153h206v-1456h-194l-816 1104l27 9v-1113h-207v1456zM677 1607l164 355h256l-268 -355h-152z" />
    <glyph glyph-name="nacute" unicode="&#x144;" horiz-adv-x="1235" 
d="M177 1065h216v-101q52 54 128 88t191 34q128 0 206 -43t113.5 -115t35.5 -158v-770h-216v772q0 55 -28.5 87.5t-76 47.5t-106.5 15q-77 0 -132.5 -22t-85 -61t-29.5 -91v-748h-216v1065zM522 1242l130 355h240l-235 -355h-135z" />
    <glyph glyph-name="uni0145" unicode="&#x145;" horiz-adv-x="1607" 
d="M209 1456h176l834 -1145l-26 -8v1153h206v-1456h-194l-816 1104l27 9v-1113h-207v1456zM786 -594l-98 41q57 55 83 112.5t26 130.5v14.5t-1 14.5l48 -86h-166v246h250v-97q0 -126 -34.5 -217t-107.5 -159z" />
    <glyph glyph-name="uni0146" unicode="&#x146;" horiz-adv-x="1235" 
d="M177 1065h216v-101q52 54 128 88t191 34q128 0 206 -43t113.5 -115t35.5 -158v-770h-216v772q0 55 -28.5 87.5t-76 47.5t-106.5 15q-77 0 -132.5 -22t-85 -61t-29.5 -91v-748h-216v1065zM602 -594l-98 41q57 55 83 112.5t26 130.5v14.5t-1 14.5l48 -86h-166v246h250v-97
q0 -126 -34.5 -217t-107.5 -159z" />
    <glyph glyph-name="Ncaron" unicode="&#x147;" horiz-adv-x="1607" 
d="M209 1456h176l834 -1145l-26 -8v1153h206v-1456h-194l-816 1104l27 9v-1113h-207v1456zM712 1603l-262 332h152l248 -222h-92l248 222h151l-262 -332h-183z" />
    <glyph glyph-name="ncaron" unicode="&#x148;" horiz-adv-x="1235" 
d="M177 1065h216v-101q52 54 128 88t191 34q128 0 206 -43t113.5 -115t35.5 -158v-770h-216v772q0 55 -28.5 87.5t-76 47.5t-106.5 15q-77 0 -132.5 -22t-85 -61t-29.5 -91v-748h-216v1065zM553 1242l-262 348h152l248 -238h-92l248 238h151l-262 -348h-183z" />
    <glyph glyph-name="napostrophe" unicode="&#x149;" horiz-adv-x="1347" 
d="M290 1065h216v-101q52 54 128 88t191 34q128 0 206 -43t113.5 -115t35.5 -158v-770h-216v772q0 55 -28.5 87.5t-76 47.5t-106.5 15q-77 0 -132.5 -22t-85 -61t-29.5 -91v-748h-216v1065zM33 894l-97 48q66 58 103 121t37 146h-149v247h279v-166q0 -146 -45 -237.5
t-128 -158.5z" />
    <glyph glyph-name="Eng" unicode="&#x14a;" horiz-adv-x="1601" 
d="M820 -219q90 8 157.5 20t112.5 43t67.5 95t22.5 177v62l-768 890v-1068h-207v1456h177l808 -956v956h207v-1321q0 -190 -61 -302t-182.5 -160.5t-305.5 -48.5z" />
    <glyph glyph-name="eng" unicode="&#x14b;" horiz-adv-x="1235" 
d="M584 -175q92 3 146 18.5t80 54.5t33.5 111.5t7.5 189.5v578q0 54 -28.5 86.5t-76 47.5t-105.5 15q-78 0 -133.5 -21t-84.5 -59t-29 -90v-756h-217v1065h217v-111q43 57 123 94.5t194 37.5q121 0 200 -41t117.5 -111t38.5 -156v-572q0 -190 -35 -309t-133 -174t-287 -55z
" />
    <glyph glyph-name="Omacron" unicode="&#x14c;" horiz-adv-x="1566" 
d="M793 -23q-187 0 -307.5 38t-187.5 107t-94 163t-27 206v457q0 114 26.5 210.5t93.5 168.5t187.5 112t308.5 40q180 0 296.5 -42t181.5 -116.5t91.5 -173t26.5 -212.5v-429q0 -111 -26.5 -207t-92 -168.5t-182 -113t-295.5 -40.5zM793 162q123 0 203.5 25t119.5 89t39 183
v527q0 119 -39.5 186t-120 94t-202.5 27t-207 -27t-130 -93.5t-45 -186.5v-527q0 -119 44.5 -183t129.5 -89t208 -25zM501 1684v159h564v-159h-564z" />
    <glyph glyph-name="omacron" unicode="&#x14d;" horiz-adv-x="1176" 
d="M588 -22q-162 0 -260.5 43t-143 119.5t-44.5 177.5v426q0 102 47.5 179t146.5 120t254 43q154 0 253 -43t147 -120t48 -179v-426q0 -100 -44 -177t-142 -120t-262 -43zM588 137q102 0 167 37t65 130v455q0 92 -64 129.5t-168 37.5t-168 -37.5t-64 -129.5v-455
q0 -93 63 -130t169 -37zM322 1315v159h530v-159h-530z" />
    <glyph glyph-name="Obreve" unicode="&#x14e;" horiz-adv-x="1566" 
d="M793 -23q-187 0 -307.5 38t-187.5 107t-94 163t-27 206v457q0 114 26.5 210.5t93.5 168.5t187.5 112t308.5 40q180 0 296.5 -42t181.5 -116.5t91.5 -173t26.5 -212.5v-429q0 -111 -26.5 -207t-92 -168.5t-182 -113t-295.5 -40.5zM793 162q123 0 203.5 25t119.5 89t39 183
v527q0 119 -39.5 186t-120 94t-202.5 27t-207 -27t-130 -93.5t-45 -186.5v-527q0 -119 44.5 -183t129.5 -89t208 -25zM783 1647q-143 0 -228.5 77t-85.5 235h157q0 -65 37.5 -102.5t119.5 -37.5q81 0 118.5 37.5t37.5 102.5h158q0 -158 -86 -235t-228 -77z" />
    <glyph glyph-name="obreve" unicode="&#x14f;" horiz-adv-x="1176" 
d="M588 -22q-162 0 -260.5 43t-143 119.5t-44.5 177.5v426q0 102 47.5 179t146.5 120t254 43q154 0 253 -43t147 -120t48 -179v-426q0 -100 -44 -177t-142 -120t-262 -43zM588 137q102 0 167 37t65 130v455q0 92 -64 129.5t-168 37.5t-168 -37.5t-64 -129.5v-455
q0 -93 63 -130t169 -37zM587 1243q-91 0 -162 33.5t-111.5 106.5t-40.5 190h148q0 -78 41 -127.5t125 -49.5q83 0 124.5 49.5t41.5 127.5h148q0 -117 -40.5 -190t-111 -106.5t-162.5 -33.5z" />
    <glyph glyph-name="Ohungarumlaut" unicode="&#x150;" horiz-adv-x="1566" 
d="M793 -23q-187 0 -307.5 38t-187.5 107t-94 163t-27 206v457q0 114 26.5 210.5t93.5 168.5t187.5 112t308.5 40q180 0 296.5 -42t181.5 -116.5t91.5 -173t26.5 -212.5v-429q0 -111 -26.5 -207t-92 -168.5t-182 -113t-295.5 -40.5zM793 162q123 0 203.5 25t119.5 89t39 183
v527q0 119 -39.5 186t-120 94t-202.5 27t-207 -27t-130 -93.5t-45 -186.5v-527q0 -119 44.5 -183t129.5 -89t208 -25zM845 1638l58 355h232l-161 -355h-129zM552 1638l57 355h233l-162 -355h-128z" />
    <glyph glyph-name="ohungarumlaut" unicode="&#x151;" horiz-adv-x="1176" 
d="M588 -22q-162 0 -260.5 43t-143 119.5t-44.5 177.5v426q0 102 47.5 179t146.5 120t254 43q154 0 253 -43t147 -120t48 -179v-426q0 -100 -44 -177t-142 -120t-262 -43zM588 137q102 0 167 37t65 130v455q0 92 -64 129.5t-168 37.5t-168 -37.5t-64 -129.5v-455
q0 -93 63 -130t169 -37zM651 1242l57 355h233l-162 -355h-128zM348 1242l58 355h232l-161 -355h-129z" />
    <glyph glyph-name="OE" unicode="&#x152;" horiz-adv-x="1623" 
d="M175 509v422q0 113 25 208.5t87.5 166.5t176.5 110.5t292 39.5h713v-175h-418v-452h349v-171h-349v-483h424v-175h-719q-177 0 -291 37t-177 105t-88 161t-25 206zM819 175v1103h-63q-118 0 -195 -33t-114.5 -102t-37.5 -177v-487q0 -108 37 -175t114.5 -98t196.5 -31h62
z" />
    <glyph glyph-name="oe" unicode="&#x153;" horiz-adv-x="1749" 
d="M574 -21q-162 0 -256.5 43t-135.5 120t-41 178v428q0 155 116 246.5t317 91.5q102 0 182 -30t134 -97q53 68 131.5 97.5t183.5 29.5q220 0 320.5 -89t100.5 -243v-246h-626v-182q0 -100 53 -145t155 -45q75 0 122 14t70 57.5t27 132.5h198q-6 -137 -50 -216t-134 -112
t-235 -33q-103 0 -183.5 35.5t-132.5 96.5q-48 -61 -123 -96.5t-193 -35.5zM574 136q98 0 154 38.5t56 130.5v458q0 89 -53.5 127t-156.5 38q-98 0 -157 -36.5t-59 -128.5v-458q0 -92 56 -130.5t160 -38.5zM1000 640h419v134q0 93 -55.5 123.5t-155.5 30.5q-102 0 -155 -37
t-53 -131v-120z" />
    <glyph glyph-name="Racute" unicode="&#x154;" horiz-adv-x="1471" 
d="M209 0v1456h642q147 0 243 -44.5t143.5 -140t47.5 -247.5q0 -109 -23 -185.5t-69 -126.5t-117 -79l300 -633h-241l-277 594h-416v-594h-233zM442 766h406q84 0 128.5 32.5t61.5 87t17 121.5t-11.5 130.5t-51 105t-125.5 41.5h-425v-518zM570 1640l164 355h256l-268 -355
h-152z" />
    <glyph glyph-name="racute" unicode="&#x155;" horiz-adv-x="809" 
d="M177 1065h216v-143q24 54 84.5 89t137.5 52t150 17l-6 -184q-63 -1 -126 -14t-116.5 -35t-87 -51t-36.5 -61v-735h-216v1065zM359 1242l130 355h240l-235 -355h-135z" />
    <glyph glyph-name="uni0156" unicode="&#x156;" horiz-adv-x="1471" 
d="M209 0v1456h642q147 0 243 -44.5t143.5 -140t47.5 -247.5q0 -109 -23 -185.5t-69 -126.5t-117 -79l300 -633h-241l-277 594h-416v-594h-233zM442 766h406q84 0 128.5 32.5t61.5 87t17 121.5t-11.5 130.5t-51 105t-125.5 41.5h-425v-518zM718 -594l-98 41q57 55 83 112.5
t26 130.5v14.5t-1 14.5l48 -86h-166v246h250v-97q0 -126 -34.5 -217t-107.5 -159z" />
    <glyph glyph-name="uni0157" unicode="&#x157;" horiz-adv-x="809" 
d="M177 1065h216v-143q24 54 84.5 89t137.5 52t150 17l-6 -184q-63 -1 -126 -14t-116.5 -35t-87 -51t-36.5 -61v-735h-216v1065zM271 -594l-98 41q57 55 83 112.5t26 130.5v14.5t-1 14.5l48 -86h-166v246h250v-97q0 -126 -34.5 -217t-107.5 -159z" />
    <glyph glyph-name="Rcaron" unicode="&#x158;" horiz-adv-x="1471" 
d="M209 0v1456h642q147 0 243 -44.5t143.5 -140t47.5 -247.5q0 -109 -23 -185.5t-69 -126.5t-117 -79l300 -633h-241l-277 594h-416v-594h-233zM442 766h406q84 0 128.5 32.5t61.5 87t17 121.5t-11.5 130.5t-51 105t-125.5 41.5h-425v-518zM619 1636l-262 332h152l248 -222
h-92l248 222h151l-262 -332h-183z" />
    <glyph glyph-name="rcaron" unicode="&#x159;" horiz-adv-x="809" 
d="M177 1065h216v-143q24 54 84.5 89t137.5 52t150 17l-6 -184q-63 -1 -126 -14t-116.5 -35t-87 -51t-36.5 -61v-735h-216v1065zM391 1242l-262 348h152l248 -238h-92l248 238h151l-262 -348h-183z" />
    <glyph glyph-name="Sacute" unicode="&#x15a;" horiz-adv-x="1296" 
d="M690 -23q-158 0 -299.5 35t-254.5 99l81 175q84 -47 209 -85.5t259 -38.5q109 0 166 29.5t78.5 88.5t21.5 149q0 41 -13.5 73.5t-53 60.5t-118.5 53l-317 102q-106 34 -169.5 83.5t-92 121t-28.5 168.5q0 138 65 223.5t177 125t253 39.5q172 0 289.5 -28.5t198.5 -77.5
l-61 -174q-71 36 -168 65t-227 29q-143 0 -221 -38.5t-78 -161.5q0 -69 32 -110.5t131 -73.5l326 -107q148 -49 219 -136t71 -255q0 -130 -49 -228t-154 -152t-273 -54zM539 1640l164 355h256l-268 -355h-152z" />
    <glyph glyph-name="sacute" unicode="&#x15b;" horiz-adv-x="993" 
d="M131 63l49 154q52 -25 140.5 -52.5t187.5 -27.5q108 0 149 42.5t41 107.5q0 57 -17.5 90t-84.5 57l-247 86q-119 41 -165.5 105t-46.5 166q0 141 85.5 218t272.5 77q121 0 215.5 -21.5t152.5 -47.5l-50 -153q-31 15 -80.5 29t-104 23.5t-101.5 9.5q-115 0 -150.5 -31.5
t-35.5 -97.5q0 -44 17.5 -68t67.5 -42l240 -88q90 -32 137.5 -72.5t66 -97t18.5 -139.5q0 -86 -37 -157t-116.5 -113t-206.5 -42q-144 0 -244.5 28.5t-152.5 56.5zM396 1242l130 355h240l-235 -355h-135z" />
    <glyph glyph-name="Scircumflex" unicode="&#x15c;" horiz-adv-x="1296" 
d="M690 -23q-158 0 -299.5 35t-254.5 99l81 175q84 -47 209 -85.5t259 -38.5q109 0 166 29.5t78.5 88.5t21.5 149q0 41 -13.5 73.5t-53 60.5t-118.5 53l-317 102q-106 34 -169.5 83.5t-92 121t-28.5 168.5q0 138 65 223.5t177 125t253 39.5q172 0 289.5 -28.5t198.5 -77.5
l-61 -174q-71 36 -168 65t-227 29q-143 0 -221 -38.5t-78 -161.5q0 -69 32 -110.5t131 -73.5l326 -107q148 -49 219 -136t71 -255q0 -130 -49 -228t-154 -152t-273 -54zM325 1636l262 332h183l262 -332h-151l-248 222h92l-248 -222h-152z" />
    <glyph glyph-name="scircumflex" unicode="&#x15d;" horiz-adv-x="993" 
d="M131 63l49 154q52 -25 140.5 -52.5t187.5 -27.5q108 0 149 42.5t41 107.5q0 57 -17.5 90t-84.5 57l-247 86q-119 41 -165.5 105t-46.5 166q0 141 85.5 218t272.5 77q121 0 215.5 -21.5t152.5 -47.5l-50 -153q-31 15 -80.5 29t-104 23.5t-101.5 9.5q-115 0 -150.5 -31.5
t-35.5 -97.5q0 -44 17.5 -68t67.5 -42l240 -88q90 -32 137.5 -72.5t66 -97t18.5 -139.5q0 -86 -37 -157t-116.5 -113t-206.5 -42q-144 0 -244.5 28.5t-152.5 56.5zM166 1242l262 348h183l262 -348h-151l-248 238h92l-248 -238h-152z" />
    <glyph glyph-name="Scedilla" unicode="&#x15e;" horiz-adv-x="1296" 
d="M690 -23q-158 0 -299.5 35t-254.5 99l81 175q84 -47 209 -85.5t259 -38.5q109 0 166 29.5t78.5 88.5t21.5 149q0 41 -13.5 73.5t-53 60.5t-118.5 53l-317 102q-106 34 -169.5 83.5t-92 121t-28.5 168.5q0 138 65 223.5t177 125t253 39.5q172 0 289.5 -28.5t198.5 -77.5
l-61 -174q-71 36 -168 65t-227 29q-143 0 -221 -38.5t-78 -161.5q0 -69 32 -110.5t131 -73.5l326 -107q148 -49 219 -136t71 -255q0 -130 -49 -228t-154 -152t-273 -54zM513 -472v116h185q32 0 44 13.5t12 32.5v64q0 20 -14 33t-42 13h-97v230h111v-166l-31 46
q118 0 168 -42t50 -130v-37q0 -71 -46 -122t-159 -51h-181z" />
    <glyph glyph-name="scedilla" unicode="&#x15f;" horiz-adv-x="993" 
d="M131 63l49 154q52 -25 140.5 -52.5t187.5 -27.5q108 0 149 42.5t41 107.5q0 57 -17.5 90t-84.5 57l-247 86q-119 41 -165.5 105t-46.5 166q0 141 85.5 218t272.5 77q121 0 215.5 -21.5t152.5 -47.5l-50 -153q-31 15 -80.5 29t-104 23.5t-101.5 9.5q-115 0 -150.5 -31.5
t-35.5 -97.5q0 -44 17.5 -68t67.5 -42l240 -88q90 -32 137.5 -72.5t66 -97t18.5 -139.5q0 -86 -37 -157t-116.5 -113t-206.5 -42q-144 0 -244.5 28.5t-152.5 56.5zM368 -472v116h185q32 0 44 13.5t12 32.5v64q0 20 -14 33t-42 13h-97v230h111v-166l-31 46q118 0 168 -42
t50 -130v-37q0 -71 -46 -122t-159 -51h-181z" />
    <glyph glyph-name="Scaron" unicode="&#x160;" horiz-adv-x="1296" 
d="M690 -23q-158 0 -299.5 35t-254.5 99l81 175q84 -47 209 -85.5t259 -38.5q109 0 166 29.5t78.5 88.5t21.5 149q0 41 -13.5 73.5t-53 60.5t-118.5 53l-317 102q-106 34 -169.5 83.5t-92 121t-28.5 168.5q0 138 65 223.5t177 125t253 39.5q172 0 289.5 -28.5t198.5 -77.5
l-61 -174q-71 36 -168 65t-227 29q-143 0 -221 -38.5t-78 -161.5q0 -69 32 -110.5t131 -73.5l326 -107q148 -49 219 -136t71 -255q0 -130 -49 -228t-154 -152t-273 -54zM587 1636l-262 332h152l248 -222h-92l248 222h151l-262 -332h-183z" />
    <glyph glyph-name="scaron" unicode="&#x161;" horiz-adv-x="993" 
d="M131 63l49 154q52 -25 140.5 -52.5t187.5 -27.5q108 0 149 42.5t41 107.5q0 57 -17.5 90t-84.5 57l-247 86q-119 41 -165.5 105t-46.5 166q0 141 85.5 218t272.5 77q121 0 215.5 -21.5t152.5 -47.5l-50 -153q-31 15 -80.5 29t-104 23.5t-101.5 9.5q-115 0 -150.5 -31.5
t-35.5 -97.5q0 -44 17.5 -68t67.5 -42l240 -88q90 -32 137.5 -72.5t66 -97t18.5 -139.5q0 -86 -37 -157t-116.5 -113t-206.5 -42q-144 0 -244.5 28.5t-152.5 56.5zM427 1242l-262 348h152l248 -238h-92l248 238h151l-262 -348h-183z" />
    <glyph glyph-name="uni0162" unicode="&#x162;" horiz-adv-x="1201" 
d="M484 0v1271h-415v185h1063v-185h-416v-1271h-232zM453 -472v116h185q32 0 44 13.5t12 32.5v64q0 20 -14 33t-42 13h-97v230h111v-166l-31 46q118 0 168 -42t50 -130v-37q0 -71 -46 -122t-159 -51h-181z" />
    <glyph glyph-name="uni0163" unicode="&#x163;" horiz-adv-x="825" 
d="M240 318v594h-165v153h172l24 333h185v-333h262v-153h-262v-580q0 -103 56 -136t186 -33h31l-16 -172h-44q-150 0 -245 30t-139.5 101.5t-44.5 195.5zM327 -472v116h185q32 0 44 13.5t12 32.5v64q0 20 -14 33t-42 13h-97v230h111v-166l-31 46q118 0 168 -42t50 -130v-37
q0 -71 -46 -122t-159 -51h-181z" />
    <glyph glyph-name="Tcaron" unicode="&#x164;" horiz-adv-x="1201" 
d="M484 0v1271h-415v185h1063v-185h-416v-1271h-232zM518 1636l-262 332h152l248 -222h-92l248 222h151l-262 -332h-183z" />
    <glyph glyph-name="tcaron" unicode="&#x165;" horiz-adv-x="825" 
d="M240 318v594h-165v153h172l24 333h185v-333h262v-153h-262v-580q0 -103 56 -136t186 -33h31l-16 -172h-44q-150 0 -245 30t-139.5 101.5t-44.5 195.5zM676 1160l-87 44q56 41 92 103.5t36 149.5h-136v231h256v-158q0 -148 -49.5 -238.5t-111.5 -131.5z" />
    <glyph glyph-name="Tbar" unicode="&#x166;" horiz-adv-x="1201" 
d="M249 798h696v-159h-696v159zM484 0v1271h-415v185h1063v-185h-416v-1271h-232z" />
    <glyph glyph-name="tbar" unicode="&#x167;" horiz-adv-x="822" 
d="M78 661h607v-151h-607v151zM240 318v594h-165v153h172l24 333h185v-333h262v-153h-262v-580q0 -103 56 -136t186 -33h31l-16 -172h-44q-150 0 -245 30t-139.5 101.5t-44.5 195.5z" />
    <glyph glyph-name="Utilde" unicode="&#x168;" horiz-adv-x="1550" 
d="M785 -23q-181 0 -297.5 38t-181 106t-89.5 157.5t-25 192.5v985h234v-1003q0 -121 47.5 -183.5t129 -85t182.5 -22.5q102 0 178.5 22.5t118.5 85t42 183.5v1003h234v-981q0 -101 -24.5 -191.5t-87 -159.5t-174.5 -108t-287 -39zM890 1617q-56 0 -92.5 16t-62.5 37
t-48.5 37t-50.5 16q-30 0 -49 -22t-19 -69h-109q0 129 53 184t147 55q56 0 92.5 -15.5t62 -36.5t47 -37t49.5 -16q30 0 50 22t20 69h110q0 -130 -53 -185t-147 -55z" />
    <glyph glyph-name="utilde" unicode="&#x169;" horiz-adv-x="1233" 
d="M522 -22q-121 0 -199.5 42t-116.5 113t-38 157v775h216v-761q0 -53 26.5 -89t73 -54.5t103.5 -18.5q78 0 135 24.5t87.5 65.5t30.5 91v742h216v-1065h-198l-16 128q-37 -70 -121 -110t-199 -40zM729 1269q-56 0 -92.5 16t-62.5 37t-48.5 37t-50.5 16q-30 0 -49 -22.5
t-19 -68.5h-109q0 129 53 184t147 55q56 0 92.5 -16t62 -37t47 -36.5t49.5 -15.5q30 0 50 22t20 68h110q0 -129 -53 -184t-147 -55z" />
    <glyph glyph-name="Umacron" unicode="&#x16a;" horiz-adv-x="1550" 
d="M785 -23q-181 0 -297.5 38t-181 106t-89.5 157.5t-25 192.5v985h234v-1003q0 -121 47.5 -183.5t129 -85t182.5 -22.5q102 0 178.5 22.5t118.5 85t42 183.5v1003h234v-981q0 -101 -24.5 -191.5t-87 -159.5t-174.5 -108t-287 -39zM493 1684v159h564v-159h-564z" />
    <glyph glyph-name="umacron" unicode="&#x16b;" horiz-adv-x="1233" 
d="M522 -22q-121 0 -199.5 42t-116.5 113t-38 157v775h216v-761q0 -53 26.5 -89t73 -54.5t103.5 -18.5q78 0 135 24.5t87.5 65.5t30.5 91v742h216v-1065h-198l-16 128q-37 -70 -121 -110t-199 -40zM349 1315v159h530v-159h-530z" />
    <glyph glyph-name="Ubreve" unicode="&#x16c;" horiz-adv-x="1550" 
d="M785 -23q-181 0 -297.5 38t-181 106t-89.5 157.5t-25 192.5v985h234v-1003q0 -121 47.5 -183.5t129 -85t182.5 -22.5q102 0 178.5 22.5t118.5 85t42 183.5v1003h234v-981q0 -101 -24.5 -191.5t-87 -159.5t-174.5 -108t-287 -39zM775 1647q-143 0 -228.5 77t-85.5 235h157
q0 -65 37.5 -102.5t119.5 -37.5q81 0 118.5 37.5t37.5 102.5h158q0 -158 -86 -235t-228 -77z" />
    <glyph glyph-name="ubreve" unicode="&#x16d;" horiz-adv-x="1233" 
d="M522 -22q-121 0 -199.5 42t-116.5 113t-38 157v775h216v-761q0 -53 26.5 -89t73 -54.5t103.5 -18.5q78 0 135 24.5t87.5 65.5t30.5 91v742h216v-1065h-198l-16 128q-37 -70 -121 -110t-199 -40zM614 1243q-91 0 -162 33.5t-111.5 106.5t-40.5 190h148q0 -78 41 -127.5
t125 -49.5q83 0 124.5 49.5t41.5 127.5h148q0 -117 -40.5 -190t-111 -106.5t-162.5 -33.5z" />
    <glyph glyph-name="Uring" unicode="&#x16e;" horiz-adv-x="1550" 
d="M785 -23q-181 0 -297.5 38t-181 106t-89.5 157.5t-25 192.5v985h234v-1003q0 -121 47.5 -183.5t129 -85t182.5 -22.5q102 0 178.5 22.5t118.5 85t42 183.5v1003h234v-981q0 -101 -24.5 -191.5t-87 -159.5t-174.5 -108t-287 -39zM775 1541q-113 0 -179.5 61t-66.5 173
t66.5 172t179.5 60q112 0 179 -60t67 -172t-66.5 -173t-179.5 -61zM775 1663q40 0 72.5 23t32.5 88t-32.5 89.5t-73.5 24.5t-72.5 -23.5t-31.5 -88.5q0 -66 31.5 -89.5t73.5 -23.5z" />
    <glyph glyph-name="uring" unicode="&#x16f;" horiz-adv-x="1233" 
d="M522 -22q-121 0 -199.5 42t-116.5 113t-38 157v775h216v-761q0 -53 26.5 -89t73 -54.5t103.5 -18.5q78 0 135 24.5t87.5 65.5t30.5 91v742h216v-1065h-198l-16 128q-37 -70 -121 -110t-199 -40zM614 1181q-113 0 -179.5 60.5t-66.5 173.5q0 111 66.5 171.5t179.5 60.5
q112 0 179 -60.5t67 -171.5q0 -113 -66.5 -173.5t-179.5 -60.5zM614 1302q40 0 72.5 23t32.5 89q0 65 -32.5 89t-73.5 24t-72.5 -23t-31.5 -88q0 -67 31.5 -90.5t73.5 -23.5z" />
    <glyph glyph-name="Uhungarumlaut" unicode="&#x170;" horiz-adv-x="1550" 
d="M785 -23q-181 0 -297.5 38t-181 106t-89.5 157.5t-25 192.5v985h234v-1003q0 -121 47.5 -183.5t129 -85t182.5 -22.5q102 0 178.5 22.5t118.5 85t42 183.5v1003h234v-981q0 -101 -24.5 -191.5t-87 -159.5t-174.5 -108t-287 -39zM837 1638l58 355h232l-161 -355h-129z
M544 1638l57 355h233l-162 -355h-128z" />
    <glyph glyph-name="uhungarumlaut" unicode="&#x171;" horiz-adv-x="1233" 
d="M522 -22q-121 0 -199.5 42t-116.5 113t-38 157v775h216v-761q0 -53 26.5 -89t73 -54.5t103.5 -18.5q78 0 135 24.5t87.5 65.5t30.5 91v742h216v-1065h-198l-16 128q-37 -70 -121 -110t-199 -40zM677 1242l57 355h233l-162 -355h-128zM374 1242l58 355h232l-161 -355h-129
z" />
    <glyph glyph-name="Uogonek" unicode="&#x172;" horiz-adv-x="1550" 
d="M785 -23q-181 0 -297.5 38t-181 106t-89.5 157.5t-25 192.5v985h234v-1003q0 -121 47.5 -183.5t129 -85t182.5 -22.5q102 0 178.5 22.5t118.5 85t42 183.5v1003h234v-981q0 -101 -24.5 -191.5t-87 -159.5t-174.5 -108t-287 -39zM996 -454q-123 0 -186.5 51t-63.5 150
q0 67 53 145.5t135 127.5l117 -10q-60 -51 -98 -105.5t-38 -108.5q0 -50 27 -78t84 -28h51l-12 -144h-69z" />
    <glyph glyph-name="uogonek" unicode="&#x173;" horiz-adv-x="1233" 
d="M522 -22q-121 0 -199.5 42t-116.5 113t-38 157v775h216v-761q0 -53 26.5 -89t73 -54.5t103.5 -18.5q78 0 135 24.5t87.5 65.5t30.5 91v742h216v-1065h-198l-16 128q-37 -70 -121 -110t-199 -40zM1001 -464q-123 0 -186.5 51t-63.5 150q0 67 53 145.5t135 127.5l117 -10
q-60 -51 -98 -105.5t-38 -108.5q0 -50 27 -78t84 -28h51l-12 -144h-69z" />
    <glyph glyph-name="Wcircumflex" unicode="&#x174;" horiz-adv-x="2017" 
d="M88 1456h219l289 -1074l297 1074h227l318 -1070l274 1070h217l-390 -1456h-185l-338 1172l-337 -1172h-190zM655 1636l262 332h183l262 -332h-151l-248 222h92l-248 -222h-152z" />
    <glyph glyph-name="wcircumflex" unicode="&#x175;" horiz-adv-x="1625" 
d="M50 1065h199l233 -855h-25l258 855h194l269 -858h-25l222 858h200l-302 -1065h-205l-268 853h28l-271 -853h-205zM466 1242l262 348h183l262 -348h-151l-248 238h92l-248 -238h-152z" />
    <glyph glyph-name="Ycircumflex" unicode="&#x176;" horiz-adv-x="1313" 
d="M543 568l-511 888h246l404 -719h-44l405 719h238l-505 -888v-568h-233v568zM303 1636l262 332h183l262 -332h-151l-248 222h92l-248 -222h-152z" />
    <glyph glyph-name="ycircumflex" unicode="&#x177;" horiz-adv-x="1113" 
d="M181 -432l-6 173q107 5 178.5 55t118.5 167l30 74l8 -80l-448 1108h220l343 -900h-64l286 900h216l-393 -1126q-65 -187 -178.5 -275.5t-310.5 -95.5zM207 1242l262 348h183l262 -348h-151l-248 238h92l-248 -238h-152z" />
    <glyph glyph-name="Ydieresis" unicode="&#x178;" horiz-adv-x="1313" 
d="M543 568l-511 888h246l404 -719h-44l405 719h238l-505 -888v-568h-233v568zM734 1660v199h225v-199h-225zM355 1660v199h225v-199h-225z" />
    <glyph glyph-name="Zacute" unicode="&#x179;" horiz-adv-x="1223" 
d="M162 159l661 1114h-631v183h893v-160l-660 -1116h673v-180h-936v159zM521 1640l164 355h256l-268 -355h-152z" />
    <glyph glyph-name="zacute" unicode="&#x17a;" horiz-adv-x="941" 
d="M128 140l498 810l22 -38h-505v153h693v-138l-501 -814l-22 40h527v-153h-712v140zM381 1242l130 355h240l-235 -355h-135z" />
    <glyph glyph-name="Zdotaccent" unicode="&#x17b;" horiz-adv-x="1223" 
d="M162 159l661 1114h-631v183h893v-160l-660 -1116h673v-180h-936v159zM554 1632v227h214v-227h-214z" />
    <glyph glyph-name="zdotaccent" unicode="&#x17c;" horiz-adv-x="941" 
d="M128 140l498 810l22 -38h-505v153h693v-138l-501 -814l-22 40h527v-153h-712v140zM394 1281v227h220v-227h-220z" />
    <glyph glyph-name="Zcaron" unicode="&#x17d;" horiz-adv-x="1223" 
d="M162 159l661 1114h-631v183h893v-160l-660 -1116h673v-180h-936v159zM569 1636l-262 332h152l248 -222h-92l248 222h151l-262 -332h-183z" />
    <glyph glyph-name="zcaron" unicode="&#x17e;" horiz-adv-x="941" 
d="M128 140l498 810l22 -38h-505v153h693v-138l-501 -814l-22 40h527v-153h-712v140zM413 1242l-262 348h152l248 -238h-92l248 238h151l-262 -348h-183z" />
    <glyph glyph-name="longs" unicode="&#x17f;" horiz-adv-x="738" 
d="M262 912h-165v153h165v124q0 163 83 241.5t255 78.5h122l10 -152h-105q-87 0 -118 -40.5t-31 -101.5v-1215h-216v912z" />
    <glyph glyph-name="uni0180" unicode="&#x180;" horiz-adv-x="1205" 
d="M30 1366h676v-160h-676v160zM636 -22q-92 0 -162.5 31t-116.5 60l-25 -69h-155v1509h216v-489q51 28 121 47t149 19q139 0 228 -46t131.5 -123.5t42.5 -174.5v-398q0 -105 -51 -188t-147 -130.5t-231 -47.5zM602 140q103 0 175 48.5t72 140.5v424q0 90 -57 131.5
t-157 41.5q-68 0 -134.5 -20.5t-107.5 -39.5v-669q38 -23 92 -40t117 -17z" />
    <glyph glyph-name="uni0181" unicode="&#x181;" horiz-adv-x="1585" 
d="M187 1053l-208 12v65q0 116 40 187.5t129.5 105t237.5 33.5l-24 -168q-103 0 -139 -43.5t-36 -136.5v-55zM362 0v1456h538q203 0 309.5 -45t146 -133t39.5 -216q0 -109 -47 -185t-175 -103l2 15q104 -12 167 -61t91.5 -127t28.5 -178q0 -220 -120.5 -321.5t-387.5 -101.5
h-592zM595 169h330q114 0 181 21t96.5 79.5t29.5 170.5q0 69 -20 128t-76.5 94.5t-167.5 35.5h-373v-529zM595 849h350q90 0 136 25.5t62.5 72.5t16.5 113q0 96 -24 144.5t-86 66t-177 17.5h-278v-439z" />
    <glyph glyph-name="uni0186" unicode="&#x186;" horiz-adv-x="1467" 
d="M700 -23q-179 0 -289 33t-167 95.5t-77 150t-20 196.5v16h224v-32q0 -121 31 -179.5t102.5 -76.5t192.5 -18q122 0 202.5 23.5t120 87t39.5 182.5v534q0 120 -39 186t-118 92t-201 26q-123 0 -195.5 -20.5t-103.5 -82t-31 -183.5v-43l-224 22v15q0 112 22.5 200.5
t82 150.5t168.5 94.5t281 32.5q188 0 304.5 -39t179 -110t85.5 -167.5t23 -210.5v-467q0 -111 -24 -204t-86.5 -161t-179.5 -105.5t-303 -37.5z" />
    <glyph glyph-name="uni0187" unicode="&#x187;" horiz-adv-x="1467" 
d="M767 -23q-186 0 -303 37.5t-179.5 105.5t-86 161t-23.5 204v467q0 114 22.5 210.5t85 167.5t179.5 110t304 39q130 0 219.5 -19.5t152.5 -60.5l-21 -20q0 175 67 253.5t226 78.5h76l12 -177h-32q-80 0 -112.5 -37t-32.5 -135v-376l-225 -22v43q0 122 -31 183.5t-103 82
t-196 20.5q-121 0 -200.5 -26t-118.5 -92t-39 -186v-534q0 -119 40 -182.5t120 -87t202 -23.5t193.5 18t102 76.5t30.5 179.5v32h225v-16q0 -109 -20.5 -196.5t-77.5 -150t-166.5 -95.5t-289.5 -33z" />
    <glyph glyph-name="uni0188" unicode="&#x188;" horiz-adv-x="1108" 
d="M577 -22q-166 0 -261.5 49.5t-135.5 132t-40 178.5v413q0 154 115.5 244.5t316.5 90.5q170 0 260 -76l-20 -30v133q0 176 66.5 254.5t225.5 78.5h59l11 -157h-31q-80 0 -112.5 -37t-32.5 -135v-401l-205 -18q0 97 -19.5 146t-66 65.5t-128.5 16.5q-110 0 -166.5 -40
t-56.5 -139v-421q0 -105 58 -147t165 -42q86 0 131 14t63 56.5t22 125.5h201q-7 -130 -47.5 -208.5t-129.5 -112.5t-242 -34z" />
    <glyph glyph-name="uni0189" unicode="&#x189;" horiz-adv-x="1526" 
d="M209 0v1456h596q205 0 324.5 -66t170.5 -178t51 -252v-469q0 -153 -56.5 -263t-176.5 -169t-312 -59h-597zM442 177h342q105 0 179.5 23.5t114.5 86t40 178.5v516q0 116 -40.5 180.5t-115.5 90.5t-178 26h-342v-1101zM17 698v145h675v-145h-675z" />
    <glyph glyph-name="uni018A" unicode="&#x18a;" horiz-adv-x="1679" 
d="M187 1053l-208 12v65q0 116 40 187.5t129.5 105t237.5 33.5l-24 -168q-103 0 -139 -43.5t-36 -136.5v-55zM362 0v1456h596q205 0 324.5 -66t170.5 -178t51 -252v-469q0 -153 -56.5 -263t-176.5 -169t-312 -59h-597zM595 177h342q105 0 179.5 23.5t114.5 86t40 178.5v516
q0 116 -40.5 180.5t-115.5 90.5t-178 26h-342v-1101z" />
    <glyph glyph-name="uni018E" unicode="&#x18e;" horiz-adv-x="1268" 
d="M1059 1456v-1456h-936v175h704v487h-612v171h612v448h-692v175h924z" />
    <glyph glyph-name="uni018F" unicode="&#x18f;" horiz-adv-x="1467" 
d="M701 1479q188 0 304.5 -39t179 -110t85.5 -167.5t23 -210.5v-467q0 -111 -24 -204t-86.5 -161t-179.5 -105.5t-303 -37.5q-179 0 -289 33t-167 95.5t-77 150t-20 196.5v341h912v196q0 120 -39 186t-118 92t-201 26q-123 0 -195.5 -20.5t-103.5 -80.5t-31 -179v-36
l-224 16v21q0 107 22.5 193t82 146.5t168.5 93t281 32.5zM697 162q122 0 202.5 23.5t120 87t39.5 182.5v162h-688v-181q0 -121 31 -179.5t102.5 -76.5t192.5 -18z" />
    <glyph glyph-name="uni0190" unicode="&#x190;" horiz-adv-x="1327" 
d="M665 -24q-176 0 -294 51.5t-176.5 147t-58.5 228.5q0 113 34.5 188.5t103.5 118.5t173 59l5 -11q-110 10 -173.5 53t-89.5 113.5t-26 165.5q0 133 63.5 219t177.5 128.5t267 42.5q117 0 214 -20t168.5 -70t110.5 -138t39 -224l-217 -14q0 111 -29 172.5t-98.5 86
t-189.5 24.5q-160 0 -219.5 -56t-59.5 -158q0 -60 9 -105.5t43 -75.5t106.5 -44.5t198.5 -14.5v-166q-160 0 -242 -24.5t-110 -83.5t-28 -161q0 -121 66 -185t223 -64q113 0 185.5 22t110 81t43.5 171h218q-13 -162 -69.5 -262.5t-172 -147.5t-306.5 -47z" />
    <glyph glyph-name="uni0191" unicode="&#x191;" horiz-adv-x="1164" 
d="M43 -409l-12 177h32q80 0 113 37t33 134v1517h845v-176h-612v-455h574v-171h-574v-730q0 -175 -81.5 -254t-241.5 -79h-76z" />
    <glyph glyph-name="florin" unicode="&#x192;" horiz-adv-x="935" 
d="M174 -187v131q15 -1 29 -2t25 -1q78 0 104.5 33.5t26.5 92.5v699h-127v127h127v252q0 102 21.5 171t79 104.5t164.5 35.5q25 0 51.5 -1.5t58.5 -5.5v-132q-9 2 -19 2.5t-20 0.5q-62 0 -92.5 -21t-40.5 -55.5t-10 -75.5v-275h144v-127h-144v-672q0 -90 -21.5 -155
t-78.5 -99.5t-163 -34.5q-26 0 -53.5 1.5t-61.5 6.5z" />
    <glyph glyph-name="uni0193" unicode="&#x193;" horiz-adv-x="1569" 
d="M794 -23q-185 0 -305.5 37.5t-188.5 105.5t-95.5 161t-27.5 204v467q0 114 27.5 210.5t95 167.5t188 110t306.5 39q139 0 236.5 -22.5t161.5 -67.5l-31 -10q0 175 67 253.5t226 78.5h76l12 -177h-32q-80 0 -112.5 -37t-32.5 -135v-361l-220 -17v38q0 107 -31 166
t-107.5 82t-212.5 23q-120 0 -206 -26t-131.5 -92t-45.5 -186v-534q0 -119 45.5 -182.5t131 -87t206.5 -23.5q123 0 202 23.5t117.5 87t38.5 182.5v124h-328v163h552v-742h-126l-32 221q-8 -46 -34 -89t-75.5 -78.5t-126.5 -56t-188 -20.5z" />
    <glyph glyph-name="uni0194" unicode="&#x194;" horiz-adv-x="1419" 
d="M710 -420q-136 0 -221 43.5t-124.5 121.5t-39.5 183q0 77 20.5 152.5t69 174t132.5 243.5l552 958h254l-638 -1091q-67 -113 -99 -186.5t-42.5 -130t-10.5 -120.5q0 -76 36 -118t111 -42t110.5 42t35.5 118q0 64 -10 120.5t-42 130t-99 186.5l-638 1091h256l551 -958
q84 -146 132 -244.5t68 -173.5t20 -152q0 -105 -39.5 -183t-123.5 -121.5t-221 -43.5z" />
    <glyph glyph-name="uni0196" unicode="&#x196;" horiz-adv-x="1071" 
d="M758 0q-167 0 -256 87.5t-89 265.5v930h-274v173h779v-173h-272v-915q0 -100 40.5 -146t127.5 -46h46l-12 -176h-90z" />
    <glyph glyph-name="uni0197" unicode="&#x197;" horiz-adv-x="1137" 
d="M231 828h676v-160h-676v160zM179 174h274v1109h-274v173h779v-173h-272v-1109h272v-174h-779v174z" />
    <glyph glyph-name="uni0198" unicode="&#x198;" horiz-adv-x="1428" 
d="M209 0v1456h233v-765l466 550q69 81 126 128t119.5 67t146.5 20h75l17 -179h-69q-52 0 -90.5 -12t-77.5 -45.5t-91 -96.5l-354 -417l-37 -3l-231 -271v-432h-233zM1115 0l-510 728l163 130l607 -858h-260z" />
    <glyph glyph-name="uni0199" unicode="&#x199;" horiz-adv-x="1163" 
d="M178 0v1148q0 196 73 278t250 82h68l11 -157h-41q-47 0 -79.5 -14.5t-49 -52.5t-16.5 -111v-623l480 515h240l-422 -465l457 -600h-244l-365 494l-146 -147v-347h-216z" />
    <glyph glyph-name="uni019A" unicode="&#x19a;" horiz-adv-x="697" 
d="M35 868h543v-151h-543v151zM181 356v1152h216v-1152q0 -77 16.5 -119t58.5 -58t119 -16h34l-22 -172h-74q-117 0 -194.5 29.5t-115.5 109t-38 226.5z" />
    <glyph glyph-name="uni019B" unicode="&#x19b;" horiz-adv-x="1127" 
d="M62 0l426 1051l-63 183q-24 69 -56 93t-89 24h-34l11 157h69q72 0 126 -17t93 -62.5t69 -132.5l355 -1025q23 -67 54 -90.5t82 -23.5h34l-11 -157h-68q-70 0 -123 17t-92.5 63t-66.5 132l-201 634l30 -1l-325 -845h-220zM277 1046l-51 141l568 207l51 -141z" />
    <glyph glyph-name="uni019C" unicode="&#x19c;" horiz-adv-x="1943" 
d="M554 -21q-121 0 -197.5 41t-112 111t-35.5 156v1169h232v-1143q0 -81 47 -114.5t133 -33.5q74 0 125 21.5t78 59.5t28 88v1122h234v-1143q0 -81 50 -114.5t137 -33.5q117 0 172.5 48t55.5 125v1118h234v-1456h-216v146l21 -23q-28 -36 -71.5 -69t-106.5 -54t-152 -21
q-116 0 -191 36.5t-114 100.5q-66 -64 -148.5 -100.5t-202.5 -36.5z" />
    <glyph glyph-name="uni019D" unicode="&#x19d;" horiz-adv-x="1607" 
d="M-71 -376l-28 157q111 4 178.5 36.5t98.5 104.5t31 194v1340h176l834 -1145l-26 -8v1153h206v-1456h-194l-816 1104l27 9v-978q0 -200 -62.5 -311t-172 -155.5t-252.5 -44.5z" />
    <glyph glyph-name="uni019E" unicode="&#x19e;" horiz-adv-x="1234" 
d="M177 1065h216v-101q27 30 68.5 58t104 46t150.5 18q125 0 202.5 -43t113 -115t35.5 -158v-1179h-216v1181q0 55 -28.5 87.5t-76 47.5t-106.5 15q-77 0 -132.5 -22t-85 -61t-29.5 -91v-748h-216v1065z" />
    <glyph glyph-name="uni019F" unicode="&#x19f;" horiz-adv-x="1566" 
d="M303 818h956v-160h-956v160zM793 -23q-187 0 -307.5 38t-187.5 107t-94 163t-27 206v457q0 114 26.5 210.5t93.5 168.5t187.5 112t308.5 40q180 0 296.5 -42t181.5 -116.5t91.5 -173t26.5 -212.5v-429q0 -111 -26.5 -207t-92 -168.5t-182 -113t-295.5 -40.5zM793 162
q123 0 203.5 25t119.5 89t39 183v527q0 119 -39.5 186t-120 94t-202.5 27t-207 -27t-130 -93.5t-45 -186.5v-527q0 -119 44.5 -183t129.5 -89t208 -25z" />
    <glyph glyph-name="Ohorn" unicode="&#x1a0;" horiz-adv-x="1566" 
d="M793 -23q-187 0 -307.5 38t-187.5 107t-94 163t-27 206v457q0 114 26.5 210.5t93.5 168.5t187.5 112t308.5 40q180 0 296.5 -42t181.5 -116.5t91.5 -173t26.5 -212.5v-429q0 -111 -26.5 -207t-92 -168.5t-182 -113t-295.5 -40.5zM793 162q123 0 203.5 25t119.5 89t39 183
v527q0 119 -39.5 186t-120 94t-202.5 27t-207 -27t-130 -93.5t-45 -186.5v-527q0 -119 44.5 -183t129.5 -89t208 -25zM974 1456h130q50 0 83.5 33.5t33.5 94.5v141h200v-124q0 -100 -40 -168t-111 -103t-166 -35h-130v161z" />
    <glyph glyph-name="ohorn" unicode="&#x1a1;" horiz-adv-x="1176" 
d="M588 -22q-162 0 -260.5 43t-143 119.5t-44.5 177.5v426q0 102 47.5 179t146.5 120t254 43q154 0 253 -43t147 -120t48 -179v-426q0 -100 -44 -177t-142 -120t-262 -43zM588 137q102 0 167 37t65 130v455q0 92 -64 129.5t-168 37.5t-168 -37.5t-64 -129.5v-455
q0 -93 63 -130t169 -37zM771 904v161h60q50 0 84 33.5t34 94.5v141h199v-124q0 -100 -39.5 -168t-111 -103t-166.5 -35h-60z" />
    <glyph glyph-name="uni01A4" unicode="&#x1a4;" horiz-adv-x="1482" 
d="M187 1053l-208 12v65q0 116 40 187.5t129.5 105t237.5 33.5l-24 -168q-103 0 -139 -43.5t-36 -136.5v-55zM362 1456h578q202 0 315 -106t113 -354q0 -173 -49 -276.5t-146.5 -150.5t-244.5 -47h-333v-522h-233v1456zM947 697q83 0 124.5 38t55.5 103t14 143q0 74 -12 143
t-52 114.5t-124 45.5h-358v-587h352z" />
    <glyph glyph-name="uni01A5" unicode="&#x1a5;" horiz-adv-x="1195" 
d="M173 -409v1557q0 196 73.5 278t249.5 82h69l11 -157h-41q-48 0 -80.5 -14.5t-49 -52.5t-16.5 -111v-228l-46 29q42 42 125.5 77t182.5 35q200 0 302 -98t102 -252v-398q0 -101 -48 -183t-144 -129.5t-239 -47.5q-80 0 -138 16t-97 34v-437h-216zM609 137q105 0 167.5 47
t62.5 139v425q0 90 -62.5 134t-160.5 44q-58 0 -105.5 -18t-78.5 -41t-43 -37v-640q33 -18 88 -35.5t132 -17.5z" />
    <glyph glyph-name="uni01A9" unicode="&#x1a9;" horiz-adv-x="1182" 
d="M123 0v167l513 629l10 -67l-523 567v160h924v-175h-713l32 26l461 -498v-72l-475 -588l-17 26h724v-175h-936z" />
    <glyph glyph-name="uni01AC" unicode="&#x1ac;" horiz-adv-x="1289" 
d="M572 0v1271h-170q-103 0 -139 -38t-36 -125v-55l-208 12v65q0 116 40 187.5t129.5 105t237.5 33.5h794v-185h-416v-1271h-232z" />
    <glyph glyph-name="uni01AD" unicode="&#x1ad;" horiz-adv-x="822" 
d="M661 -9q-151 0 -243.5 29.5t-135.5 100.5t-43 195v596h-174v153h174v83q0 196 73.5 278t249.5 82h69l11 -157h-41q-47 0 -80 -14.5t-49.5 -52.5t-16.5 -111v-108h263v-153h-263v-582q0 -69 22.5 -105t75 -49t141.5 -13h35l-17 -172h-51z" />
    <glyph glyph-name="uni01AE" unicode="&#x1ae;" horiz-adv-x="1201" 
d="M806 -409q-159 0 -240.5 79t-81.5 254v1347h-415v185h1063v-185h-416l1 -1332q0 -97 32.5 -134t112.5 -37h32l-12 -177h-76z" />
    <glyph glyph-name="Uhorn" unicode="&#x1af;" horiz-adv-x="1581" 
d="M785 -23q-181 0 -297.5 38t-181 106t-89.5 157.5t-25 192.5v985h234v-1003q0 -121 47.5 -183.5t129 -85t182.5 -22.5q102 0 178.5 22.5t118.5 85t42 183.5v1003h234v-981q0 -101 -24.5 -191.5t-87 -159.5t-174.5 -108t-287 -39zM1283 1456h30q50 0 84 33.5t34 94.5v141
h200v-124q0 -100 -40 -168t-111.5 -103t-166.5 -35h-30v161z" />
    <glyph glyph-name="uhorn" unicode="&#x1b0;" horiz-adv-x="1262" 
d="M522 -22q-121 0 -199.5 42t-116.5 113t-38 157v775h216v-761q0 -53 26.5 -89t73 -54.5t103.5 -18.5q78 0 135 24.5t87.5 65.5t30.5 91v742h216v-1065h-198l-16 128q-37 -70 -121 -110t-199 -40zM956 904v161h60q50 0 84 33.5t34 94.5v141h199v-124q0 -100 -39.5 -168
t-111 -103t-166.5 -35h-60z" />
    <glyph glyph-name="uni01B1" unicode="&#x1b1;" horiz-adv-x="1566" 
d="M783 -22q-211 0 -345 65.5t-197.5 212.5t-63.5 393q0 173 49 307t130 226.5t176 137.5v-49h-347v185h485v-182q-74 -58 -132.5 -141.5t-92 -201t-33.5 -280.5q0 -179 35 -286t116 -155t220 -48t220 48t116 155t35 286q0 163 -34 280.5t-92 201t-133 141.5v182h485v-185
h-354v49q97 -44 179.5 -136t133 -227t50.5 -308q0 -246 -63.5 -393t-197.5 -212.5t-345 -65.5z" />
    <glyph glyph-name="uni01B2" unicode="&#x1b2;" horiz-adv-x="1525" 
d="M735 -23q-212 0 -330 54.5t-165.5 153.5t-47.5 231v1040h234v-1043q0 -117 70 -184t239 -67q174 0 269.5 99.5t95.5 282.5v505q0 126 -54 179t-158 53v185q161 0 258.5 -54t142 -151t44.5 -225v-477q0 -177 -68.5 -308t-201.5 -202.5t-328 -71.5z" />
    <glyph glyph-name="uni01B3" unicode="&#x1b3;" horiz-adv-x="1321" 
d="M543 0v568l-511 888h246l404 -713h-42l216 436q56 115 108 177t110.5 86t132.5 24h73l14 -176h-36q-64 0 -100 -24.5t-72 -94.5l-310 -603v-568h-233z" />
    <glyph glyph-name="uni01B4" unicode="&#x1b4;" horiz-adv-x="1118" 
d="M187 -418l-14 161q87 0 140.5 16t85.5 50t52 86l50 135l-4 -73l-443 1108h216l339 -905h-62l213 650q33 99 70.5 157t89.5 83t128 25h66l14 -158h-35q-55 0 -83 -24t-50 -86l-331 -953q-48 -141 -149 -206.5t-293 -65.5z" />
    <glyph glyph-name="uni01B5" unicode="&#x1b5;" horiz-adv-x="1223" 
d="M247 828h781v-160h-781v160zM162 159l661 1114h-631v183h893v-160l-660 -1116h673v-180h-936v159z" />
    <glyph glyph-name="uni01B6" unicode="&#x1b6;" horiz-adv-x="941" 
d="M151 620h662v-150h-662v150zM128 140l498 810l22 -38h-505v153h693v-138l-501 -814l-22 40h527v-153h-712v140z" />
    <glyph glyph-name="uni01B7" unicode="&#x1b7;" horiz-adv-x="1314" 
d="M656 -423q-190 0 -305.5 59.5t-172 187t-69.5 333.5h217q6 -158 43.5 -244.5t110.5 -119.5t186 -33q156 0 222.5 88t66.5 273q0 134 -29.5 218.5t-118.5 125.5t-266 41v180q226 0 368 -66.5t209 -193t67 -308.5q0 -168 -58.5 -289.5t-175.5 -186.5t-295 -65zM703 556
l-162 130l418 620l5 -25h-783v175h984v-203z" />
    <glyph glyph-name="uni01B8" unicode="&#x1b8;" horiz-adv-x="1287" 
d="M645 -423q-177 0 -295 65t-176.5 186.5t-58.5 289.5q0 182 67 308.5t209.5 193t368.5 66.5v-180q-177 0 -266 -41t-118.5 -125.5t-29.5 -218.5q0 -185 66.5 -273t222.5 -88q113 0 186 33t110.5 119.5t43.5 244.5h217q-13 -206 -69.5 -333.5t-172 -187t-305.5 -59.5z
M597 556l-461 697v203h984v-175h-783l4 25l419 -620z" />
    <glyph glyph-name="uni01B9" unicode="&#x1b9;" horiz-adv-x="1093" 
d="M566 -413q-146 0 -244 52t-147.5 151t-49.5 241q0 144 45 243t134 150t222 51l-25 -76l-339 528v138h819v-153h-624l14 38l307 -475v-165h-80q-157 0 -213.5 -66t-56.5 -210q0 -134 54.5 -199t175.5 -65q91 0 147 22t84 81t32 170h200q-10 -162 -58 -262.5t-144 -147
t-253 -46.5z" />
    <glyph glyph-name="uni01C0" unicode="&#x1c0;" horiz-adv-x="647" 
d="M223 -409v1917h200v-1917h-200z" />
    <glyph glyph-name="uni01C1" unicode="&#x1c1;" horiz-adv-x="1060" 
d="M223 -409v1917h200v-1917h-200zM637 -409v1917h200v-1917h-200z" />
    <glyph glyph-name="uni01C2" unicode="&#x1c2;" horiz-adv-x="711" 
d="M255 -409v1917h200v-1917h-200zM704 907v-175h-697v175h697zM704 537v-175h-697v175h697z" />
    <glyph glyph-name="uni01C3" unicode="&#x1c3;" horiz-adv-x="613" 
d="M272 384q-16 164 -29 327t-23 308.5t-15.5 258.5t-5.5 178h221q0 -64 -6.5 -176t-18 -256.5t-27 -308t-34.5 -331.5h-62zM179 0v246h249v-246h-249z" />
    <glyph glyph-name="uni01C4" unicode="&#x1c4;" horiz-adv-x="2749" 
d="M209 0v1456h596q205 0 324.5 -66t170.5 -178t51 -252v-469q0 -153 -56.5 -263t-176.5 -169t-312 -59h-597zM442 177h342q105 0 179.5 23.5t114.5 86t40 178.5v516q0 116 -40.5 180.5t-115.5 90.5t-178 26h-342v-1101zM1688 159l661 1114h-631v183h893v-160l-660 -1116
h673v-180h-936v159zM2095 1636l-262 332h152l248 -222h-92l248 222h151l-262 -332h-183z" />
    <glyph glyph-name="uni01C5" unicode="&#x1c5;" horiz-adv-x="2467" 
d="M209 0v1456h596q205 0 324.5 -66t170.5 -178t51 -252v-469q0 -153 -56.5 -263t-176.5 -169t-312 -59h-597zM442 177h342q105 0 179.5 23.5t114.5 86t40 178.5v516q0 116 -40.5 180.5t-115.5 90.5t-178 26h-342v-1101zM1654 140l498 810l22 -38h-505v153h693v-138
l-501 -814l-22 40h527v-153h-712v140zM1939 1242l-262 348h152l248 -238h-92l248 238h151l-262 -348h-183z" />
    <glyph glyph-name="uni01C6" unicode="&#x1c6;" horiz-adv-x="2141" 
d="M140 331v410q0 156 106 250.5t338 94.5q49 0 112 -11t111 -29v462h216v-1508h-146l-31 68q-48 -37 -124.5 -63.5t-159.5 -26.5q-149 0 -242.5 45t-136.5 124.5t-43 183.5zM807 196v689q-37 17 -94 29t-120 12q-105 0 -171 -38t-66 -131v-436q0 -94 63 -137.5t162 -43.5
q72 0 133.5 18.5t92.5 37.5zM1327 140l498 810l22 -38h-505v153h693v-138l-501 -814l-22 40h527v-153h-712v140zM1612 1242l-262 348h152l248 -238h-92l248 238h151l-262 -348h-183z" />
    <glyph glyph-name="uni01C7" unicode="&#x1c7;" horiz-adv-x="2365" 
d="M209 1456h233v-1275h638v-181h-871v1456zM1245 69l60 177q32 -15 90.5 -33.5t128.5 -31.5t136 -13q142 0 203.5 72t61.5 197v834h-538v185h771v-1028q0 -208 -121.5 -328t-366.5 -120q-80 0 -161.5 13.5t-150.5 34t-113 41.5z" />
    <glyph glyph-name="uni01C8" unicode="&#x1c8;" horiz-adv-x="1772" 
d="M209 1456h233v-1275h638v-181h-871v1456zM1157 -187h34q68 0 108 17.5t58 58.5t18 112v1064h216v-1061q0 -140 -37.5 -218t-113 -110t-188.5 -32h-78zM1373 1281v227h220v-227h-220z" />
    <glyph glyph-name="uni01C9" unicode="&#x1c9;" horiz-adv-x="1318" 
d="M181 356v1152h216v-1152q0 -77 16.5 -119t58.5 -58t119 -16h34l-22 -172h-74q-117 0 -194.5 29.5t-115.5 109t-38 226.5zM703 -187h34q68 0 108 17.5t58 58.5t18 112v1064h216v-1061q0 -140 -37.5 -218t-113 -110t-188.5 -32h-78zM919 1281v227h220v-227h-220z" />
    <glyph glyph-name="uni01CA" unicode="&#x1ca;" horiz-adv-x="2819" 
d="M209 1456h176l834 -1145l-26 -8v1153h206v-1456h-194l-816 1104l27 9v-1113h-207v1456zM1698 69l60 177q32 -15 90.5 -33.5t128.5 -31.5t136 -13q142 0 203.5 72t61.5 197v834h-538v185h771v-1028q0 -208 -121.5 -328t-366.5 -120q-80 0 -161.5 13.5t-150.5 34t-113 41.5
z" />
    <glyph glyph-name="uni01CB" unicode="&#x1cb;" horiz-adv-x="2225" 
d="M209 1456h176l834 -1145l-26 -8v1153h206v-1456h-194l-816 1104l27 9v-1113h-207v1456zM1610 -187h34q68 0 108 17.5t58 58.5t18 112v1064h216v-1061q0 -140 -37.5 -218t-113 -110t-188.5 -32h-78zM1826 1281v227h220v-227h-220z" />
    <glyph glyph-name="uni01CC" unicode="&#x1cc;" horiz-adv-x="1853" 
d="M177 1065h216v-101q52 54 128 88t191 34q128 0 206 -43t113.5 -115t35.5 -158v-770h-216v772q0 55 -28.5 87.5t-76 47.5t-106.5 15q-77 0 -132.5 -22t-85 -61t-29.5 -91v-748h-216v1065zM1238 -187h34q68 0 108 17.5t58 58.5t18 112v1064h216v-1061q0 -140 -37.5 -218
t-113 -110t-188.5 -32h-78zM1454 1281v227h220v-227h-220z" />
    <glyph glyph-name="uni01CD" unicode="&#x1cd;" horiz-adv-x="1456" 
d="M81 0l521 1456h249l524 -1456h-241l-416 1272l29 -1l-424 -1271h-242zM321 282l52 175h713l50 -175h-815zM637 1636l-262 332h152l248 -222h-92l248 222h151l-262 -332h-183z" />
    <glyph glyph-name="uni01CE" unicode="&#x1ce;" horiz-adv-x="1173" 
d="M451 -22q-109 0 -181 39t-108.5 105t-36.5 147q0 78 31.5 134t117 102.5t249.5 95.5q87 26 140 47t78 51t25 81q0 43 -15 76t-55 51.5t-117 18.5q-93 0 -137.5 -20.5t-58 -55t-13.5 -76.5v-46h-206v43q0 157 104.5 236t316.5 79q147 0 233.5 -45t124 -126t37.5 -191v-443
q0 -80 20.5 -103.5t82.5 -23.5l-18 -162h-44q-108 0 -160 38t-78 110q-25 -37 -68 -74.5t-107.5 -62.5t-156.5 -25zM497 131q49 0 104 20.5t100.5 56t64.5 81.5v276q-24 -22 -80 -54.5t-146 -59.5q-112 -35 -159.5 -73t-47.5 -100q0 -75 40.5 -111t123.5 -36zM484 1242
l-262 348h152l248 -238h-92l248 238h151l-262 -348h-183z" />
    <glyph glyph-name="uni01CF" unicode="&#x1cf;" horiz-adv-x="1137" 
d="M179 174h274v1109h-274v173h779v-173h-272v-1109h272v-174h-779v174zM477 1636l-262 332h152l248 -222h-92l248 222h151l-262 -332h-183z" />
    <glyph glyph-name="uni01D0" unicode="&#x1d0;" horiz-adv-x="539" 
d="M189 1238l-223 349h152l208 -239h-91l207 239h152l-223 -349h-182zM165 1065h216v-1065h-216v1065z" />
    <glyph glyph-name="uni01D1" unicode="&#x1d1;" horiz-adv-x="1566" 
d="M793 -23q-187 0 -307.5 38t-187.5 107t-94 163t-27 206v457q0 114 26.5 210.5t93.5 168.5t187.5 112t308.5 40q180 0 296.5 -42t181.5 -116.5t91.5 -173t26.5 -212.5v-429q0 -111 -26.5 -207t-92 -168.5t-182 -113t-295.5 -40.5zM793 162q123 0 203.5 25t119.5 89t39 183
v527q0 119 -39.5 186t-120 94t-202.5 27t-207 -27t-130 -93.5t-45 -186.5v-527q0 -119 44.5 -183t129.5 -89t208 -25zM692 1636l-262 332h152l248 -222h-92l248 222h151l-262 -332h-183z" />
    <glyph glyph-name="uni01D2" unicode="&#x1d2;" horiz-adv-x="1176" 
d="M588 -22q-162 0 -260.5 43t-143 119.5t-44.5 177.5v426q0 102 47.5 179t146.5 120t254 43q154 0 253 -43t147 -120t48 -179v-426q0 -100 -44 -177t-142 -120t-262 -43zM588 137q102 0 167 37t65 130v455q0 92 -64 129.5t-168 37.5t-168 -37.5t-64 -129.5v-455
q0 -93 63 -130t169 -37zM496 1242l-262 348h152l248 -238h-92l248 238h151l-262 -348h-183z" />
    <glyph glyph-name="uni01D3" unicode="&#x1d3;" horiz-adv-x="1550" 
d="M785 -23q-181 0 -297.5 38t-181 106t-89.5 157.5t-25 192.5v985h234v-1003q0 -121 47.5 -183.5t129 -85t182.5 -22.5q102 0 178.5 22.5t118.5 85t42 183.5v1003h234v-981q0 -101 -24.5 -191.5t-87 -159.5t-174.5 -108t-287 -39zM684 1636l-262 332h152l248 -222h-92
l248 222h151l-262 -332h-183z" />
    <glyph glyph-name="uni01D4" unicode="&#x1d4;" horiz-adv-x="1233" 
d="M522 -22q-121 0 -199.5 42t-116.5 113t-38 157v775h216v-761q0 -53 26.5 -89t73 -54.5t103.5 -18.5q78 0 135 24.5t87.5 65.5t30.5 91v742h216v-1065h-198l-16 128q-37 -70 -121 -110t-199 -40zM522 1242l-262 348h152l248 -238h-92l248 238h151l-262 -348h-183z" />
    <glyph glyph-name="uni01D5" unicode="&#x1d5;" horiz-adv-x="1550" 
d="M785 -23q-181 0 -297.5 38t-181 106t-89.5 157.5t-25 192.5v985h234v-1003q0 -121 47.5 -183.5t129 -85t182.5 -22.5q102 0 178.5 22.5t118.5 85t42 183.5v1003h234v-981q0 -101 -24.5 -191.5t-87 -159.5t-174.5 -108t-287 -39zM852 1627v199h225v-199h-225zM473 1627
v199h225v-199h-225zM493 1990v159h564v-159h-564z" />
    <glyph glyph-name="uni01D6" unicode="&#x1d6;" horiz-adv-x="1233" 
d="M522 -22q-121 0 -199.5 42t-116.5 113t-38 157v775h216v-761q0 -53 26.5 -89t73 -54.5t103.5 -18.5q78 0 135 24.5t87.5 65.5t30.5 91v742h216v-1065h-198l-16 128q-37 -70 -121 -110t-199 -40zM689 1231v199h225v-199h-225zM310 1231v199h225v-199h-225zM347 1600v159
h530v-159h-530z" />
    <glyph glyph-name="uni01D7" unicode="&#x1d7;" horiz-adv-x="1550" 
d="M785 -23q-181 0 -297.5 38t-181 106t-89.5 157.5t-25 192.5v985h234v-1003q0 -121 47.5 -183.5t129 -85t182.5 -22.5q102 0 178.5 22.5t118.5 85t42 183.5v1003h234v-981q0 -101 -24.5 -191.5t-87 -159.5t-174.5 -108t-287 -39zM852 1627v199h225v-199h-225zM473 1627
v199h225v-199h-225zM635 1976l164 355h256l-268 -355h-152z" />
    <glyph glyph-name="uni01D8" unicode="&#x1d8;" horiz-adv-x="1233" 
d="M522 -22q-121 0 -199.5 42t-116.5 113t-38 157v775h216v-761q0 -53 26.5 -89t73 -54.5t103.5 -18.5q78 0 135 24.5t87.5 65.5t30.5 91v742h216v-1065h-198l-16 128q-37 -70 -121 -110t-199 -40zM691 1229v199h225v-199h-225zM312 1229v199h225v-199h-225zM491 1555
l130 355h240l-235 -355h-135z" />
    <glyph glyph-name="uni01D9" unicode="&#x1d9;" horiz-adv-x="1550" 
d="M785 -23q-181 0 -297.5 38t-181 106t-89.5 157.5t-25 192.5v985h234v-1003q0 -121 47.5 -183.5t129 -85t182.5 -22.5q102 0 178.5 22.5t118.5 85t42 183.5v1003h234v-981q0 -101 -24.5 -191.5t-87 -159.5t-174.5 -108t-287 -39zM852 1627v199h225v-199h-225zM473 1627
v199h225v-199h-225zM684 1972l-262 332h152l248 -222h-92l248 222h151l-262 -332h-183z" />
    <glyph glyph-name="uni01DA" unicode="&#x1da;" horiz-adv-x="1233" 
d="M522 -22q-121 0 -199.5 42t-116.5 113t-38 157v775h216v-761q0 -53 26.5 -89t73 -54.5t103.5 -18.5q78 0 135 24.5t87.5 65.5t30.5 91v742h216v-1065h-198l-16 128q-37 -70 -121 -110t-199 -40zM689 1231v199h225v-199h-225zM310 1231v199h225v-199h-225zM521 1567
l-262 348h152l248 -238h-92l248 238h151l-262 -348h-183z" />
    <glyph glyph-name="uni01DB" unicode="&#x1db;" horiz-adv-x="1550" 
d="M785 -23q-181 0 -297.5 38t-181 106t-89.5 157.5t-25 192.5v985h234v-1003q0 -121 47.5 -183.5t129 -85t182.5 -22.5q102 0 178.5 22.5t118.5 85t42 183.5v1003h234v-981q0 -101 -24.5 -191.5t-87 -159.5t-174.5 -108t-287 -39zM852 1627v199h225v-199h-225zM473 1627
v199h225v-199h-225zM763 1976l-268 355h256l164 -355h-152z" />
    <glyph glyph-name="uni01DC" unicode="&#x1dc;" horiz-adv-x="1233" 
d="M522 -22q-121 0 -199.5 42t-116.5 113t-38 157v775h216v-761q0 -53 26.5 -89t73 -54.5t103.5 -18.5q78 0 135 24.5t87.5 65.5t30.5 91v742h216v-1065h-198l-16 128q-37 -70 -121 -110t-199 -40zM691 1230v199h225v-199h-225zM312 1230v199h225v-199h-225zM602 1553
l-235 355h240l130 -355h-135z" />
    <glyph glyph-name="uni01DD" unicode="&#x1dd;" horiz-adv-x="1142" 
d="M560 -21q-228 0 -331.5 88.5t-103.5 243.5v255h661v157q0 118 -50.5 161.5t-183.5 43.5q-84 0 -133 -9t-71 -43t-27 -109h-195q9 127 53 196.5t135 96.5t240 27t248.5 -40t149.5 -125t50 -219v-385q0 -155 -110.5 -247t-331.5 -92zM557 138q103 0 166 34.5t63 128.5v125
h-454v-139q0 -63 28.5 -94.5t79.5 -43t117 -11.5z" />
    <glyph glyph-name="uni01DE" unicode="&#x1de;" horiz-adv-x="1456" 
d="M81 0l521 1456h249l524 -1456h-241l-416 1272l29 -1l-424 -1271h-242zM321 282l52 175h713l50 -175h-815zM805 1640v199h225v-199h-225zM426 1640v199h225v-199h-225zM446 1987v159h564v-159h-564z" />
    <glyph glyph-name="uni01DF" unicode="&#x1df;" horiz-adv-x="1173" 
d="M451 -22q-109 0 -181 39t-108.5 105t-36.5 147q0 78 31.5 134t117 102.5t249.5 95.5q87 26 140 47t78 51t25 81q0 43 -15 76t-55 51.5t-117 18.5q-93 0 -137.5 -20.5t-58 -55t-13.5 -76.5v-46h-206v43q0 157 104.5 236t316.5 79q147 0 233.5 -45t124 -126t37.5 -191v-443
q0 -80 20.5 -103.5t82.5 -23.5l-18 -162h-44q-108 0 -160 38t-78 110q-25 -37 -68 -74.5t-107.5 -62.5t-156.5 -25zM497 131q49 0 104 20.5t100.5 56t64.5 81.5v276q-24 -22 -80 -54.5t-146 -59.5q-112 -35 -159.5 -73t-47.5 -100q0 -75 40.5 -111t123.5 -36zM658 1238v199
h225v-199h-225zM279 1238v199h225v-199h-225zM316 1582v159h530v-159h-530z" />
    <glyph glyph-name="uni01E0" unicode="&#x1e0;" horiz-adv-x="1456" 
d="M81 0l521 1456h249l524 -1456h-241l-416 1272l29 -1l-424 -1271h-242zM321 282l52 175h713l50 -175h-815zM621 1632v227h214v-227h-214zM446 1987v159h564v-159h-564z" />
    <glyph glyph-name="uni01E1" unicode="&#x1e1;" horiz-adv-x="1173" 
d="M451 -22q-109 0 -181 39t-108.5 105t-36.5 147q0 78 31.5 134t117 102.5t249.5 95.5q87 26 140 47t78 51t25 81q0 43 -15 76t-55 51.5t-117 18.5q-93 0 -137.5 -20.5t-58 -55t-13.5 -76.5v-46h-206v43q0 157 104.5 236t316.5 79q147 0 233.5 -45t124 -126t37.5 -191v-443
q0 -80 20.5 -103.5t82.5 -23.5l-18 -162h-44q-108 0 -160 38t-78 110q-25 -37 -68 -74.5t-107.5 -62.5t-156.5 -25zM497 131q49 0 104 20.5t100.5 56t64.5 81.5v276q-24 -22 -80 -54.5t-146 -59.5q-112 -35 -159.5 -73t-47.5 -100q0 -75 40.5 -111t123.5 -36zM471 1231v227
h220v-227h-220zM316 1582v159h530v-159h-530z" />
    <glyph glyph-name="uni01E2" unicode="&#x1e2;" horiz-adv-x="1735" 
d="M331 473l43 175h506v632h-206l-342 -1280l-239 2l415 1454h1092v-176h-499v-451h435v-171h-435v-482h508v-176h-729v473h-549zM731 1684v159h564v-159h-564z" />
    <glyph glyph-name="uni01E3" unicode="&#x1e3;" horiz-adv-x="1739" 
d="M453 -21q-106 0 -179 40t-110.5 107.5t-38.5 151.5q-1 54 10.5 102t48.5 89t114.5 74.5t210.5 58.5q110 21 165.5 35.5t75 41.5t19.5 85q0 70 -38 117.5t-149 47.5q-94 0 -139.5 -26t-59.5 -67.5t-14 -89.5v-28h-206v28q0 159 104.5 249.5t316.5 90.5q103 0 186.5 -33.5
t113.5 -104.5q49 72 126.5 105t183.5 33q146 0 239 -40t137 -114.5t44 -177.5v-242h-628v-186q0 -100 51 -145t152 -45q76 0 123.5 11t71 52.5t28.5 130.5h197q-7 -138 -51.5 -214.5t-134.5 -107t-235 -30.5q-149 0 -225.5 56.5t-107.5 150.5l42 -2q-51 -58 -109.5 -104.5
t-138.5 -73t-196 -26.5zM506 128q50 0 104 16.5t97.5 48t62.5 77.5v277q-4 -10 -27.5 -22t-74.5 -25.5t-138 -31.5q-116 -24 -157 -71.5t-41 -110.5q1 -80 49 -119t125 -39zM986 640h429v134q0 93 -60 123.5t-160 30.5q-102 0 -155.5 -37t-53.5 -131v-120zM629 1315v159h530
v-159h-530z" />
    <glyph glyph-name="uni01E4" unicode="&#x1e4;" horiz-adv-x="1573" 
d="M796 -23q-186 0 -307 37.5t-188.5 105.5t-95.5 161t-28 204v467q0 114 27.5 210.5t95 167.5t188.5 110t308 39q181 0 294 -34t173.5 -95.5t83 -143.5t22.5 -179v-22l-220 -18v35q0 107 -31 166t-108 82t-214 23q-121 0 -207 -26t-132 -92t-46 -186v-534
q0 -119 45.5 -182.5t131.5 -87t208 -23.5q124 0 203.5 23.5t118 87t38.5 182.5v131h-328v163h552v-749h-126l-32 221q-8 -46 -34 -89t-75.5 -78.5t-127 -56t-189.5 -20.5zM828 483h681v-159h-681v159z" />
    <glyph glyph-name="uni01E5" unicode="&#x1e5;" horiz-adv-x="1192" 
d="M573 -426q-104 0 -188.5 11t-142.5 35l46 155q54 -17 130 -28t146 -11q130 0 188 55.5t58 171.5v166q-30 -25 -77.5 -40t-97 -22t-87.5 -7q-200 0 -304 87.5t-104 249.5v339q0 102 41.5 181t131 124t231.5 45q56 0 113 -15.5t102.5 -39t66.5 -49.5l8 83h192v-1059
q0 -127 -43.5 -224.5t-142.5 -152.5t-267 -55zM582 216q93 0 148.5 25.5t79.5 44.5v518q0 53 -57.5 87.5t-171.5 34.5q-105 0 -165 -41.5t-60 -133.5v-376q0 -91 64.5 -125t161.5 -34zM532 -12h630v-160h-630v160z" />
    <glyph glyph-name="Gcaron" unicode="&#x1e6;" horiz-adv-x="1573" 
d="M796 -23q-186 0 -307 37.5t-188.5 105.5t-95.5 161t-28 204v467q0 114 27.5 210.5t95 167.5t188.5 110t308 39q181 0 294 -34t173.5 -95.5t83 -143.5t22.5 -179v-22l-220 -18v35q0 107 -31 166t-108 82t-214 23q-121 0 -207 -26t-132 -92t-46 -186v-534
q0 -119 45.5 -182.5t131.5 -87t208 -23.5q124 0 203.5 23.5t118 87t38.5 182.5v124h-328v163h552v-742h-126l-32 221q-8 -46 -34 -89t-75.5 -78.5t-127 -56t-189.5 -20.5zM702 1636l-262 332h152l248 -222h-92l248 222h151l-262 -332h-183z" />
    <glyph glyph-name="gcaron" unicode="&#x1e7;" horiz-adv-x="1192" 
d="M573 -419q-104 0 -188.5 11t-142.5 34l46 156q54 -18 130 -28.5t146 -10.5q130 0 188 55.5t58 170.5v138q-30 -25 -77.5 -40.5t-97 -22.5t-87.5 -7q-200 0 -304 87.5t-104 250.5v361q0 102 41.5 181t131 124t231.5 45q56 0 113 -15.5t102.5 -39t66.5 -49.5l8 83h192
v-1052q0 -127 -43.5 -224.5t-142.5 -152.5t-267 -55zM582 194q93 0 148.5 25t79.5 44v541q0 53 -57.5 87.5t-171.5 34.5q-105 0 -165 -41.5t-60 -133.5v-399q0 -90 64.5 -124t161.5 -34zM479 1242l-262 348h152l248 -238h-92l248 238h151l-262 -348h-183z" />
    <glyph glyph-name="uni01E8" unicode="&#x1e8;" horiz-adv-x="1428" 
d="M710 706l-43 -3l-225 -264v-439h-233v1456h233v-765l647 765h255zM605 728l163 130l607 -858h-260zM656 1636l-262 332h152l248 -222h-92l248 222h151l-262 -332h-183z" />
    <glyph glyph-name="uni01E9" unicode="&#x1e9;" horiz-adv-x="1163" 
d="M178 1509h216v-959l480 515h240l-422 -465l457 -600h-244l-365 494l-146 -147v-347h-216v1509zM191 1633l-262 348h152l248 -238h-92l248 238h151l-262 -348h-183z" />
    <glyph glyph-name="uni01EA" unicode="&#x1ea;" horiz-adv-x="1566" 
d="M793 -23q-187 0 -307.5 38t-187.5 107t-94 163t-27 206v457q0 114 26.5 210.5t93.5 168.5t187.5 112t308.5 40q180 0 296.5 -42t181.5 -116.5t91.5 -173t26.5 -212.5v-429q0 -111 -26.5 -207t-92 -168.5t-182 -113t-295.5 -40.5zM793 162q123 0 203.5 25t119.5 89t39 183
v527q0 119 -39.5 186t-120 94t-202.5 27t-207 -27t-130 -93.5t-45 -186.5v-527q0 -119 44.5 -183t129.5 -89t208 -25zM1007 -454q-123 0 -186.5 51t-63.5 150q0 67 53 145.5t135 127.5l117 -10q-60 -51 -98 -105.5t-38 -108.5q0 -50 27 -78t84 -28h51l-12 -144h-69z" />
    <glyph glyph-name="uni01EB" unicode="&#x1eb;" horiz-adv-x="1176" 
d="M588 -22q-162 0 -260.5 43t-143 119.5t-44.5 177.5v426q0 102 47.5 179t146.5 120t254 43q154 0 253 -43t147 -120t48 -179v-426q0 -100 -44 -177t-142 -120t-262 -43zM588 137q102 0 167 37t65 130v455q0 92 -64 129.5t-168 37.5t-168 -37.5t-64 -129.5v-455
q0 -93 63 -130t169 -37zM730 -464q-123 0 -186.5 51t-63.5 150q0 67 53 145.5t135 127.5l117 -10q-60 -51 -98 -105.5t-38 -108.5q0 -50 27 -78t84 -28h51l-12 -144h-69z" />
    <glyph glyph-name="uni01EC" unicode="&#x1ec;" horiz-adv-x="1566" 
d="M793 -23q-187 0 -307.5 38t-187.5 107t-94 163t-27 206v457q0 114 26.5 210.5t93.5 168.5t187.5 112t308.5 40q180 0 296.5 -42t181.5 -116.5t91.5 -173t26.5 -212.5v-429q0 -111 -26.5 -207t-92 -168.5t-182 -113t-295.5 -40.5zM793 162q123 0 203.5 25t119.5 89t39 183
v527q0 119 -39.5 186t-120 94t-202.5 27t-207 -27t-130 -93.5t-45 -186.5v-527q0 -119 44.5 -183t129.5 -89t208 -25zM1007 -454q-123 0 -186.5 51t-63.5 150q0 67 53 145.5t135 127.5l117 -10q-60 -51 -98 -105.5t-38 -108.5q0 -50 27 -78t84 -28h51l-12 -144h-69z
M501 1684v159h564v-159h-564z" />
    <glyph glyph-name="uni01ED" unicode="&#x1ed;" horiz-adv-x="1176" 
d="M588 -22q-162 0 -260.5 43t-143 119.5t-44.5 177.5v426q0 102 47.5 179t146.5 120t254 43q154 0 253 -43t147 -120t48 -179v-426q0 -100 -44 -177t-142 -120t-262 -43zM588 137q102 0 167 37t65 130v455q0 92 -64 129.5t-168 37.5t-168 -37.5t-64 -129.5v-455
q0 -93 63 -130t169 -37zM730 -464q-123 0 -186.5 51t-63.5 150q0 67 53 145.5t135 127.5l117 -10q-60 -51 -98 -105.5t-38 -108.5q0 -50 27 -78t84 -28h51l-12 -144h-69zM322 1315v159h530v-159h-530z" />
    <glyph glyph-name="uni01EE" unicode="&#x1ee;" horiz-adv-x="1314" 
d="M656 -423q-190 0 -305.5 59.5t-172 187t-69.5 333.5h217q6 -158 43.5 -244.5t110.5 -119.5t186 -33q156 0 222.5 88t66.5 273q0 134 -29.5 218.5t-118.5 125.5t-266 41v180q226 0 368 -66.5t209 -193t67 -308.5q0 -168 -58.5 -289.5t-175.5 -186.5t-295 -65zM703 556
l-162 130l418 620l5 -25h-783v175h984v-203zM587 1636l-262 332h152l248 -222h-92l248 222h151l-262 -332h-183z" />
    <glyph glyph-name="uni01EF" unicode="&#x1ef;" horiz-adv-x="1093" 
d="M527 -413q-157 0 -253 46.5t-143.5 147t-59.5 262.5h200q6 -111 33.5 -170t83.5 -81t147 -22q122 0 176 65t54 199q0 144 -56.5 210t-214.5 66h-80v165l308 475l14 -38h-624v153h819v-138l-340 -528l-24 76q133 0 222 -51t133.5 -150t44.5 -243q0 -142 -49 -241
t-146.5 -151t-244.5 -52zM425 1242l-262 348h152l248 -238h-92l248 238h151l-262 -348h-183z" />
    <glyph glyph-name="uni01F0" unicode="&#x1f0;" horiz-adv-x="618" 
d="M3 -187h34q68 0 108 17.5t58 58.5t18 112v1064h216v-1061q0 -140 -37.5 -218t-113 -110t-188.5 -32h-78zM237 1242l-262 348h152l248 -238h-92l248 238h151l-262 -348h-183z" />
    <glyph glyph-name="uni01F1" unicode="&#x1f1;" horiz-adv-x="2749" 
d="M209 0v1456h596q205 0 324.5 -66t170.5 -178t51 -252v-469q0 -153 -56.5 -263t-176.5 -169t-312 -59h-597zM442 177h342q105 0 179.5 23.5t114.5 86t40 178.5v516q0 116 -40.5 180.5t-115.5 90.5t-178 26h-342v-1101zM1688 159l661 1114h-631v183h893v-160l-660 -1116
h673v-180h-936v159z" />
    <glyph glyph-name="uni01F2" unicode="&#x1f2;" horiz-adv-x="2467" 
d="M209 0v1456h596q205 0 324.5 -66t170.5 -178t51 -252v-469q0 -153 -56.5 -263t-176.5 -169t-312 -59h-597zM442 177h342q105 0 179.5 23.5t114.5 86t40 178.5v516q0 116 -40.5 180.5t-115.5 90.5t-178 26h-342v-1101zM1654 140l498 810l22 -38h-505v153h693v-138
l-501 -814l-22 40h527v-153h-712v140z" />
    <glyph glyph-name="uni01F3" unicode="&#x1f3;" horiz-adv-x="2141" 
d="M140 331v410q0 156 106 250.5t338 94.5q49 0 112 -11t111 -29v462h216v-1508h-146l-31 68q-48 -37 -124.5 -63.5t-159.5 -26.5q-149 0 -242.5 45t-136.5 124.5t-43 183.5zM807 196v689q-37 17 -94 29t-120 12q-105 0 -171 -38t-66 -131v-436q0 -94 63 -137.5t162 -43.5
q72 0 133.5 18.5t92.5 37.5zM1327 140l498 810l22 -38h-505v153h693v-138l-501 -814l-22 40h527v-153h-712v140z" />
    <glyph glyph-name="uni01F4" unicode="&#x1f4;" horiz-adv-x="1573" 
d="M796 -23q-186 0 -307 37.5t-188.5 105.5t-95.5 161t-28 204v467q0 114 27.5 210.5t95 167.5t188.5 110t308 39q181 0 294 -34t173.5 -95.5t83 -143.5t22.5 -179v-22l-220 -18v35q0 107 -31 166t-108 82t-214 23q-121 0 -207 -26t-132 -92t-46 -186v-534
q0 -119 45.5 -182.5t131.5 -87t208 -23.5q124 0 203.5 23.5t118 87t38.5 182.5v124h-328v163h552v-742h-126l-32 221q-8 -46 -34 -89t-75.5 -78.5t-127 -56t-189.5 -20.5zM654 1640l164 355h256l-268 -355h-152z" />
    <glyph glyph-name="uni01F5" unicode="&#x1f5;" horiz-adv-x="1192" 
d="M573 -419q-104 0 -188.5 11t-142.5 34l46 156q54 -18 130 -28.5t146 -10.5q130 0 188 55.5t58 170.5v138q-30 -25 -77.5 -40.5t-97 -22.5t-87.5 -7q-200 0 -304 87.5t-104 250.5v361q0 102 41.5 181t131 124t231.5 45q56 0 113 -15.5t102.5 -39t66.5 -49.5l8 83h192
v-1052q0 -127 -43.5 -224.5t-142.5 -152.5t-267 -55zM582 194q93 0 148.5 25t79.5 44v541q0 53 -57.5 87.5t-171.5 34.5q-105 0 -165 -41.5t-60 -133.5v-399q0 -90 64.5 -124t161.5 -34zM448 1242l130 355h240l-235 -355h-135z" />
    <glyph glyph-name="uni01F8" unicode="&#x1f8;" horiz-adv-x="1607" 
d="M209 1456h176l834 -1145l-26 -8v1153h206v-1456h-194l-816 1104l27 9v-1113h-207v1456zM792 1607l-268 355h256l164 -355h-152z" />
    <glyph glyph-name="uni01F9" unicode="&#x1f9;" horiz-adv-x="1235" 
d="M177 1065h216v-101q52 54 128 88t191 34q128 0 206 -43t113.5 -115t35.5 -158v-770h-216v772q0 55 -28.5 87.5t-76 47.5t-106.5 15q-77 0 -132.5 -22t-85 -61t-29.5 -91v-748h-216v1065zM633 1242l-235 355h240l130 -355h-135z" />
    <glyph glyph-name="Aringacute" unicode="&#x1fa;" horiz-adv-x="1456" 
d="M81 0l521 1456h249l524 -1456h-241l-416 1272l29 -1l-424 -1271h-242zM321 282l52 175h713l50 -175h-815zM728 1541q-113 0 -179.5 61t-66.5 173t66.5 172t179.5 60q112 0 179 -60t67 -172t-66.5 -173t-179.5 -61zM728 1663q40 0 72.5 23t32.5 88t-32.5 89.5t-73.5 24.5
t-72.5 -23.5t-31.5 -88.5q0 -66 31.5 -89.5t73.5 -23.5zM623 1899l164 355h256l-268 -355h-152z" />
    <glyph glyph-name="aringacute" unicode="&#x1fb;" horiz-adv-x="1173" 
d="M451 -22q-109 0 -181 39t-108.5 105t-36.5 147q0 78 31.5 134t117 102.5t249.5 95.5q87 26 140 47t78 51t25 81q0 43 -15 76t-55 51.5t-117 18.5q-93 0 -137.5 -20.5t-58 -55t-13.5 -76.5v-46h-206v43q0 157 104.5 236t316.5 79q147 0 233.5 -45t124 -126t37.5 -191v-443
q0 -80 20.5 -103.5t82.5 -23.5l-18 -162h-44q-108 0 -160 38t-78 110q-25 -37 -68 -74.5t-107.5 -62.5t-156.5 -25zM497 131q49 0 104 20.5t100.5 56t64.5 81.5v276q-24 -22 -80 -54.5t-146 -59.5q-112 -35 -159.5 -73t-47.5 -100q0 -75 40.5 -111t123.5 -36zM575 1181
q-113 0 -179.5 60.5t-66.5 173.5q0 111 66.5 171.5t179.5 60.5q112 0 179 -60.5t67 -171.5q0 -113 -66.5 -173.5t-179.5 -60.5zM575 1302q40 0 72.5 23t32.5 89q0 65 -32.5 89t-73.5 24t-72.5 -23t-31.5 -88q0 -67 31.5 -90.5t73.5 -23.5zM505 1550l130 355h240l-235 -355
h-135z" />
    <glyph glyph-name="AEacute" unicode="&#x1fc;" horiz-adv-x="1735" 
d="M331 473l43 175h506v632h-206l-342 -1280l-239 2l415 1454h1092v-176h-499v-451h435v-171h-435v-482h508v-176h-729v473h-549zM873 1640l164 355h256l-268 -355h-152z" />
    <glyph glyph-name="aeacute" unicode="&#x1fd;" horiz-adv-x="1739" 
d="M453 -21q-106 0 -179 40t-110.5 107.5t-38.5 151.5q-1 54 10.5 102t48.5 89t114.5 74.5t210.5 58.5q110 21 165.5 35.5t75 41.5t19.5 85q0 70 -38 117.5t-149 47.5q-94 0 -139.5 -26t-59.5 -67.5t-14 -89.5v-28h-206v28q0 159 104.5 249.5t316.5 90.5q103 0 186.5 -33.5
t113.5 -104.5q49 72 126.5 105t183.5 33q146 0 239 -40t137 -114.5t44 -177.5v-242h-628v-186q0 -100 51 -145t152 -45q76 0 123.5 11t71 52.5t28.5 130.5h197q-7 -138 -51.5 -214.5t-134.5 -107t-235 -30.5q-149 0 -225.5 56.5t-107.5 150.5l42 -2q-51 -58 -109.5 -104.5
t-138.5 -73t-196 -26.5zM506 128q50 0 104 16.5t97.5 48t62.5 77.5v277q-4 -10 -27.5 -22t-74.5 -25.5t-138 -31.5q-116 -24 -157 -71.5t-41 -110.5q1 -80 49 -119t125 -39zM986 640h429v134q0 93 -60 123.5t-160 30.5q-102 0 -155.5 -37t-53.5 -131v-120zM771 1242l130 355
h240l-235 -355h-135z" />
    <glyph glyph-name="Oslashacute" unicode="&#x1fe;" horiz-adv-x="1566" 
d="M392 -157l685 1833l104 -38l-686 -1833zM793 -23q-187 0 -307.5 38t-187.5 107t-94 163t-27 206v457q0 114 26.5 210.5t93.5 168.5t187.5 112t308.5 40q180 0 296.5 -42t181.5 -116.5t91.5 -173t26.5 -212.5v-429q0 -111 -26.5 -207t-92 -168.5t-182 -113t-295.5 -40.5z
M793 162q123 0 203.5 25t119.5 89t39 183v527q0 119 -39.5 186t-120 94t-202.5 27t-207 -27t-130 -93.5t-45 -186.5v-527q0 -119 44.5 -183t129.5 -89t208 -25zM655 1640l164 355h256l-268 -355h-152z" />
    <glyph glyph-name="oslashacute" unicode="&#x1ff;" horiz-adv-x="1176" 
d="M274 -192l537 1455l90 -30l-535 -1455zM588 -22q-162 0 -260.5 43t-143 119.5t-44.5 177.5v426q0 102 47.5 179t146.5 120t254 43q154 0 253 -43t147 -120t48 -179v-426q0 -100 -44 -177t-142 -120t-262 -43zM588 137q102 0 167 37t65 130v455q0 92 -64 129.5t-168 37.5
t-168 -37.5t-64 -129.5v-455q0 -93 63 -130t169 -37zM464 1242l130 355h240l-235 -355h-135z" />
    <glyph glyph-name="uni0200" unicode="&#x200;" horiz-adv-x="1456" 
d="M81 0l521 1456h249l524 -1456h-241l-416 1272l29 -1l-424 -1271h-242zM321 282l52 175h713l50 -175h-815zM829 1604l-140 355h218l42 -355h-120zM542 1604l-140 355h218l42 -355h-120z" />
    <glyph glyph-name="uni0201" unicode="&#x201;" horiz-adv-x="1173" 
d="M451 -22q-109 0 -181 39t-108.5 105t-36.5 147q0 78 31.5 134t117 102.5t249.5 95.5q87 26 140 47t78 51t25 81q0 43 -15 76t-55 51.5t-117 18.5q-93 0 -137.5 -20.5t-58 -55t-13.5 -76.5v-46h-206v43q0 157 104.5 236t316.5 79q147 0 233.5 -45t124 -126t37.5 -191v-443
q0 -80 20.5 -103.5t82.5 -23.5l-18 -162h-44q-108 0 -160 38t-78 110q-25 -37 -68 -74.5t-107.5 -62.5t-156.5 -25zM497 131q49 0 104 20.5t100.5 56t64.5 81.5v276q-24 -22 -80 -54.5t-146 -59.5q-112 -35 -159.5 -73t-47.5 -100q0 -75 40.5 -111t123.5 -36zM678 1242
l-140 355h218l42 -355h-120zM387 1242l-140 355h218l42 -355h-120z" />
    <glyph glyph-name="uni0202" unicode="&#x202;" horiz-adv-x="1456" 
d="M81 0l521 1456h249l524 -1456h-241l-416 1272l29 -1l-424 -1271h-242zM321 282l52 175h713l50 -175h-815zM414 1651q0 157 85.5 234t228.5 77q142 0 228 -77t86 -234h-158q0 65 -37.5 102t-118.5 37q-82 0 -119.5 -37t-37.5 -102h-157z" />
    <glyph glyph-name="uni0203" unicode="&#x203;" horiz-adv-x="1173" 
d="M451 -22q-109 0 -181 39t-108.5 105t-36.5 147q0 78 31.5 134t117 102.5t249.5 95.5q87 26 140 47t78 51t25 81q0 43 -15 76t-55 51.5t-117 18.5q-93 0 -137.5 -20.5t-58 -55t-13.5 -76.5v-46h-206v43q0 157 104.5 236t316.5 79q147 0 233.5 -45t124 -126t37.5 -191v-443
q0 -80 20.5 -103.5t82.5 -23.5l-18 -162h-44q-108 0 -160 38t-78 110q-25 -37 -68 -74.5t-107.5 -62.5t-156.5 -25zM497 131q49 0 104 20.5t100.5 56t64.5 81.5v276q-24 -22 -80 -54.5t-146 -59.5q-112 -35 -159.5 -73t-47.5 -100q0 -75 40.5 -111t123.5 -36zM261 1242
q0 117 40.5 189.5t111.5 106.5t162 34q92 0 162.5 -34t111 -106.5t40.5 -189.5h-148q0 78 -41.5 127.5t-124.5 49.5q-84 0 -125 -49.5t-41 -127.5h-148z" />
    <glyph glyph-name="uni0204" unicode="&#x204;" horiz-adv-x="1268" 
d="M209 1456h924v-175h-692v-448h612v-171h-612v-487h704v-175h-936v1456zM773 1604l-140 355h218l42 -355h-120zM486 1604l-140 355h218l42 -355h-120z" />
    <glyph glyph-name="uni0205" unicode="&#x205;" horiz-adv-x="1142" 
d="M140 361v386q0 155 110 247t332 92q228 0 331.5 -89t103.5 -243v-255h-661v-158q0 -117 50.5 -160.5t183.5 -43.5q85 0 133.5 8.5t70 43t27.5 109.5h194q-8 -128 -52.5 -197t-135 -96t-239.5 -27t-248.5 40t-149.5 124.5t-50 218.5zM810 639v139q0 62 -29 94t-79.5 43
t-117.5 11q-102 0 -165 -34t-63 -128v-125h454zM690 1242l-140 355h218l42 -355h-120zM399 1242l-140 355h218l42 -355h-120z" />
    <glyph glyph-name="uni0206" unicode="&#x206;" horiz-adv-x="1268" 
d="M209 1456h924v-175h-692v-448h612v-171h-612v-487h704v-175h-936v1456zM358 1651q0 157 85.5 234t228.5 77q142 0 228 -77t86 -234h-158q0 65 -37.5 102t-118.5 37q-82 0 -119.5 -37t-37.5 -102h-157z" />
    <glyph glyph-name="uni0207" unicode="&#x207;" horiz-adv-x="1142" 
d="M140 361v386q0 155 110 247t332 92q228 0 331.5 -89t103.5 -243v-255h-661v-158q0 -117 50.5 -160.5t183.5 -43.5q85 0 133.5 8.5t70 43t27.5 109.5h194q-8 -128 -52.5 -197t-135 -96t-239.5 -27t-248.5 40t-149.5 124.5t-50 218.5zM810 639v139q0 62 -29 94t-79.5 43
t-117.5 11q-102 0 -165 -34t-63 -128v-125h454zM273 1242q0 117 40.5 189.5t111.5 106.5t162 34q92 0 162.5 -34t111 -106.5t40.5 -189.5h-148q0 78 -41.5 127.5t-124.5 49.5q-84 0 -125 -49.5t-41 -127.5h-148z" />
    <glyph glyph-name="uni0208" unicode="&#x208;" horiz-adv-x="1137" 
d="M179 174h274v1109h-274v173h779v-173h-272v-1109h272v-174h-779v174zM670 1604l-140 355h218l42 -355h-120zM383 1604l-140 355h218l42 -355h-120z" />
    <glyph glyph-name="uni0209" unicode="&#x209;" horiz-adv-x="546" 
d="M165 1065h216v-1065h-216v1065zM376 1242l-140 355h218l42 -355h-120zM85 1242l-140 355h218l42 -355h-120z" />
    <glyph glyph-name="uni020A" unicode="&#x20a;" horiz-adv-x="1137" 
d="M179 174h274v1109h-274v173h779v-173h-272v-1109h272v-174h-779v174zM255 1651q0 157 85.5 234t228.5 77q142 0 228 -77t86 -234h-158q0 65 -37.5 102t-118.5 37q-82 0 -119.5 -37t-37.5 -102h-157z" />
    <glyph glyph-name="uni020B" unicode="&#x20b;" horiz-adv-x="546" 
d="M165 1065h216v-1065h-216v1065zM-41 1242q0 117 40.5 189.5t111.5 106.5t162 34q92 0 162.5 -34t111 -106.5t40.5 -189.5h-148q0 78 -41.5 127.5t-124.5 49.5q-84 0 -125 -49.5t-41 -127.5h-148z" />
    <glyph glyph-name="uni020C" unicode="&#x20c;" horiz-adv-x="1566" 
d="M793 -23q-187 0 -307.5 38t-187.5 107t-94 163t-27 206v457q0 114 26.5 210.5t93.5 168.5t187.5 112t308.5 40q180 0 296.5 -42t181.5 -116.5t91.5 -173t26.5 -212.5v-429q0 -111 -26.5 -207t-92 -168.5t-182 -113t-295.5 -40.5zM793 162q123 0 203.5 25t119.5 89t39 183
v527q0 119 -39.5 186t-120 94t-202.5 27t-207 -27t-130 -93.5t-45 -186.5v-527q0 -119 44.5 -183t129.5 -89t208 -25zM884 1604l-140 355h218l42 -355h-120zM597 1604l-140 355h218l42 -355h-120z" />
    <glyph glyph-name="uni020D" unicode="&#x20d;" horiz-adv-x="1176" 
d="M588 -22q-162 0 -260.5 43t-143 119.5t-44.5 177.5v426q0 102 47.5 179t146.5 120t254 43q154 0 253 -43t147 -120t48 -179v-426q0 -100 -44 -177t-142 -120t-262 -43zM588 137q102 0 167 37t65 130v455q0 92 -64 129.5t-168 37.5t-168 -37.5t-64 -129.5v-455
q0 -93 63 -130t169 -37zM690 1242l-140 355h218l42 -355h-120zM399 1242l-140 355h218l42 -355h-120z" />
    <glyph glyph-name="uni020E" unicode="&#x20e;" horiz-adv-x="1566" 
d="M793 -23q-187 0 -307.5 38t-187.5 107t-94 163t-27 206v457q0 114 26.5 210.5t93.5 168.5t187.5 112t308.5 40q180 0 296.5 -42t181.5 -116.5t91.5 -173t26.5 -212.5v-429q0 -111 -26.5 -207t-92 -168.5t-182 -113t-295.5 -40.5zM793 162q123 0 203.5 25t119.5 89t39 183
v527q0 119 -39.5 186t-120 94t-202.5 27t-207 -27t-130 -93.5t-45 -186.5v-527q0 -119 44.5 -183t129.5 -89t208 -25zM469 1651q0 157 85.5 234t228.5 77q142 0 228 -77t86 -234h-158q0 65 -37.5 102t-118.5 37q-82 0 -119.5 -37t-37.5 -102h-157z" />
    <glyph glyph-name="uni020F" unicode="&#x20f;" horiz-adv-x="1176" 
d="M588 -22q-162 0 -260.5 43t-143 119.5t-44.5 177.5v426q0 102 47.5 179t146.5 120t254 43q154 0 253 -43t147 -120t48 -179v-426q0 -100 -44 -177t-142 -120t-262 -43zM588 137q102 0 167 37t65 130v455q0 92 -64 129.5t-168 37.5t-168 -37.5t-64 -129.5v-455
q0 -93 63 -130t169 -37zM273 1242q0 117 40.5 189.5t111.5 106.5t162 34q92 0 162.5 -34t111 -106.5t40.5 -189.5h-148q0 78 -41.5 127.5t-124.5 49.5q-84 0 -125 -49.5t-41 -127.5h-148z" />
    <glyph glyph-name="uni0210" unicode="&#x210;" horiz-adv-x="1471" 
d="M209 0v1456h642q147 0 243 -44.5t143.5 -140t47.5 -247.5q0 -109 -23 -185.5t-69 -126.5t-117 -79l300 -633h-241l-277 594h-416v-594h-233zM442 766h406q84 0 128.5 32.5t61.5 87t17 121.5t-11.5 130.5t-51 105t-125.5 41.5h-425v-518zM811 1604l-140 355h218l42 -355
h-120zM524 1604l-140 355h218l42 -355h-120z" />
    <glyph glyph-name="uni0211" unicode="&#x211;" horiz-adv-x="809" 
d="M177 1065h216v-143q24 54 84.5 89t137.5 52t150 17l-6 -184q-63 -1 -126 -14t-116.5 -35t-87 -51t-36.5 -61v-735h-216v1065zM565 1242l-140 355h218l42 -355h-120zM274 1242l-140 355h218l42 -355h-120z" />
    <glyph glyph-name="uni0212" unicode="&#x212;" horiz-adv-x="1471" 
d="M209 0v1456h642q147 0 243 -44.5t143.5 -140t47.5 -247.5q0 -109 -23 -185.5t-69 -126.5t-117 -79l300 -633h-241l-277 594h-416v-594h-233zM442 766h406q84 0 128.5 32.5t61.5 87t17 121.5t-11.5 130.5t-51 105t-125.5 41.5h-425v-518zM396 1651q0 157 85.5 234
t228.5 77q142 0 228 -77t86 -234h-158q0 65 -37.5 102t-118.5 37q-82 0 -119.5 -37t-37.5 -102h-157z" />
    <glyph glyph-name="uni0213" unicode="&#x213;" horiz-adv-x="809" 
d="M177 1065h216v-143q24 54 84.5 89t137.5 52t150 17l-6 -184q-63 -1 -126 -14t-116.5 -35t-87 -51t-36.5 -61v-735h-216v1065zM158 1242q0 117 40.5 189.5t111.5 106.5t162 34q92 0 162.5 -34t111 -106.5t40.5 -189.5h-148q0 78 -41.5 127.5t-124.5 49.5q-84 0 -125 -49.5
t-41 -127.5h-148z" />
    <glyph glyph-name="uni0214" unicode="&#x214;" horiz-adv-x="1550" 
d="M785 -23q-181 0 -297.5 38t-181 106t-89.5 157.5t-25 192.5v985h234v-1003q0 -121 47.5 -183.5t129 -85t182.5 -22.5q102 0 178.5 22.5t118.5 85t42 183.5v1003h234v-981q0 -101 -24.5 -191.5t-87 -159.5t-174.5 -108t-287 -39zM876 1604l-140 355h218l42 -355h-120z
M589 1604l-140 355h218l42 -355h-120z" />
    <glyph glyph-name="uni0215" unicode="&#x215;" horiz-adv-x="1233" 
d="M522 -22q-121 0 -199.5 42t-116.5 113t-38 157v775h216v-761q0 -53 26.5 -89t73 -54.5t103.5 -18.5q78 0 135 24.5t87.5 65.5t30.5 91v742h216v-1065h-198l-16 128q-37 -70 -121 -110t-199 -40zM717 1242l-140 355h218l42 -355h-120zM426 1242l-140 355h218l42 -355h-120
z" />
    <glyph glyph-name="uni0216" unicode="&#x216;" horiz-adv-x="1550" 
d="M785 -23q-181 0 -297.5 38t-181 106t-89.5 157.5t-25 192.5v985h234v-1003q0 -121 47.5 -183.5t129 -85t182.5 -22.5q102 0 178.5 22.5t118.5 85t42 183.5v1003h234v-981q0 -101 -24.5 -191.5t-87 -159.5t-174.5 -108t-287 -39zM461 1651q0 157 85.5 234t228.5 77
q142 0 228 -77t86 -234h-158q0 65 -37.5 102t-118.5 37q-82 0 -119.5 -37t-37.5 -102h-157z" />
    <glyph glyph-name="uni0217" unicode="&#x217;" horiz-adv-x="1233" 
d="M522 -22q-121 0 -199.5 42t-116.5 113t-38 157v775h216v-761q0 -53 26.5 -89t73 -54.5t103.5 -18.5q78 0 135 24.5t87.5 65.5t30.5 91v742h216v-1065h-198l-16 128q-37 -70 -121 -110t-199 -40zM300 1242q0 117 40.5 189.5t111.5 106.5t162 34q92 0 162.5 -34t111 -106.5
t40.5 -189.5h-148q0 78 -41.5 127.5t-124.5 49.5q-84 0 -125 -49.5t-41 -127.5h-148z" />
    <glyph glyph-name="uni0218" unicode="&#x218;" horiz-adv-x="1296" 
d="M690 -23q-158 0 -299.5 35t-254.5 99l81 175q84 -47 209 -85.5t259 -38.5q109 0 166 29.5t78.5 88.5t21.5 149q0 41 -13.5 73.5t-53 60.5t-118.5 53l-317 102q-106 34 -169.5 83.5t-92 121t-28.5 168.5q0 138 65 223.5t177 125t253 39.5q172 0 289.5 -28.5t198.5 -77.5
l-61 -174q-71 36 -168 65t-227 29q-143 0 -221 -38.5t-78 -161.5q0 -69 32 -110.5t131 -73.5l326 -107q148 -49 219 -136t71 -255q0 -130 -49 -228t-154 -152t-273 -54zM642 -594l-98 41q57 55 83 112.5t26 130.5v14.5t-1 14.5l48 -86h-166v246h250v-97q0 -126 -34.5 -217
t-107.5 -159z" />
    <glyph glyph-name="uni0219" unicode="&#x219;" horiz-adv-x="993" 
d="M131 63l49 154q52 -25 140.5 -52.5t187.5 -27.5q108 0 149 42.5t41 107.5q0 57 -17.5 90t-84.5 57l-247 86q-119 41 -165.5 105t-46.5 166q0 141 85.5 218t272.5 77q121 0 215.5 -21.5t152.5 -47.5l-50 -153q-31 15 -80.5 29t-104 23.5t-101.5 9.5q-115 0 -150.5 -31.5
t-35.5 -97.5q0 -44 17.5 -68t67.5 -42l240 -88q90 -32 137.5 -72.5t66 -97t18.5 -139.5q0 -86 -37 -157t-116.5 -113t-206.5 -42q-144 0 -244.5 28.5t-152.5 56.5zM498 -594l-98 41q57 55 83 112.5t26 130.5v14.5t-1 14.5l48 -86h-166v246h250v-97q0 -126 -34.5 -217
t-107.5 -159z" />
    <glyph glyph-name="uni021A" unicode="&#x21a;" horiz-adv-x="1201" 
d="M484 0v1271h-415v185h1063v-185h-416v-1271h-232zM582 -594l-98 41q57 55 83 112.5t26 130.5v14.5t-1 14.5l48 -86h-166v246h250v-97q0 -126 -34.5 -217t-107.5 -159z" />
    <glyph glyph-name="uni021B" unicode="&#x21b;" horiz-adv-x="825" 
d="M240 318v594h-165v153h172l24 333h185v-333h262v-153h-262v-580q0 -103 56 -136t186 -33h31l-16 -172h-44q-150 0 -245 30t-139.5 101.5t-44.5 195.5zM457 -594l-98 41q57 55 83 112.5t26 130.5v14.5t-1 14.5l48 -86h-166v246h250v-97q0 -126 -34.5 -217t-107.5 -159z
" />
    <glyph glyph-name="uni021E" unicode="&#x21e;" horiz-adv-x="1560" 
d="M205 1456h233v-635h684v635h233v-1456h-233v644h-684v-644h-233v1456zM689 1636l-262 332h152l248 -222h-92l248 222h151l-262 -332h-183z" />
    <glyph glyph-name="uni021F" unicode="&#x21f;" horiz-adv-x="1234" 
d="M178 1508h216v-545q43 55 126 89t197 34q121 0 198.5 -40.5t114.5 -109.5t37 -156v-780h-216v774q0 54 -27.5 86.5t-74.5 47t-105 14.5q-78 0 -134 -21.5t-86 -59.5t-30 -90v-751h-216v1508zM568 1633l-262 348h152l248 -238h-92l248 238h151l-262 -348h-183z" />
    <glyph glyph-name="uni0220" unicode="&#x220;" horiz-adv-x="1513" 
d="M205 1456h229v-145l-25 1q44 48 104 85t145 58.5t202 21.5q163 0 261.5 -53t142.5 -141.5t44 -194.5v-1497h-233v1488q0 106 -81.5 159.5t-211.5 53.5q-166 0 -255 -64t-89 -156v-1072h-233v1456z" />
    <glyph glyph-name="uni0222" unicode="&#x222;" horiz-adv-x="1566" 
d="M793 -23q-187 0 -307.5 37.5t-187.5 103.5t-94 153t-27 185v47q0 100 26.5 189t93.5 157.5t187.5 107.5t308.5 39q180 0 296.5 -41t181.5 -112t91.5 -162t26.5 -192v-19q0 -96 -26.5 -185t-92 -158.5t-182 -109.5t-295.5 -40zM793 162q185 0 273.5 55.5t88.5 206.5v117
q0 151 -89.5 210t-272.5 59q-182 0 -282 -58.5t-100 -210.5v-117q0 -151 99 -206.5t283 -55.5zM1155 1259v236h233v-204q0 -92 -26.5 -178.5t-91.5 -154.5t-181.5 -108t-295.5 -40q-187 0 -307.5 37.5t-187.5 103.5t-93.5 153.5t-26.5 186.5v204h233v-236q0 -153 99 -208
t283 -55q185 0 273.5 55t88.5 208z" />
    <glyph glyph-name="uni0223" unicode="&#x223;" horiz-adv-x="1176" 
d="M588 -22q-162 0 -260.5 43t-143 119.5t-44.5 177.5v277q0 152 107.5 235t340.5 83q231 0 339.5 -83t108.5 -235v-277q0 -100 -44 -177t-142 -120t-262 -43zM588 137q102 0 167 37t65 130v305q0 93 -64 130.5t-168 37.5t-168 -37.5t-64 -130.5v-305q0 -93 63 -130t169 -37
zM820 1508h216v-390q0 -101 -44 -172t-142 -108.5t-262 -37.5q-244 0 -346 83t-102 235v390h216v-405q0 -93 63 -133.5t169 -40.5q102 0 167 40.5t65 133.5v405z" />
    <glyph glyph-name="uni0226" unicode="&#x226;" horiz-adv-x="1456" 
d="M81 0l521 1456h249l524 -1456h-241l-416 1272l29 -1l-424 -1271h-242zM321 282l52 175h713l50 -175h-815zM621 1632v227h214v-227h-214z" />
    <glyph glyph-name="uni0227" unicode="&#x227;" horiz-adv-x="1173" 
d="M451 -22q-109 0 -181 39t-108.5 105t-36.5 147q0 78 31.5 134t117 102.5t249.5 95.5q87 26 140 47t78 51t25 81q0 43 -15 76t-55 51.5t-117 18.5q-93 0 -137.5 -20.5t-58 -55t-13.5 -76.5v-46h-206v43q0 157 104.5 236t316.5 79q147 0 233.5 -45t124 -126t37.5 -191v-443
q0 -80 20.5 -103.5t82.5 -23.5l-18 -162h-44q-108 0 -160 38t-78 110q-25 -37 -68 -74.5t-107.5 -62.5t-156.5 -25zM497 131q49 0 104 20.5t100.5 56t64.5 81.5v276q-24 -22 -80 -54.5t-146 -59.5q-112 -35 -159.5 -73t-47.5 -100q0 -75 40.5 -111t123.5 -36zM465 1281v227
h220v-227h-220z" />
    <glyph glyph-name="uni0228" unicode="&#x228;" horiz-adv-x="1268" 
d="M209 1456h924v-175h-692v-448h612v-171h-612v-487h704v-175h-936v1456zM525 -472v116h185q32 0 44 13.5t12 32.5v64q0 20 -14 33t-42 13h-97v230h111v-166l-31 46q118 0 168 -42t50 -130v-37q0 -71 -46 -122t-159 -51h-181z" />
    <glyph glyph-name="uni0229" unicode="&#x229;" horiz-adv-x="1142" 
d="M140 361v386q0 155 110 247t332 92q228 0 331.5 -89t103.5 -243v-255h-661v-158q0 -117 50.5 -160.5t183.5 -43.5q85 0 133.5 8.5t70 43t27.5 109.5h194q-8 -128 -52.5 -197t-135 -96t-239.5 -27t-248.5 40t-149.5 124.5t-50 218.5zM810 639v139q0 62 -29 94t-79.5 43
t-117.5 11q-102 0 -165 -34t-63 -128v-125h454zM441 -472v116h185q32 0 44 13.5t12 32.5v64q0 20 -14 33t-42 13h-97v230h111v-166l-31 46q118 0 168 -42t50 -130v-37q0 -71 -46 -122t-159 -51h-181z" />
    <glyph glyph-name="uni022A" unicode="&#x22a;" horiz-adv-x="1566" 
d="M793 -23q-187 0 -307.5 38t-187.5 107t-94 163t-27 206v457q0 114 26.5 210.5t93.5 168.5t187.5 112t308.5 40q180 0 296.5 -42t181.5 -116.5t91.5 -173t26.5 -212.5v-429q0 -111 -26.5 -207t-92 -168.5t-182 -113t-295.5 -40.5zM793 162q123 0 203.5 25t119.5 89t39 183
v527q0 119 -39.5 186t-120 94t-202.5 27t-207 -27t-130 -93.5t-45 -186.5v-527q0 -119 44.5 -183t129.5 -89t208 -25zM860 1640v199h225v-199h-225zM481 1640v199h225v-199h-225zM501 1987v159h564v-159h-564z" />
    <glyph glyph-name="uni022B" unicode="&#x22b;" horiz-adv-x="1176" 
d="M588 -22q-162 0 -260.5 43t-143 119.5t-44.5 177.5v426q0 102 47.5 179t146.5 120t254 43q154 0 253 -43t147 -120t48 -179v-426q0 -100 -44 -177t-142 -120t-262 -43zM588 137q102 0 167 37t65 130v455q0 92 -64 129.5t-168 37.5t-168 -37.5t-64 -129.5v-455
q0 -93 63 -130t169 -37zM664 1198v199h225v-199h-225zM285 1198v199h225v-199h-225zM322 1517v159h530v-159h-530z" />
    <glyph glyph-name="uni022C" unicode="&#x22c;" horiz-adv-x="1566" 
d="M793 -23q-187 0 -307.5 38t-187.5 107t-94 163t-27 206v457q0 114 26.5 210.5t93.5 168.5t187.5 112t308.5 40q180 0 296.5 -42t181.5 -116.5t91.5 -173t26.5 -212.5v-429q0 -111 -26.5 -207t-92 -168.5t-182 -113t-295.5 -40.5zM793 162q123 0 203.5 25t119.5 89t39 183
v527q0 119 -39.5 186t-120 94t-202.5 27t-207 -27t-130 -93.5t-45 -186.5v-527q0 -119 44.5 -183t129.5 -89t208 -25zM898 1617q-56 0 -92.5 16t-62.5 37t-48.5 37t-50.5 16q-30 0 -49 -22t-19 -69h-109q0 129 53 184t147 55q56 0 92.5 -15.5t62 -36.5t47 -37t49.5 -16
q30 0 50 22t20 69h110q0 -130 -53 -185t-147 -55zM501 2003v159h564v-159h-564z" />
    <glyph glyph-name="uni022D" unicode="&#x22d;" horiz-adv-x="1176" 
d="M588 -22q-162 0 -260.5 43t-143 119.5t-44.5 177.5v426q0 102 47.5 179t146.5 120t254 43q154 0 253 -43t147 -120t48 -179v-426q0 -100 -44 -177t-142 -120t-262 -43zM588 137q102 0 167 37t65 130v455q0 92 -64 129.5t-168 37.5t-168 -37.5t-64 -129.5v-455
q0 -93 63 -130t169 -37zM703 1246q-56 0 -92.5 16t-62.5 37t-48.5 37t-50.5 16q-30 0 -49 -22.5t-19 -68.5h-109q0 129 53 184t147 55q56 0 92.5 -16t62 -37t47 -36.5t49.5 -15.5q30 0 50 22t20 68h110q0 -129 -53 -184t-147 -55zM322 1640v159h530v-159h-530z" />
    <glyph glyph-name="uni022E" unicode="&#x22e;" horiz-adv-x="1566" 
d="M793 -23q-187 0 -307.5 38t-187.5 107t-94 163t-27 206v457q0 114 26.5 210.5t93.5 168.5t187.5 112t308.5 40q180 0 296.5 -42t181.5 -116.5t91.5 -173t26.5 -212.5v-429q0 -111 -26.5 -207t-92 -168.5t-182 -113t-295.5 -40.5zM793 162q123 0 203.5 25t119.5 89t39 183
v527q0 119 -39.5 186t-120 94t-202.5 27t-207 -27t-130 -93.5t-45 -186.5v-527q0 -119 44.5 -183t129.5 -89t208 -25zM676 1632v227h214v-227h-214z" />
    <glyph glyph-name="uni022F" unicode="&#x22f;" horiz-adv-x="1176" 
d="M588 -22q-162 0 -260.5 43t-143 119.5t-44.5 177.5v426q0 102 47.5 179t146.5 120t254 43q154 0 253 -43t147 -120t48 -179v-426q0 -100 -44 -177t-142 -120t-262 -43zM588 137q102 0 167 37t65 130v455q0 92 -64 129.5t-168 37.5t-168 -37.5t-64 -129.5v-455
q0 -93 63 -130t169 -37zM477 1281v227h220v-227h-220z" />
    <glyph glyph-name="uni0230" unicode="&#x230;" horiz-adv-x="1566" 
d="M793 -23q-187 0 -307.5 38t-187.5 107t-94 163t-27 206v457q0 114 26.5 210.5t93.5 168.5t187.5 112t308.5 40q180 0 296.5 -42t181.5 -116.5t91.5 -173t26.5 -212.5v-429q0 -111 -26.5 -207t-92 -168.5t-182 -113t-295.5 -40.5zM793 162q123 0 203.5 25t119.5 89t39 183
v527q0 119 -39.5 186t-120 94t-202.5 27t-207 -27t-130 -93.5t-45 -186.5v-527q0 -119 44.5 -183t129.5 -89t208 -25zM676 1618v227h214v-227h-214zM501 1977v159h564v-159h-564z" />
    <glyph glyph-name="uni0231" unicode="&#x231;" horiz-adv-x="1176" 
d="M588 -22q-162 0 -260.5 43t-143 119.5t-44.5 177.5v426q0 102 47.5 179t146.5 120t254 43q154 0 253 -43t147 -120t48 -179v-426q0 -100 -44 -177t-142 -120t-262 -43zM588 137q102 0 167 37t65 130v455q0 92 -64 129.5t-168 37.5t-168 -37.5t-64 -129.5v-455
q0 -93 63 -130t169 -37zM477 1191v227h220v-227h-220zM322 1525v159h530v-159h-530z" />
    <glyph glyph-name="uni0232" unicode="&#x232;" horiz-adv-x="1313" 
d="M543 568l-511 888h246l404 -719h-44l405 719h238l-505 -888v-568h-233v568zM375 1684v159h564v-159h-564z" />
    <glyph glyph-name="uni0233" unicode="&#x233;" horiz-adv-x="1113" 
d="M181 -432l-6 173q107 5 178.5 55t118.5 167l30 74l8 -80l-448 1108h220l343 -900h-64l286 900h216l-393 -1126q-65 -187 -178.5 -275.5t-310.5 -95.5zM295 1315v159h530v-159h-530z" />
    <glyph glyph-name="uni0237" unicode="&#x237;" horiz-adv-x="618" 
d="M3 -187h34q68 0 108 17.5t58 58.5t18 112v1064h216v-1061q0 -140 -37.5 -218t-113 -110t-188.5 -32h-78z" />
    <glyph glyph-name="uni023A" unicode="&#x23a;" horiz-adv-x="1456" 
d="M402 -190l685 1833l104 -38l-686 -1833zM81 0l521 1456h249l524 -1456h-241l-416 1272l29 -1l-424 -1271h-242zM321 282l52 175h713l50 -175h-815z" />
    <glyph glyph-name="uni023B" unicode="&#x23b;" horiz-adv-x="1467" 
d="M329 -157l685 1833l104 -38l-686 -1833zM767 -23q-186 0 -303 37.5t-179.5 105.5t-86 161t-23.5 204v467q0 114 22.5 210.5t85 167.5t179.5 110t304 39q172 0 281.5 -32.5t168.5 -94.5t82 -150.5t23 -200.5v-15l-225 -22v43q0 122 -31 183.5t-103 82t-196 20.5
q-121 0 -200.5 -26t-118.5 -92t-39 -186v-534q0 -119 40 -182.5t120 -87t202 -23.5t193.5 18t102 76.5t30.5 179.5v32h225v-16q0 -109 -20.5 -196.5t-77.5 -150t-166.5 -95.5t-289.5 -33z" />
    <glyph glyph-name="uni023C" unicode="&#x23c;" horiz-adv-x="1108" 
d="M244 -192l537 1455l90 -30l-535 -1455zM577 -22q-166 0 -261.5 49.5t-135.5 132t-40 178.5v413q0 154 115.5 244.5t316.5 90.5q133 0 228.5 -31.5t146.5 -112t51 -226.5l-205 -18q0 97 -19.5 146t-66 65.5t-128.5 16.5q-110 0 -166.5 -40t-56.5 -139v-421q0 -105 58 -147
t165 -42q86 0 131 14t63 56.5t22 125.5h201q-7 -130 -47.5 -208.5t-129.5 -112.5t-242 -34z" />
    <glyph glyph-name="uni023D" unicode="&#x23d;" horiz-adv-x="1154" 
d="M30 872h676v-159h-676v159zM209 1456h233v-1275h638v-181h-871v1456z" />
    <glyph glyph-name="uni023E" unicode="&#x23e;" horiz-adv-x="1201" 
d="M302 -190l685 1833l104 -38l-686 -1833zM484 0v1271h-415v185h1063v-185h-416v-1271h-232z" />
    <glyph glyph-name="uni0241" unicode="&#x241;" horiz-adv-x="1261" 
d="M528 0v461l262 296q73 82 100 155t27 162q0 60 -22.5 110.5t-81 81.5t-165.5 31q-169 0 -236 -66t-67 -171v-60h-222v46q0 147 51 243t166 143t308 47q153 0 252 -35t155 -92.5t79 -127t23 -139.5q0 -143 -63 -251.5t-184 -227.5l-197 -195l31 78v-489h-216z" />
    <glyph glyph-name="uni0242" unicode="&#x242;" horiz-adv-x="1215" 
d="M475 0v161l262 242q81 74 104 140.5t23 150.5q0 62 -17 109t-64.5 74t-138.5 27q-105 0 -161 -27t-77 -76t-21 -117v-64h-222v46q0 110 24 189.5t79.5 130.5t148 75.5t229.5 24.5q141 0 230.5 -33.5t139.5 -88.5t69.5 -123t19.5 -136q0 -138 -55 -247t-191 -210
l-197 -150l31 75v-173h-216z" />
    <glyph glyph-name="uni0243" unicode="&#x243;" horiz-adv-x="1432" 
d="M30 516h676v-159h-676v159zM209 0v1456h538q203 0 309.5 -45t146 -133t39.5 -216q0 -109 -47 -185t-175 -103l2 15q104 -12 167 -61t91.5 -127t28.5 -178q0 -220 -120.5 -321.5t-387.5 -101.5h-592zM442 169h330q114 0 181 21t96.5 79.5t29.5 170.5q0 69 -20 128
t-76.5 94.5t-167.5 35.5h-373v-529zM442 849h350q90 0 136 25.5t62.5 72.5t16.5 113q0 96 -24 144.5t-86 66t-177 17.5h-278v-439z" />
    <glyph glyph-name="uni0244" unicode="&#x244;" horiz-adv-x="1550" 
d="M76 930h1398v-157h-1398v157zM785 -23q-181 0 -297.5 38t-181 106t-89.5 157.5t-25 192.5v985h234v-1003q0 -121 47.5 -183.5t129 -85t182.5 -22.5q102 0 178.5 22.5t118.5 85t42 183.5v1003h234v-981q0 -101 -24.5 -191.5t-87 -159.5t-174.5 -108t-287 -39z" />
    <glyph glyph-name="uni0245" unicode="&#x245;" horiz-adv-x="1419" 
d="M1348 0h-244l-396 1166l-392 -1166h-245l520 1456h238z" />
    <glyph glyph-name="uni0246" unicode="&#x246;" horiz-adv-x="1308" 
d="M209 1456h964v-175h-732v-448h652v-171h-652v-487h744v-175h-976v1456zM442 -188l522 1885l107 -28l-523 -1886z" />
    <glyph glyph-name="uni0247" unicode="&#x247;" horiz-adv-x="1142" 
d="M247 -192l537 1455l91 -30l-535 -1455zM140 361v386q0 155 110 247t332 92q228 0 331.5 -89t103.5 -243v-255h-661v-158q0 -117 50.5 -160.5t183.5 -43.5q85 0 133.5 8.5t70 43t27.5 109.5h194q-8 -128 -52.5 -197t-135 -96t-239.5 -27t-248.5 40t-149.5 124.5t-50 218.5
zM810 639v139q0 62 -29 94t-79.5 43t-117.5 11q-102 0 -165 -34t-63 -128v-125h454z" />
    <glyph glyph-name="uni0248" unicode="&#x248;" horiz-adv-x="1211" 
d="M1163 850v-160h-700v160h700zM91 69l60 177q32 -15 90.5 -33.5t128.5 -31.5t136 -13q142 0 203.5 72t61.5 197v834h-538v185h771v-1028q0 -208 -121.5 -328t-366.5 -120q-80 0 -161.5 13.5t-150.5 34t-113 41.5z" />
    <glyph glyph-name="uni0249" unicode="&#x249;" horiz-adv-x="618" 
d="M78 668h502v-151h-502v151zM3 -187h34q68 0 108 17.5t58 58.5t18 112v1064h216v-1061q0 -140 -37.5 -218t-113 -110t-188.5 -32h-78zM218 1281v227h221v-227h-221z" />
    <glyph glyph-name="uni024A" unicode="&#x24a;" horiz-adv-x="1562" 
d="M725 -22q-274 0 -411 124t-137 347v554q0 142 62 250t185 168.5t309 60.5q153 0 255.5 -45t150.5 -107l-20 -35l15 161h215v-1528q0 -67 10 -101.5t38.5 -46.5t84.5 -12l-20 -177h-59q-150 0 -216.5 70.5t-66.5 211.5v309l84 -24q-118 -103 -230 -141.5t-249 -38.5z
M765 163q145 0 228.5 34.5t121.5 64.5v836q0 49 -33 93.5t-107.5 73t-200.5 28.5q-181 0 -272 -73t-91 -204v-588q0 -134 91 -199.5t263 -65.5z" />
    <glyph glyph-name="uni024B" unicode="&#x24b;" horiz-adv-x="1198" 
d="M1047 -409q-114 0 -177 68t-63 180v203q-49 -34 -119 -49t-127 -15q-140 0 -233.5 43.5t-140.5 119.5t-47 174v420q0 160 105.5 255.5t308.5 95.5q55 0 109.5 -15t97.5 -38t63 -48l6 80h193v-1184q0 -81 20.5 -104.5t82.5 -23.5l-18 -162h-61zM586 137q99 0 157.5 29
t63.5 41v613q-6 39 -58.5 72.5t-160.5 33.5q-103 0 -167.5 -41.5t-64.5 -133.5v-459q0 -90 65.5 -122.5t164.5 -32.5z" />
    <glyph glyph-name="uni024C" unicode="&#x24c;" horiz-adv-x="1471" 
d="M30 759h679v-159h-679v159zM209 0v1456h642q147 0 243 -44.5t143.5 -140t47.5 -247.5q0 -109 -23 -185.5t-69 -126.5t-117 -79l300 -633h-241l-277 594h-416v-594h-233zM442 766h406q84 0 128.5 32.5t61.5 87t17 121.5t-11.5 130.5t-51 105t-125.5 41.5h-425v-518z" />
    <glyph glyph-name="uni024D" unicode="&#x24d;" horiz-adv-x="809" 
d="M30 537h669v-159h-669v159zM177 1065h216v-143q24 54 84.5 89t137.5 52t150 17l-6 -184q-63 -1 -126 -14t-116.5 -35t-87 -51t-36.5 -61v-735h-216v1065z" />
    <glyph glyph-name="uni024E" unicode="&#x24e;" horiz-adv-x="1313" 
d="M23 1249h1267v-159h-1267v159zM543 568l-511 888h246l404 -719h-44l405 719h238l-505 -888v-568h-233v568z" />
    <glyph glyph-name="uni024F" unicode="&#x24f;" horiz-adv-x="1104" 
d="M30 812h1061v-159h-1061v159zM181 -432l-6 173q107 5 178.5 55t118.5 167l30 74l8 -80l-448 1108h220l343 -900h-64l286 900h216l-393 -1126q-65 -187 -178.5 -275.5t-310.5 -95.5z" />
    <glyph glyph-name="uni0251" unicode="&#x251;" horiz-adv-x="1213" 
d="M550 -22q-208 0 -309 88.5t-101 252.5v417q0 157 99 253.5t309 96.5q60 0 123.5 -20t112.5 -53.5t65 -75.5l-33 -29l12 157h193v-784q0 -80 20.5 -103.5t82.5 -23.5l-19 -162h-44q-108 0 -160 38t-78 110l88 -15q-94 -86 -178 -116.5t-183 -30.5zM580 137q89 0 144.5 25
t80.5 43v608q0 52 -58.5 82.5t-163.5 30.5t-166 -41t-61 -133v-453q0 -91 63 -126.5t161 -35.5z" />
    <glyph glyph-name="uni0253" unicode="&#x253;" horiz-adv-x="1205" 
d="M636 -22q-92 0 -162.5 31t-116.5 60l-25 -69h-155v1148q0 196 73.5 278t249.5 82h69l11 -157h-41q-48 0 -80.5 -14.5t-49 -52.5t-16.5 -111v-153q51 28 122 47t142 19q141 0 231 -45.5t133.5 -123t43.5 -175.5v-398q0 -105 -51 -188t-147 -130.5t-231 -47.5zM602 140
q103 0 175 48.5t72 140.5v424q0 90 -57 131.5t-157 41.5q-68 0 -134.5 -20.5t-107.5 -39.5v-669q38 -23 92 -40t117 -17z" />
    <glyph glyph-name="uni0254" unicode="&#x254;" horiz-adv-x="1108" 
d="M531 -22q-153 0 -242.5 34t-129.5 112.5t-47 208.5h200q5 -83 23 -125.5t63 -56.5t131 -14q107 0 165 42t58 147v421q0 99 -56.5 139t-166.5 40q-82 0 -128.5 -16.5t-66 -65.5t-19.5 -146l-205 18q0 146 51 226.5t146.5 112t227.5 31.5q202 0 317.5 -90.5t115.5 -244.5
v-413q0 -96 -40 -178.5t-135.5 -132t-261.5 -49.5z" />
    <glyph glyph-name="uni0256" unicode="&#x256;" horiz-adv-x="1199" 
d="M1047 -409q-114 0 -177 68t-63 180v270l57 -14q-45 -50 -128 -83.5t-174 -33.5q-149 0 -242.5 45t-136.5 124.5t-43 183.5v410q0 156 106 250.5t338 94.5q49 0 112 -11t111 -29v462h216v-1627q0 -81 20.5 -104.5t82.5 -23.5l-18 -162h-61zM581 140q72 0 133.5 18.5
t92.5 37.5v689q-37 17 -94 29t-120 12q-105 0 -171 -38t-66 -131v-436q0 -94 63 -137.5t162 -43.5z" />
    <glyph glyph-name="uni0257" unicode="&#x257;" horiz-adv-x="1199" 
d="M562 -22q-149 0 -242.5 45t-136.5 124.5t-43 183.5v410q0 156 106 250.5t338 94.5q49 0 112 -11t111 -29v126q0 178 71 257t232 79h65l11 -157h-37q-68 0 -97 -39.5t-29 -138.5v-1173h-146l-31 68q-48 -37 -124.5 -63.5t-159.5 -26.5zM581 140q72 0 133.5 18.5t92.5 37.5
v689q-37 17 -94 29t-120 12q-105 0 -171 -38t-66 -131v-436q0 -94 63 -137.5t162 -43.5z" />
    <glyph glyph-name="uni0259" unicode="&#x259;" horiz-adv-x="1142" 
d="M560 -21q-228 0 -331.5 88.5t-103.5 243.5v255h661v157q0 118 -50.5 161.5t-183.5 43.5q-84 0 -133 -9t-71 -43t-27 -109h-195q9 127 53 196.5t135 96.5t240 27t248.5 -40t149.5 -125t50 -219v-385q0 -155 -110.5 -247t-331.5 -92zM557 138q103 0 166 34.5t63 128.5v125
h-454v-139q0 -63 28.5 -94.5t79.5 -43t117 -11.5z" />
    <glyph glyph-name="uni025B" unicode="&#x25b;" horiz-adv-x="1104" 
d="M551 -22q-144 0 -240 37.5t-144 108t-48 170.5q0 87 29 148t89 93t151 32v-11q-95 0 -149 32t-76.5 87t-22.5 123q0 147 115 217.5t298 70.5q126 0 223.5 -28t153.5 -100.5t56 -205.5l-205 -18q0 70 -18 112.5t-67.5 61t-143.5 18.5q-110 0 -154.5 -38.5t-44.5 -95.5
q0 -59 20 -93t79 -48t173 -14v-142q-118 0 -180.5 -17t-86 -56t-23.5 -105q0 -92 51.5 -136t161.5 -44q87 0 137.5 15t74.5 53t29 108h205q-10 -119 -55.5 -193.5t-139 -108t-248.5 -33.5z" />
    <glyph glyph-name="uni0260" unicode="&#x260;" horiz-adv-x="1192" 
d="M573 -426q-104 0 -188.5 11t-142.5 35l46 155q54 -17 130 -28t146 -11q130 0 188 55.5t58 171.5v133q-30 -25 -77.5 -40t-97 -22t-87.5 -7q-200 0 -304 87t-104 250v372q0 102 41.5 181t131 124t231.5 45q68 0 135.5 -21t115.5 -55.5t59 -75.5l-44 -26v264
q0 178 70.5 257t232.5 79h65l11 -157h-38q-67 0 -96 -39.5t-29 -138.5v-1167q0 -127 -43.5 -224.5t-142.5 -152.5t-267 -55zM582 183q93 0 148.5 25.5t79.5 43.5v552q0 53 -57.5 87.5t-171.5 34.5q-105 0 -165 -41.5t-60 -133.5v-410q0 -90 64.5 -124t161.5 -34z" />
    <glyph glyph-name="uni0263" unicode="&#x263;" horiz-adv-x="1077" 
d="M538 -423q-163 0 -241.5 79t-78.5 219q0 94 41 195.5t107 218.5l445 776h226l-507 -864q-62 -105 -84.5 -177.5t-22.5 -141.5t26.5 -101t88.5 -32q63 0 89.5 32t26.5 101t-22.5 141t-84.5 178l-507 864h227l444 -776q66 -116 107 -218t41 -196q0 -140 -79 -219t-242 -79z
" />
    <glyph glyph-name="uni0265" unicode="&#x265;" horiz-adv-x="1234" 
d="M840 -412v513q-42 -54 -125 -88t-198 -34q-121 0 -198.5 40.5t-114.5 109.5t-37 155v781h216v-774q0 -54 27.5 -86.5t75 -47t104.5 -14.5q78 0 134 21t86 59.5t30 89.5v752h216v-1477h-216z" />
    <glyph glyph-name="uni0266" unicode="&#x266;" horiz-adv-x="1234" 
d="M178 0v1148q0 196 73 278t250 82h68l11 -157h-41q-47 0 -79.5 -14.5t-49 -52.5t-16.5 -111v-210q43 55 126 89t197 34q121 0 198.5 -40.5t114.5 -109.5t37 -156v-780h-216v774q0 54 -27.5 86.5t-74.5 47t-105 14.5q-78 0 -134 -21.5t-86 -59.5t-30 -90v-751h-216z" />
    <glyph glyph-name="uni0268" unicode="&#x268;" horiz-adv-x="546" 
d="M22 668h502v-151h-502v151zM165 1065h216v-1065h-216v1065zM163 1281v227h220v-227h-220z" />
    <glyph glyph-name="uni0269" unicode="&#x269;" horiz-adv-x="568" 
d="M175 1065h216v-776q0 -80 20.5 -103.5t82.5 -23.5l-18 -162h-61q-114 0 -177 67.5t-63 180.5v817z" />
    <glyph glyph-name="uni026A" unicode="&#x26a;" horiz-adv-x="795" 
d="M289 912h-204v153h625v-153h-205v-760h205v-152h-625v152h204v760z" />
    <glyph glyph-name="uni026B" unicode="&#x26b;" horiz-adv-x="700" 
d="M181 356v1152h216v-1152q0 -77 16.5 -119t58.5 -58t119 -16h34l-22 -172h-74q-117 0 -194.5 29.5t-115.5 109t-38 226.5zM405 660q-56 0 -93 15.5t-63 37t-48.5 37t-50.5 15.5q-30 0 -49 -22t-19 -69h-109q0 130 53 185t147 55q56 0 92.5 -16t62 -37t47.5 -37t49 -16
q31 0 51 22.5t20 68.5h109q0 -129 -52.5 -184t-146.5 -55z" />
    <glyph glyph-name="uni026C" unicode="&#x26c;" horiz-adv-x="808" 
d="M410 780h-118q0 133 -103 133q-53 0 -78 -21t-25 -71q0 -47 23 -74t88 -27h514l10 -151h-513q-146 0 -212 70.5t-66 180.5q0 108 63.5 169t179.5 61q114 0 175.5 -69.5t61.5 -200.5zM292 356v1152h216v-1152q0 -77 16.5 -119t59 -58t118.5 -16h33l-21 -172h-74
q-117 0 -194.5 29.5t-115.5 109t-38 226.5z" />
    <glyph glyph-name="uni026F" unicode="&#x26f;" horiz-adv-x="1871" 
d="M514 -21q-121 0 -197.5 41t-112.5 111t-36 156v778h216v-775q0 -81 51.5 -114.5t138.5 -33.5q77 0 132 21.5t84 59.5t30 88v754h216v-775q0 -81 55 -114.5t141 -33.5q78 0 133 21.5t84 61t29 90.5v750h216v-1065h-216v101q-26 -30 -67 -58t-100.5 -46t-140.5 -18
q-117 0 -192 36.5t-114 100.5q-65 -64 -147.5 -100.5t-202.5 -36.5z" />
    <glyph glyph-name="uni0272" unicode="&#x272;" horiz-adv-x="1234" 
d="M-5 -332l-28 157q73 3 115.5 19.5t63 56t26 111.5t5.5 187v866h216v-101q27 30 68.5 58t104 46t150.5 18q125 0 202.5 -43t113 -115t35.5 -158v-770h-216v772q0 55 -28.5 87.5t-76 47.5t-106.5 15q-77 0 -132.5 -22t-85 -61t-29.5 -91v-542q0 -190 -33 -309t-119.5 -174
t-245.5 -55z" />
    <glyph glyph-name="uni0275" unicode="&#x275;" horiz-adv-x="1176" 
d="M257 620h676v-159h-676v159zM588 -22q-162 0 -260.5 43t-143 119.5t-44.5 177.5v426q0 102 47.5 179t146.5 120t254 43q154 0 253 -43t147 -120t48 -179v-426q0 -100 -44 -177t-142 -120t-262 -43zM588 137q102 0 167 37t65 130v455q0 92 -64 129.5t-168 37.5t-168 -37.5
t-64 -129.5v-455q0 -93 63 -130t169 -37z" />
    <glyph glyph-name="uni027D" unicode="&#x27d;" horiz-adv-x="809" 
d="M417 -409q-114 0 -177 68t-63 180v1226h216v-156q26 62 89 99.5t140 54.5t143 17l-7 -184q-62 -1 -125.5 -14.5t-116.5 -37t-86.5 -54.5t-36.5 -69v-840q0 -81 20.5 -104.5t82.5 -23.5l-18 -162h-61z" />
    <glyph glyph-name="uni027E" unicode="&#x27e;" horiz-adv-x="718" 
d="M152 0v688q0 186 92.5 281.5t305.5 95.5h120l-6 -175h-98q-104 0 -151 -46t-47 -147v-697h-216z" />
    <glyph glyph-name="uni0283" unicode="&#x283;" horiz-adv-x="741" 
d="M19 -409l-10 152h105q87 0 117.5 40t30.5 96v1310q0 163 83 241.5t255 78.5h122l10 -152h-105q-87 0 -118 -40t-31 -96v-1310q0 -162 -82.5 -241t-255.5 -79h-121z" />
    <glyph glyph-name="uni0288" unicode="&#x288;" horiz-adv-x="799" 
d="M479 -409q-114 0 -177 68t-63 180v1073h-174v153h182l23 333h185v-333h263v-153h-263v-1031q0 -81 20.5 -104.5t82.5 -23.5l-18 -162h-61z" />
    <glyph glyph-name="uni0289" unicode="&#x289;" horiz-adv-x="1230" 
d="M30 699h1161v-159h-1161v159zM522 -22q-121 0 -199.5 42t-116.5 113t-38 157v775h216v-761q0 -53 26.5 -89t73 -54.5t103.5 -18.5q78 0 135 24.5t87.5 65.5t30.5 91v742h216v-1065h-198l-16 128q-37 -70 -121 -110t-199 -40z" />
    <glyph glyph-name="uni028A" unicode="&#x28a;" horiz-adv-x="1176" 
d="M589 -22q-159 0 -258 46.5t-145 155t-46 292.5q0 203 69.5 322.5t178.5 165.5l-11 -48h-225v153h371v-126q-57 -32 -94 -85t-55 -141t-18 -225q0 -153 22 -228t73 -99t138 -24t137.5 24t72.5 99t22 228q0 137 -18 225t-54.5 141t-93.5 85v126h370v-153h-225l-11 48
q110 -46 179 -165.5t69 -322.5q0 -184 -45.5 -292.5t-144.5 -155t-258 -46.5z" />
    <glyph glyph-name="uni028B" unicode="&#x28b;" horiz-adv-x="1176" 
d="M555 -22q-158 0 -248.5 37t-128.5 109t-38 178v763h216v-778q0 -80 45 -115t154 -35q120 0 192.5 52.5t72.5 180.5v389q0 92 -45 129.5t-134 37.5v160q207 0 301 -91.5t94 -243.5v-366q0 -186 -118 -296.5t-363 -110.5z" />
    <glyph glyph-name="uni028C" unicode="&#x28c;" horiz-adv-x="1104" 
d="M1050 0h-217l-295 885l29 1l-305 -886h-208l389 1065h223z" />
    <glyph glyph-name="uni0292" unicode="&#x292;" horiz-adv-x="1093" 
d="M527 -413q-157 0 -253 46.5t-143.5 147t-59.5 262.5h200q6 -111 33.5 -170t83.5 -81t147 -22q122 0 176 65t54 199q0 144 -56.5 210t-214.5 66h-80v165l308 475l14 -38h-624v153h819v-138l-340 -528l-24 76q133 0 222 -51t133.5 -150t44.5 -243q0 -142 -49 -241
t-146.5 -151t-244.5 -52z" />
    <glyph glyph-name="uni0294" unicode="&#x294;" horiz-adv-x="1241" 
d="M475 0v461l262 309q71 84 99 156.5t28 160.5q0 59 -17 106t-64.5 75.5t-138.5 28.5q-105 0 -161 -27t-77 -76t-21 -117v-64h-222v46q0 110 23.5 189.5t78 130.5t147.5 75.5t232 24.5q141 0 230.5 -33.5t139.5 -88.5t69.5 -122.5t19.5 -136.5q0 -94 -28.5 -172.5
t-83.5 -151.5t-134 -154l-197 -209l31 78v-489h-216z" />
    <glyph glyph-name="uni0295" unicode="&#x295;" horiz-adv-x="1241" 
d="M766 0h-216v489l32 -78l-198 209q-77 81 -132.5 154t-84.5 151.5t-29 172.5q0 69 19.5 136.5t69.5 122.5t140 88.5t230 33.5q139 0 232.5 -24.5t148 -75.5t78 -130.5t23.5 -189.5v-46h-223v64q0 68 -20.5 117t-76.5 76t-162 27q-90 0 -138 -28.5t-65 -75.5t-17 -106
q0 -88 28 -160.5t100 -156.5l261 -309v-461z" />
    <glyph glyph-name="uni0298" unicode="&#x298;" horiz-adv-x="1530" 
d="M775 -23q-178 0 -293 38t-180 107t-91.5 163t-26.5 206v457q0 114 26 210.5t91 168.5t180 112t294 40q172 0 283 -42t174 -116.5t89 -173t26 -212.5v-429q0 -111 -26 -207t-89.5 -168.5t-174.5 -113t-282 -40.5zM775 142q120 0 199 27t118 96t39 194v527
q0 189 -88.5 258.5t-267.5 69.5q-118 0 -202 -29.5t-128.5 -100.5t-44.5 -198v-527q0 -125 44 -194.5t128 -96t203 -26.5zM656 618v219h219v-219h-219z" />
    <glyph glyph-name="uni029D" unicode="&#x29d;" horiz-adv-x="768" 
d="M285 -345q-158 0 -227.5 80.5t-69.5 209.5q0 130 73 209.5t230 79.5h400l11 -152h-428q-67 0 -95.5 -32t-28.5 -102q0 -72 27.5 -98t84.5 -26q108 0 108 136v1105h217v-1082q0 -101 -32 -174.5t-98.5 -113.5t-171.5 -40zM371 1282v227h214v-227h-214z" />
    <glyph glyph-name="uni02B0" unicode="&#x2b0;" horiz-adv-x="864" 
d="M124 646v1055h165v-426l-26 26q25 46 86.5 75.5t151.5 29.5q127 0 186.5 -61.5t59.5 -152.5v-546h-165v532q0 54 -35.5 77t-96.5 23q-81 0 -121 -32.5t-40 -84.5v-515h-165z" />
    <glyph glyph-name="uni02B7" unicode="&#x2b7;" horiz-adv-x="1138" 
d="M247 654l-212 745h153l163 -598h-49l181 598h165l188 -600h-43l156 600h153l-211 -745h-145l-188 597h23l-189 -597h-145z" />
    <glyph glyph-name="uni02B9" unicode="&#x2b9;" horiz-adv-x="593" 
d="M122 1038l131 475h239l-235 -475h-135z" />
    <glyph glyph-name="uni02BA" unicode="&#x2ba;" horiz-adv-x="917" 
d="M445 1038l131 475h239l-235 -475h-135zM122 1038l131 475h239l-235 -475h-135z" />
    <glyph glyph-name="uni02BB" unicode="&#x2bb;" horiz-adv-x="359" 
d="M40 1209v166q0 146 45 238t128 158l97 -48q-66 -58 -103 -121t-37 -146h149v-247h-279z" />
    <glyph glyph-name="uni02BC" unicode="&#x2bc;" horiz-adv-x="359" 
d="M146 894l-97 48q66 58 103 121t37 146h-149v247h279v-166q0 -146 -45 -237.5t-128 -158.5z" />
    <glyph glyph-name="uni02BE" unicode="&#x2be;" horiz-adv-x="373" 
d="M63 1124v122q42 0 74 23t32 90q0 65 -31.5 88t-73.5 23l-1 120q114 0 180 -60t66 -172q0 -113 -66 -173.5t-180 -60.5z" />
    <glyph glyph-name="uni02BF" unicode="&#x2bf;" horiz-adv-x="373" 
d="M309 1124q-112 0 -179 60.5t-67 173.5q0 112 67 172t179 60l-1 -120q-41 0 -72.5 -23t-31.5 -88q0 -67 31.5 -90t73.5 -23v-122z" />
    <glyph glyph-name="uni02C0" unicode="&#x2c0;" horiz-adv-x="791" 
d="M297 658v266l150 178q42 49 58 91t16 93q0 40 -22.5 69t-88.5 29q-69 0 -97 -27.5t-28 -76.5v-37h-152v27q0 84 26 139.5t88 82t169 26.5t164.5 -34.5t80 -86.5t22.5 -105q0 -82 -37.5 -144t-104.5 -132l-114 -120l18 44v-282h-148z" />
    <glyph glyph-name="circumflex" unicode="&#x2c6;" horiz-adv-x="827" 
d="M60 1242l262 348h183l262 -348h-151l-248 238h92l-248 -238h-152z" />
    <glyph glyph-name="caron" unicode="&#x2c7;" horiz-adv-x="827" 
d="M322 1242l-262 348h152l248 -238h-92l248 238h151l-262 -348h-183z" />
    <glyph glyph-name="uni02C8" unicode="&#x2c8;" horiz-adv-x="567" 
d="M187 957v551h193v-551h-193z" />
    <glyph glyph-name="uni02C9" unicode="&#x2c9;" horiz-adv-x="684" 
d="M60 1259v159h564v-159h-564z" />
    <glyph glyph-name="uni02CA" unicode="&#x2ca;" horiz-adv-x="489" 
d="M60 1138l130 375h239l-234 -375h-135z" />
    <glyph glyph-name="uni02CB" unicode="&#x2cb;" horiz-adv-x="489" 
d="M294 1137l-234 376h239l130 -376h-135z" />
    <glyph glyph-name="uni02CC" unicode="&#x2cc;" horiz-adv-x="567" 
d="M187 -409v552h193v-552h-193z" />
    <glyph glyph-name="uni02D7" unicode="&#x2d7;" horiz-adv-x="805" 
d="M152 492v152h501v-152h-501z" />
    <glyph glyph-name="breve" unicode="&#x2d8;" horiz-adv-x="747" 
d="M374 1243q-91 0 -162 33.5t-111.5 106.5t-40.5 190h148q0 -78 41 -127.5t125 -49.5q83 0 124.5 49.5t41.5 127.5h148q0 -117 -40.5 -190t-111 -106.5t-162.5 -33.5z" />
    <glyph glyph-name="dotaccent" unicode="&#x2d9;" horiz-adv-x="341" 
d="M60 1281v227h220v-227h-220z" />
    <glyph glyph-name="ring" unicode="&#x2da;" horiz-adv-x="612" 
d="M306 1181q-113 0 -179.5 60.5t-66.5 173.5q0 111 66.5 171.5t179.5 60.5q112 0 179 -60.5t67 -171.5q0 -113 -66.5 -173.5t-179.5 -60.5zM306 1302q40 0 72.5 23t32.5 89q0 65 -32.5 89t-73.5 24t-72.5 -23t-31.5 -88q0 -67 31.5 -90.5t73.5 -23.5z" />
    <glyph glyph-name="ogonek" unicode="&#x2db;" horiz-adv-x="451" 
d="M310 -464q-123 0 -186.5 51t-63.5 150q0 67 53 145.5t135 127.5l117 -10q-60 -51 -98 -105.5t-38 -108.5q0 -50 27 -78t84 -28h51l-12 -144h-69z" />
    <glyph glyph-name="tilde" unicode="&#x2dc;" horiz-adv-x="751" 
d="M491 1269q-56 0 -92.5 16t-62.5 37t-48.5 37t-50.5 16q-30 0 -49 -22.5t-19 -68.5h-109q0 129 53 184t147 55q56 0 92.5 -16t62 -37t47 -36.5t49.5 -15.5q30 0 50 22t20 68h110q0 -129 -53 -184t-147 -55z" />
    <glyph glyph-name="hungarumlaut" unicode="&#x2dd;" horiz-adv-x="713" 
d="M363 1242l57 355h233l-162 -355h-128zM60 1242l58 355h232l-161 -355h-129z" />
    <glyph glyph-name="uni02EE" unicode="&#x2ee;" horiz-adv-x="769" 
d="M146 894l-97 48q66 58 103 121t37 146h-149v247h279v-166q0 -146 -45 -237.5t-128 -158.5zM556 894l-97 48q66 58 103 121t37 146h-149v247h279v-166q0 -146 -45 -237.5t-128 -158.5z" />
    <glyph glyph-name="gravecomb" unicode="&#x300;" 
d="M-12 1242l-235 355h240l130 -355h-135z" />
    <glyph glyph-name="acutecomb" unicode="&#x301;" 
d="M-123 1242l130 355h240l-235 -355h-135z" />
    <glyph glyph-name="uni0302" unicode="&#x302;" 
d="M-354 1242l262 348h183l262 -348h-151l-248 238h92l-248 -238h-152z" />
    <glyph glyph-name="tildecomb" unicode="&#x303;" 
d="M118 1269q-56 0 -92.5 16t-62.5 37t-48.5 37t-50.5 16q-30 0 -49 -22.5t-19 -68.5h-109q0 129 53 184t147 55q56 0 92.5 -16t62 -37t47 -36.5t49.5 -15.5q30 0 50 22t20 68h110q0 -129 -53 -184t-147 -55z" />
    <glyph glyph-name="uni0304" unicode="&#x304;" 
d="M-265 1315v159h530v-159h-530z" />
    <glyph glyph-name="uni0306" unicode="&#x306;" 
d="M0 1243q-91 0 -162 33.5t-111.5 106.5t-40.5 190h148q0 -78 41 -127.5t125 -49.5q83 0 124.5 49.5t41.5 127.5h148q0 -117 -40.5 -190t-111 -106.5t-162.5 -33.5z" />
    <glyph glyph-name="uni0307" unicode="&#x307;" 
d="M-110 1281v227h220v-227h-220z" />
    <glyph glyph-name="uni0308" unicode="&#x308;" 
d="M77 1278v199h225v-199h-225zM-302 1278v199h225v-199h-225z" />
    <glyph glyph-name="hookabovecomb" unicode="&#x309;" 
d="M3 1209l-59 118q72 25 96.5 57.5t24.5 71.5q0 41 -22.5 62t-63.5 21q-38 0 -65 -19t-35 -53l-137 53q24 77 87.5 116t151.5 39q110 0 173.5 -62.5t63.5 -156.5q0 -97 -54 -153.5t-161 -93.5z" />
    <glyph glyph-name="uni030A" unicode="&#x30a;" 
d="M0 1181q-113 0 -179.5 60.5t-66.5 173.5q0 111 66.5 171.5t179.5 60.5q112 0 179 -60.5t67 -171.5q0 -113 -66.5 -173.5t-179.5 -60.5zM0 1302q40 0 72.5 23t32.5 89q0 65 -32.5 89t-73.5 24t-72.5 -23t-31.5 -88q0 -67 31.5 -90.5t73.5 -23.5z" />
    <glyph glyph-name="uni030B" unicode="&#x30b;" 
d="M76 1242l57 355h233l-162 -355h-128zM-227 1242l58 355h232l-161 -355h-129z" />
    <glyph glyph-name="uni030C" unicode="&#x30c;" 
d="M-92 1242l-262 348h152l248 -238h-92l248 238h151l-262 -348h-183z" />
    <glyph glyph-name="uni030D" unicode="&#x30d;" 
d="M-97 1193v525h194v-525h-194z" />
    <glyph glyph-name="uni030F" unicode="&#x30f;" 
d="M103 1242l-140 355h218l42 -355h-120zM-188 1242l-140 355h218l42 -355h-120z" />
    <glyph glyph-name="uni0310" unicode="&#x310;" 
d="M0 1168q-93 0 -169 30t-120.5 98.5t-44.5 183.5h148q0 -77 50 -115.5t136 -38.5t136 38.5t50 115.5h148q0 -115 -44.5 -183.5t-120.5 -98.5t-169 -30zM-107 1471v224h214v-224h-214z" />
    <glyph glyph-name="uni0311" unicode="&#x311;" 
d="M-314 1242q0 117 40.5 189.5t111.5 106.5t162 34q92 0 162.5 -34t111 -106.5t40.5 -189.5h-148q0 78 -41.5 127.5t-124.5 49.5q-84 0 -125 -49.5t-41 -127.5h-148z" />
    <glyph glyph-name="uni0312" unicode="&#x312;" 
d="M-138 1234v166q0 81 25 149t65 121t87 88l93 -46q-63 -51 -101.5 -111.5t-38.5 -119.5h142v-247h-272z" />
    <glyph glyph-name="uni0313" unicode="&#x313;" 
d="M-138 1157v166q0 88 25 160.5t65 127.5t87 90l93 -46q-63 -51 -101.5 -116.5t-38.5 -134.5h142v-247h-272z" />
    <glyph glyph-name="uni031B" unicode="&#x31b;" 
d="M-10 913v161h60q50 0 84 33.5t34 94.5v141h199v-124q0 -100 -39.5 -168t-111 -103t-166.5 -35h-60z" />
    <glyph glyph-name="dotbelowcomb" unicode="&#x323;" 
d="M-107 -356v227h214v-227h-214z" />
    <glyph glyph-name="uni0324" unicode="&#x324;" 
d="M77 -353v198h225v-198h-225zM-302 -353v198h225v-198h-225z" />
    <glyph glyph-name="uni0325" unicode="&#x325;" 
d="M0 -521q-113 0 -179.5 61t-66.5 173t66.5 172t179.5 60q112 0 179 -60t67 -172t-66.5 -173t-179.5 -61zM0 -399q40 0 72.5 23t32.5 88t-32.5 89.5t-73.5 24.5t-72.5 -23.5t-31.5 -88.5q0 -66 31.5 -89.5t73.5 -23.5z" />
    <glyph glyph-name="uni0326" unicode="&#x326;" 
d="M-19 -594l-98 41q57 55 83 112.5t26 130.5v14.5t-1 14.5l48 -86h-166v246h250v-97q0 -126 -34.5 -217t-107.5 -159z" />
    <glyph glyph-name="uni0327" unicode="&#x327;" 
d="M-146 -472v116h185q32 0 44 13.5t12 32.5v64q0 20 -14 33t-42 13h-97v230h111v-166l-31 46q118 0 168 -42t50 -130v-37q0 -71 -46 -122t-159 -51h-181z" />
    <glyph glyph-name="uni0328" unicode="&#x328;" 
d="M-55 -464q-123 0 -186.5 51t-63.5 150q0 67 53 145.5t135 127.5l117 -10q-60 -51 -98 -105.5t-38 -108.5q0 -50 27 -78t84 -28h51l-12 -144h-69z" />
    <glyph glyph-name="uni0329" unicode="&#x329;" 
d="M-97 -409v532h194v-532h-194z" />
    <glyph glyph-name="uni032D" unicode="&#x32d;" 
d="M-341 -442l249 315h183l249 -315h-152l-234 209h92l-235 -209h-152z" />
    <glyph glyph-name="uni032E" unicode="&#x32e;" 
d="M0 -392q-91 0 -162 30t-111.5 95t-40.5 169h148q0 -60 41 -100.5t125 -40.5q83 0 124.5 40.5t41.5 100.5h148q0 -104 -40.5 -169t-111 -95t-162.5 -30z" />
    <glyph glyph-name="uni032F" unicode="&#x32f;" 
d="M-314 -392q0 105 40.5 170t111.5 94.5t162 29.5q92 0 162.5 -29.5t111 -94.5t40.5 -170h-148q0 61 -41.5 101t-124.5 40q-84 0 -125 -40t-41 -101h-148z" />
    <glyph glyph-name="uni0330" unicode="&#x330;" 
d="M115 -367q-55 0 -92 16t-62.5 37t-48 37t-50.5 16q-30 0 -49 -22t-19 -69h-110q0 129 53 184t147 55q56 0 92.5 -15.5t62 -36.5t47 -37t49.5 -16q31 0 51 22t20 69h109q0 -130 -53 -185t-147 -55z" />
    <glyph glyph-name="uni0331" unicode="&#x331;" 
d="M-279 -322v159h558v-159h-558z" />
    <glyph glyph-name="uni0332" unicode="&#x332;" 
d="M0 -252v158h818v-158h-818z" />
    <glyph glyph-name="uni0334" unicode="&#x334;" 
d="M117 660q-56 0 -93 15.5t-63 37t-48.5 37t-50.5 15.5q-30 0 -49 -22t-19 -69h-109q0 130 53 185t147 55q56 0 92.5 -16t62 -37t47.5 -37t49 -16q31 0 51 22.5t20 68.5h109q0 -129 -52.5 -184t-146.5 -55z" />
    <glyph glyph-name="uni0335" unicode="&#x335;" 
d="M-583 460v159h1166v-159h-1166z" />
    <glyph glyph-name="uni0358" unicode="&#x358;" 
d="M187 1327v208h193v-208h-193z" />
    <glyph glyph-name="uni0394" unicode="&#x394;" horiz-adv-x="1460" 
d="M641 1456h191l464 -1456h-1133zM1032 161l-303 1017l-321 -1017h624z" />
    <glyph glyph-name="Sigma" unicode="&#x3a3;" horiz-adv-x="1169" 
d="M105 0v167l484 595l-484 534v160h976v-181h-720l448 -466v-72l-446 -554h718v-183h-976z" />
    <glyph glyph-name="uni03A9" unicode="&#x3a9;" horiz-adv-x="1602" 
d="M194 0v163h248q-75 41 -136.5 109.5t-97 178.5t-35.5 275q0 199 29.5 333t85.5 217t133.5 126t173.5 58t206 15q139 0 254 -25.5t199 -101t129.5 -225t45.5 -397.5q0 -165 -35.5 -275t-96.5 -178.5t-137 -109.5h248v-163h-516v158q114 47 179.5 116t93.5 182.5t28 293.5
q0 185 -25.5 294t-75 162t-122.5 70t-169 17q-94 0 -167 -17t-123 -70t-76 -162t-26 -294q0 -180 28 -293.5t94 -182.5t179 -116v-158h-516z" />
    <glyph glyph-name="uni03BC" unicode="&#x3bc;" horiz-adv-x="1231" 
d="M165 -334v1399h216v-770q0 -53 27 -88.5t73 -52.5t104 -17q78 0 134.5 24t87 64.5t30.5 86.5v753h216v-1065h-201l-15 134q-36 -71 -108.5 -113t-181.5 -42q-49 0 -91.5 8t-80.5 21v-342h-210z" />
    <glyph glyph-name="pi" unicode="&#x3c0;" horiz-adv-x="1206" 
d="M1066 -21q-107 0 -177.5 23.5t-105.5 87.5t-35 187v633h-292v-910h-209v909q-55 -2 -100 -16t-74.5 -30.5t-39.5 -23.5v156q6 8 29.5 24.5t64 31t97.5 14.5h916v-155h-182v-574q0 -81 11 -119t44 -53t100 -29z" />
    <glyph glyph-name="uni1D7D" unicode="&#x1d7d;" horiz-adv-x="1209" 
d="M30 619h1166v-159h-1166v159zM177 -409v1474h162l24 -77q46 38 124 68t171 30q198 0 299.5 -98t101.5 -252v-398q0 -101 -48 -183t-144 -129.5t-239 -47.5q-80 0 -138 16t-97 34v-437h-216zM613 137q105 0 167.5 47t62.5 139v425q0 90 -62.5 134t-160.5 44
q-58 0 -105.5 -18t-78.5 -41t-43 -37v-640q33 -18 88 -35.5t132 -17.5z" />
    <glyph glyph-name="uni1DBB" unicode="&#x1dbb;" horiz-adv-x="659" 
d="M90 752l341 567l22 -40h-352v120h485v-97l-345 -569l-22 41h369v-120h-498v98z" />
    <glyph glyph-name="uni1DC4" unicode="&#x1dc4;" 
d="M-140 1202l381 311h155l-277 -311h-259zM-380 1202v159h493l-67 -159h-426z" />
    <glyph glyph-name="uni1DC5" unicode="&#x1dc5;" 
d="M-103 1202l-277 311h155l382 -311h-260zM-30 1202l-66 159h492v-159h-426z" />
    <glyph glyph-name="uni1DC6" unicode="&#x1dc6;" 
d="M241 1202l-381 311h259l277 -311h-155zM-380 1354v159h426l67 -159h-493z" />
    <glyph glyph-name="uni1DC7" unicode="&#x1dc7;" 
d="M-380 1202l277 311h260l-382 -311h-155zM-96 1354l66 159h426v-159h-492z" />
    <glyph glyph-name="uni1DCA" unicode="&#x1dca;" 
d="M-193 -771v672h151v-101q18 41 62.5 65t98 35t99.5 11l-5 -120q-58 0 -115.5 -15t-97 -40t-42.5 -58v-449h-151z" />
    <glyph glyph-name="uni1E00" unicode="&#x1e00;" horiz-adv-x="1456" 
d="M81 0l521 1456h249l524 -1456h-241l-416 1272l29 -1l-424 -1271h-242zM321 282l52 175h713l50 -175h-815zM728 -521q-113 0 -179.5 61t-66.5 173t66.5 172t179.5 60q112 0 179 -60t67 -172t-66.5 -173t-179.5 -61zM728 -399q40 0 72.5 23t32.5 88t-32.5 89.5t-73.5 24.5
t-72.5 -23.5t-31.5 -88.5q0 -66 31.5 -89.5t73.5 -23.5z" />
    <glyph glyph-name="uni1E01" unicode="&#x1e01;" horiz-adv-x="1173" 
d="M451 -22q-109 0 -181 39t-108.5 105t-36.5 147q0 78 31.5 134t117 102.5t249.5 95.5q87 26 140 47t78 51t25 81q0 43 -15 76t-55 51.5t-117 18.5q-93 0 -137.5 -20.5t-58 -55t-13.5 -76.5v-46h-206v43q0 157 104.5 236t316.5 79q147 0 233.5 -45t124 -126t37.5 -191v-443
q0 -80 20.5 -103.5t82.5 -23.5l-18 -162h-44q-108 0 -160 38t-78 110q-25 -37 -68 -74.5t-107.5 -62.5t-156.5 -25zM497 131q49 0 104 20.5t100.5 56t64.5 81.5v276q-24 -22 -80 -54.5t-146 -59.5q-112 -35 -159.5 -73t-47.5 -100q0 -75 40.5 -111t123.5 -36zM586 -521
q-113 0 -179.5 61t-66.5 173t66.5 172t179.5 60q112 0 179 -60t67 -172t-66.5 -173t-179.5 -61zM586 -399q40 0 72.5 23t32.5 88t-32.5 89.5t-73.5 24.5t-72.5 -23.5t-31.5 -88.5q0 -66 31.5 -89.5t73.5 -23.5z" />
    <glyph glyph-name="uni1E02" unicode="&#x1e02;" horiz-adv-x="1432" 
d="M209 0v1456h538q203 0 309.5 -45t146 -133t39.5 -216q0 -109 -47 -185t-175 -103l2 15q104 -12 167 -61t91.5 -127t28.5 -178q0 -220 -120.5 -321.5t-387.5 -101.5h-592zM442 169h330q114 0 181 21t96.5 79.5t29.5 170.5q0 69 -20 128t-76.5 94.5t-167.5 35.5h-373v-529z
M442 849h350q90 0 136 25.5t62.5 72.5t16.5 113q0 96 -24 144.5t-86 66t-177 17.5h-278v-439zM609 1632v227h214v-227h-214z" />
    <glyph glyph-name="uni1E03" unicode="&#x1e03;" horiz-adv-x="1205" 
d="M636 -22q-92 0 -162.5 31t-116.5 60l-25 -69h-155v1509h216v-489q51 28 121 47t149 19q139 0 228 -46t131.5 -123.5t42.5 -174.5v-398q0 -105 -51 -188t-147 -130.5t-231 -47.5zM602 140q103 0 175 48.5t72 140.5v424q0 90 -57 131.5t-157 41.5q-68 0 -134.5 -20.5
t-107.5 -39.5v-669q38 -23 92 -40t117 -17zM550 1627v227h220v-227h-220z" />
    <glyph glyph-name="uni1E04" unicode="&#x1e04;" horiz-adv-x="1432" 
d="M209 0v1456h538q203 0 309.5 -45t146 -133t39.5 -216q0 -109 -47 -185t-175 -103l2 15q104 -12 167 -61t91.5 -127t28.5 -178q0 -220 -120.5 -321.5t-387.5 -101.5h-592zM442 169h330q114 0 181 21t96.5 79.5t29.5 170.5q0 69 -20 128t-76.5 94.5t-167.5 35.5h-373v-529z
M442 849h350q90 0 136 25.5t62.5 72.5t16.5 113q0 96 -24 144.5t-86 66t-177 17.5h-278v-439zM609 -356v227h214v-227h-214z" />
    <glyph glyph-name="uni1E05" unicode="&#x1e05;" horiz-adv-x="1205" 
d="M636 -22q-92 0 -162.5 31t-116.5 60l-25 -69h-155v1509h216v-489q51 28 121 47t149 19q139 0 228 -46t131.5 -123.5t42.5 -174.5v-398q0 -105 -51 -188t-147 -130.5t-231 -47.5zM602 140q103 0 175 48.5t72 140.5v424q0 90 -57 131.5t-157 41.5q-68 0 -134.5 -20.5
t-107.5 -39.5v-669q38 -23 92 -40t117 -17zM529 -356v227h214v-227h-214z" />
    <glyph glyph-name="uni1E06" unicode="&#x1e06;" horiz-adv-x="1432" 
d="M209 0v1456h538q203 0 309.5 -45t146 -133t39.5 -216q0 -109 -47 -185t-175 -103l2 15q104 -12 167 -61t91.5 -127t28.5 -178q0 -220 -120.5 -321.5t-387.5 -101.5h-592zM442 169h330q114 0 181 21t96.5 79.5t29.5 170.5q0 69 -20 128t-76.5 94.5t-167.5 35.5h-373v-529z
M442 849h350q90 0 136 25.5t62.5 72.5t16.5 113q0 96 -24 144.5t-86 66t-177 17.5h-278v-439zM437 -322v159h558v-159h-558z" />
    <glyph glyph-name="uni1E07" unicode="&#x1e07;" horiz-adv-x="1205" 
d="M636 -22q-92 0 -162.5 31t-116.5 60l-25 -69h-155v1509h216v-489q51 28 121 47t149 19q139 0 228 -46t131.5 -123.5t42.5 -174.5v-398q0 -105 -51 -188t-147 -130.5t-231 -47.5zM602 140q103 0 175 48.5t72 140.5v424q0 90 -57 131.5t-157 41.5q-68 0 -134.5 -20.5
t-107.5 -39.5v-669q38 -23 92 -40t117 -17zM357 -322v159h558v-159h-558z" />
    <glyph glyph-name="uni1E08" unicode="&#x1e08;" horiz-adv-x="1467" 
d="M767 -23q-186 0 -303 37.5t-179.5 105.5t-86 161t-23.5 204v467q0 114 22.5 210.5t85 167.5t179.5 110t304 39q172 0 281.5 -32.5t168.5 -94.5t82 -150.5t23 -200.5v-15l-225 -22v43q0 122 -31 183.5t-103 82t-196 20.5q-121 0 -200.5 -26t-118.5 -92t-39 -186v-534
q0 -119 40 -182.5t120 -87t202 -23.5t193.5 18t102 76.5t30.5 179.5v32h225v-16q0 -109 -20.5 -196.5t-77.5 -150t-166.5 -95.5t-289.5 -33zM622 -472v116h185q32 0 44 13.5t12 32.5v64q0 20 -14 33t-42 13h-97v230h111v-166l-31 46q118 0 168 -42t50 -130v-37
q0 -71 -46 -122t-159 -51h-181zM630 1640l164 355h256l-268 -355h-152z" />
    <glyph glyph-name="uni1E09" unicode="&#x1e09;" horiz-adv-x="1108" 
d="M577 -22q-166 0 -261.5 49.5t-135.5 132t-40 178.5v413q0 154 115.5 244.5t316.5 90.5q133 0 228.5 -31.5t146.5 -112t51 -226.5l-205 -18q0 97 -19.5 146t-66 65.5t-128.5 16.5q-110 0 -166.5 -40t-56.5 -139v-421q0 -105 58 -147t165 -42q86 0 131 14t63 56.5t22 125.5
h201q-7 -130 -47.5 -208.5t-129.5 -112.5t-242 -34zM427 -472v116h185q32 0 44 13.5t12 32.5v64q0 20 -14 33t-42 13h-97v230h111v-166l-31 46q118 0 168 -42t50 -130v-37q0 -71 -46 -122t-159 -51h-181zM450 1242l130 355h240l-235 -355h-135z" />
    <glyph glyph-name="uni1E0A" unicode="&#x1e0a;" horiz-adv-x="1526" 
d="M209 0v1456h596q205 0 324.5 -66t170.5 -178t51 -252v-469q0 -153 -56.5 -263t-176.5 -169t-312 -59h-597zM442 177h342q105 0 179.5 23.5t114.5 86t40 178.5v516q0 116 -40.5 180.5t-115.5 90.5t-178 26h-342v-1101zM656 1632v227h214v-227h-214z" />
    <glyph glyph-name="uni1E0B" unicode="&#x1e0b;" horiz-adv-x="1199" 
d="M140 331v410q0 156 106 250.5t338 94.5q49 0 112 -11t111 -29v462h216v-1508h-146l-31 68q-48 -37 -124.5 -63.5t-159.5 -26.5q-149 0 -242.5 45t-136.5 124.5t-43 183.5zM807 196v689q-37 17 -94 29t-120 12q-105 0 -171 -38t-66 -131v-436q0 -94 63 -137.5t162 -43.5
q72 0 133.5 18.5t92.5 37.5zM494 1599v227h220v-227h-220z" />
    <glyph glyph-name="uni1E0C" unicode="&#x1e0c;" horiz-adv-x="1526" 
d="M209 0v1456h596q205 0 324.5 -66t170.5 -178t51 -252v-469q0 -153 -56.5 -263t-176.5 -169t-312 -59h-597zM442 177h342q105 0 179.5 23.5t114.5 86t40 178.5v516q0 116 -40.5 180.5t-115.5 90.5t-178 26h-342v-1101zM656 -356v227h214v-227h-214z" />
    <glyph glyph-name="uni1E0D" unicode="&#x1e0d;" horiz-adv-x="1199" 
d="M140 331v410q0 156 106 250.5t338 94.5q49 0 112 -11t111 -29v462h216v-1508h-146l-31 68q-48 -37 -124.5 -63.5t-159.5 -26.5q-149 0 -242.5 45t-136.5 124.5t-43 183.5zM807 196v689q-37 17 -94 29t-120 12q-105 0 -171 -38t-66 -131v-436q0 -94 63 -137.5t162 -43.5
q72 0 133.5 18.5t92.5 37.5zM493 -356v227h214v-227h-214z" />
    <glyph glyph-name="uni1E0E" unicode="&#x1e0e;" horiz-adv-x="1526" 
d="M209 0v1456h596q205 0 324.5 -66t170.5 -178t51 -252v-469q0 -153 -56.5 -263t-176.5 -169t-312 -59h-597zM442 177h342q105 0 179.5 23.5t114.5 86t40 178.5v516q0 116 -40.5 180.5t-115.5 90.5t-178 26h-342v-1101zM484 -322v159h558v-159h-558z" />
    <glyph glyph-name="uni1E0F" unicode="&#x1e0f;" horiz-adv-x="1199" 
d="M140 331v410q0 156 106 250.5t338 94.5q49 0 112 -11t111 -29v462h216v-1508h-146l-31 68q-48 -37 -124.5 -63.5t-159.5 -26.5q-149 0 -242.5 45t-136.5 124.5t-43 183.5zM807 196v689q-37 17 -94 29t-120 12q-105 0 -171 -38t-66 -131v-436q0 -94 63 -137.5t162 -43.5
q72 0 133.5 18.5t92.5 37.5zM321 -322v159h558v-159h-558z" />
    <glyph glyph-name="uni1E10" unicode="&#x1e10;" horiz-adv-x="1526" 
d="M209 0v1456h596q205 0 324.5 -66t170.5 -178t51 -252v-469q0 -153 -56.5 -263t-176.5 -169t-312 -59h-597zM442 177h342q105 0 179.5 23.5t114.5 86t40 178.5v516q0 116 -40.5 180.5t-115.5 90.5t-178 26h-342v-1101zM746 -594l-98 41q57 55 83 112.5t26 130.5v14.5
t-1 14.5l48 -86h-166v246h250v-97q0 -126 -34.5 -217t-107.5 -159z" />
    <glyph glyph-name="uni1E11" unicode="&#x1e11;" horiz-adv-x="1199" 
d="M140 331v410q0 156 106 250.5t338 94.5q49 0 112 -11t111 -29v462h216v-1508h-146l-31 68q-48 -37 -124.5 -63.5t-159.5 -26.5q-149 0 -242.5 45t-136.5 124.5t-43 183.5zM807 196v689q-37 17 -94 29t-120 12q-105 0 -171 -38t-66 -131v-436q0 -94 63 -137.5t162 -43.5
q72 0 133.5 18.5t92.5 37.5zM583 -594l-98 41q57 55 83 112.5t26 130.5v14.5t-1 14.5l48 -86h-166v246h250v-97q0 -126 -34.5 -217t-107.5 -159z" />
    <glyph glyph-name="uni1E12" unicode="&#x1e12;" horiz-adv-x="1526" 
d="M209 0v1456h596q205 0 324.5 -66t170.5 -178t51 -252v-469q0 -153 -56.5 -263t-176.5 -169t-312 -59h-597zM442 177h342q105 0 179.5 23.5t114.5 86t40 178.5v516q0 116 -40.5 180.5t-115.5 90.5t-178 26h-342v-1101zM423 -442l249 315h183l249 -315h-152l-234 209h92
l-235 -209h-152z" />
    <glyph glyph-name="uni1E13" unicode="&#x1e13;" horiz-adv-x="1199" 
d="M140 331v410q0 156 106 250.5t338 94.5q49 0 112 -11t111 -29v462h216v-1508h-146l-31 68q-48 -37 -124.5 -63.5t-159.5 -26.5q-149 0 -242.5 45t-136.5 124.5t-43 183.5zM807 196v689q-37 17 -94 29t-120 12q-105 0 -171 -38t-66 -131v-436q0 -94 63 -137.5t162 -43.5
q72 0 133.5 18.5t92.5 37.5zM259 -442l249 315h183l249 -315h-152l-234 209h92l-235 -209h-152z" />
    </font>
</defs>
</svg>
