<?xml version="1.0" standalone="no"?>
<!DOCTYPE svg PUBLIC "-//W3C//DTD SVG 1.1//EN" "http://www.w3.org/Graphics/SVG/1.1/DTD/svg11.dtd" >
<svg xmlns="http://www.w3.org/2000/svg" xmlns:xlink="http://www.w3.org/1999/xlink" version="1.1">
<metadata>
Created by FontForge 20201107 at Fri Apr 12 13:35:01 2024
 By 
Copyright 2021 The Monda Project Authors (https://github.com/googlefonts/mondaFont)
</metadata>
<defs>
<font id="Monda-Regular" horiz-adv-x="0" >
  <font-face 
    font-family="Monda"
    font-weight="400"
    font-stretch="normal"
    units-per-em="2048"
    panose-1="0 0 0 0 0 0 0 0 0 0"
    ascent="1638"
    descent="-410"
    x-height="1060"
    cap-height="1446"
    bbox="-579 -770 2618 2383"
    underline-thickness="50"
    underline-position="-125"
    unicode-range="U+000D-FB02"
  />
<missing-glyph horiz-adv-x="724" 
d="M634 0h-544v1365h544v-1365zM158 1297v-1229h408v1229h-408z" />
    <glyph glyph-name="fi" unicode="fi" horiz-adv-x="1340" 
d="M287 0v918h-177v142h177v161q0 149 81.5 216.5t244.5 67.5h119l12 -133h-116q-86 0 -119.5 -38t-33.5 -95v-179h551v-142h-551v-918h-188zM950 0v1060h188v-1060h-188zM947 1297v208h194v-208h-194z" />
    <glyph glyph-name="fl" unicode="fl" horiz-adv-x="1461" 
d="M287 918h-177v142h177v161q0 149 81.5 216.5t244.5 67.5h416v-133h-401q-86 0 -119.5 -38t-33.5 -95v-179h257v-142h-257v-918h-188v918zM955 358v1147h188v-1149q0 -86 16 -130.5t58.5 -60t120.5 -15.5h33l-22 -158h-54q-116 0 -191.5 27t-112 106t-36.5 233z" />
    <glyph glyph-name="f_f" unicode="ff" horiz-adv-x="1482" 
d="M287 918h-177v142h177v131q0 149 81.5 216.5t244.5 67.5h120l12 -133h-117q-86 0 -119.5 -38t-33.5 -95v-149h487v-142h-487v-918h-188v918zM979 918h-387v142h387v161q0 149 81.5 216.5t244.5 67.5h119l12 -133h-116q-86 0 -119.5 -38t-33.5 -95v-179h257v-142h-257
v-918h-188v918z" />
    <glyph glyph-name="f_f_i" unicode="ffi" horiz-adv-x="2037" 
d="M979 0v918h-387v142h387v161q0 149 81.5 216.5t244.5 67.5h119l12 -133h-116q-86 0 -119.5 -38t-33.5 -95v-179h571v-142h-571v-918h-188zM287 0v918h-177v142h177v131q0 149 81.5 216.5t244.5 67.5h120l12 -133h-117q-86 0 -119.5 -38t-33.5 -95v-149h487v-142h-487
v-918h-188zM1647 0v1060h188v-1060h-188zM1644 1297v208h194v-208h-194z" />
    <glyph glyph-name="f_f_l" unicode="ffl" horiz-adv-x="2153" 
d="M979 0v918h-407v142h407v161q0 149 81.5 216.5t244.5 67.5h416v-133h-401q-86 0 -119.5 -38t-33.5 -95v-179h257v-142h-257v-918h-188zM287 0v918h-177v142h177v131q0 149 81.5 216.5t244.5 67.5h119l12 -133h-116q-86 0 -119.5 -38t-33.5 -95v-149h507v-142h-507v-918
h-188zM1987 -8q-116 0 -191.5 27t-112 106t-36.5 233v1147h188v-1149q0 -86 16 -130.5t58.5 -60t120.5 -15.5h33l-22 -158h-54z" />
    <glyph glyph-name=".notdef" horiz-adv-x="724" 
d="M634 0h-544v1365h544v-1365zM158 1297v-1229h408v1229h-408z" />
    <glyph glyph-name=".null" 
 />
    <glyph glyph-name="nonmarkingreturn" horiz-adv-x="682" 
 />
    <glyph glyph-name="CR" unicode="&#xd;" horiz-adv-x="600" 
 />
    <glyph glyph-name="space" unicode=" " horiz-adv-x="512" 
 />
    <glyph glyph-name="exclam" unicode="!" horiz-adv-x="768" 
d="M353 371q-15 148 -27 302t-21 299t-14 267t-5 207h202q0 -84 -6 -206t-16.5 -266.5t-25 -299t-31.5 -303.5h-56zM265 0v236h234v-236h-234z" />
    <glyph glyph-name="quotedbl" unicode="&#x22;" horiz-adv-x="890" 
d="M553 930l-44 576h205l-49 -576h-112zM220 930l-44 576h205l-49 -576h-112z" />
    <glyph glyph-name="numbersign" unicode="#" horiz-adv-x="1284" 
d="M180 0l87 475h-181v119h203l57 316h-236v119h258l76 417h170l-74 -417h301l76 417h170l-74 -417h185v-119h-206l-56 -316h238v-119h-259l-84 -475h-178l87 475h-298l-84 -475h-178zM463 594h299l57 316h-300z" />
    <glyph glyph-name="dollar" unicode="$" horiz-adv-x="1304" 
d="M628 -219v1884h95v-1884h-95zM691 -22q-161 0 -297 34.5t-250 100.5l71 154q83 -49 211 -88t261 -39q118 0 180.5 31t86.5 96.5t24 169.5q0 41 -13.5 73t-51 59t-111.5 51l-349 116q-100 33 -162 77.5t-91 111t-29 164.5q0 139 63.5 222t173.5 120t248 37
q185 0 300 -28.5t185 -72.5l-49 -157q-65 35 -162.5 65.5t-238.5 30.5q-157 0 -241 -41t-84 -177q0 -66 28.5 -107.5t120.5 -73.5l364 -123q148 -50 216.5 -132t68.5 -246q0 -133 -48 -229t-152.5 -147.5t-272.5 -51.5z" />
    <glyph glyph-name="percent" unicode="%" horiz-adv-x="1872" 
d="M462 678q-115 0 -180 47.5t-91.5 132.5t-26.5 199v53q0 175 62.5 273t235.5 98t237.5 -97.5t64.5 -272.5v-54q0 -114 -27.5 -199.5t-93.5 -132.5t-181 -47zM462 794q69 0 102.5 32t44 88t10.5 126v93q0 69 -9 121.5t-42.5 81.5t-105.5 29q-71 0 -104 -29t-42 -81t-9 -120
v-95q0 -70 10 -126t43 -88t102 -32zM580 0l543 1446h149l-538 -1446h-154zM1406 -19q-115 0 -180 47t-91.5 132.5t-26.5 199.5v53q0 175 62.5 273t235.5 98t237.5 -97.5t64.5 -272.5v-54q0 -114 -27.5 -199.5t-93.5 -132.5t-181 -47zM1406 97q69 0 102.5 32t44 88t10.5 126
v93q0 69 -9 121t-42.5 81.5t-105.5 29.5q-71 0 -104 -29t-42 -81t-9 -120v-95q0 -70 10 -126t43 -88t102 -32z" />
    <glyph glyph-name="ampersand" unicode="&#x26;" horiz-adv-x="1500" 
d="M176 439q0 151 59 242.5t204 134.5q-79 73 -127 142t-48 184q0 91 36.5 168.5t129 125t259.5 47.5q144 0 240.5 -20.5t145.5 -80t49 -177.5v-101h-166v60q0 69 -24.5 105t-80 49t-149.5 13q-105 0 -159 -27t-72.5 -73.5t-18.5 -104.5q0 -39 11 -71.5t38 -67t74 -80.5
l523 -497q1 11 1 22v23v323h175v-278q0 -65 -3 -125.5t-16 -113.5l175 -167l-104 -113l-142 133q-56 -64 -166 -101t-300 -37q-166 0 -272.5 38t-165.5 103t-82.5 148.5t-23.5 173.5zM1063 230l-525 493q-75 -21 -108.5 -63.5t-42.5 -98t-9 -116.5q0 -103 32 -174t107 -108
t203 -37q93 0 160.5 6.5t112.5 28.5t70 69z" />
    <glyph glyph-name="quotesingle" unicode="'" horiz-adv-x="557" 
d="M176 1506h205l-49 -576h-112z" />
    <glyph glyph-name="parenleft" unicode="(" horiz-adv-x="768" 
d="M644 -150q-178 0 -281 52.5t-147 169t-44 308.5v639q0 198 44.5 318.5t147.5 175t280 54.5v-151q-112 0 -173 -32.5t-84 -110.5t-23 -217v-707q0 -135 22.5 -211t83.5 -107t174 -31v-150z" />
    <glyph glyph-name="parenright" unicode=")" horiz-adv-x="768" 
d="M122 -150v150q114 0 174.5 31t83 107t22.5 211v707q0 139 -23 217t-83.5 110.5t-173.5 32.5v151q177 0 280.5 -54.5t147.5 -175t44 -318.5v-639q0 -192 -44 -308.5t-147 -169t-281 -52.5z" />
    <glyph glyph-name="asterisk" unicode="*" horiz-adv-x="1024" 
d="M423 599l29 325l-273 -174l-80 161l290 117l-280 142l95 153l247 -190l-28 313h178l-30 -325l273 174l81 -161l-291 -117l280 -142l-95 -153l-247 190l29 -313h-178z" />
    <glyph glyph-name="plus" unicode="+" horiz-adv-x="1024" 
d="M437 494h-275v148h275v326h151v-326h274v-148h-274v-338h-151v338z" />
    <glyph glyph-name="comma" unicode="," horiz-adv-x="641" 
d="M196 -294q24 28 56 71.5t56.5 100t24.5 122.5h-141v233h257v-183q0 -95 -31 -173t-71.5 -133t-69.5 -82z" />
    <glyph glyph-name="hyphen" unicode="-" horiz-adv-x="904" 
d="M172 499v143h560v-143h-560z" />
    <glyph glyph-name="period" unicode="." horiz-adv-x="628" 
d="M186 242h256v-242h-256v242z" />
    <glyph glyph-name="slash" unicode="/" horiz-adv-x="768" 
d="M521 1506h183l-453 -1506h-187z" />
    <glyph glyph-name="zero" unicode="0" horiz-adv-x="1250" 
d="M625 -22q-145 0 -238.5 39t-147 106t-78.5 152t-31.5 178t-6.5 183v154q0 92 6.5 187.5t31 183t78 157t147.5 110t239 40.5t239 -40.5t147.5 -110t78 -157t31 -183t6.5 -187.5v-154q0 -90 -6.5 -183t-31.5 -178t-78.5 -152t-147 -106t-238.5 -39zM625 140q107 0 168 38.5
t89 105t35.5 153t7.5 182.5v197q0 96 -7.5 184.5t-36 157t-89 108.5t-167.5 40q-106 0 -167 -40t-89.5 -108.5t-36 -157t-7.5 -184.5v-197q0 -96 7.5 -182.5t35.5 -153t89 -105t168 -38.5z" />
    <glyph glyph-name="one" unicode="1" horiz-adv-x="1250" 
d="M206 155h401v1167l45 -40l-419 -45l-18 159l429 50h164v-1291h354v-155h-956v155z" />
    <glyph glyph-name="two" unicode="2" horiz-adv-x="1250" 
d="M231 0l-19 158l489 531q73 79 118 135.5t65.5 110t20.5 122.5q0 139 -60 194t-191 55q-105 0 -168.5 -21.5t-92 -82t-28.5 -178.5h-201q0 239 128 341.5t347 102.5q156 0 257 -54.5t150 -147t49 -207.5q0 -96 -23.5 -167.5t-77.5 -142.5t-146 -168l-433 -458l-19 33h691
v-156h-856z" />
    <glyph glyph-name="three" unicode="3" horiz-adv-x="1250" 
d="M679 -22q-161 0 -258 42.5t-146.5 141.5t-66.5 269h192q8 -121 38.5 -183.5t91.5 -85t160 -22.5q130 0 187.5 66t57.5 193q0 112 -24.5 175.5t-99 90t-224.5 26.5v149q116 0 181.5 15.5t95.5 47t37.5 78t7.5 107.5q0 102 -52 160t-181 58q-89 0 -148 -18.5t-88.5 -78.5
t-29.5 -184h-192q0 184 60.5 279.5t164.5 129.5t232 34q125 0 220 -39.5t148.5 -122.5t53.5 -215q0 -101 -26.5 -171t-85 -108.5t-156.5 -47.5l6 9q92 -14 157 -53t99.5 -115.5t34.5 -206.5q0 -138 -52.5 -231.5t-152.5 -141t-242 -47.5z" />
    <glyph glyph-name="four" unicode="4" horiz-adv-x="1250" 
d="M783 0v351h-640v157l529 938h209l-536 -979l-23 39h461v331h167v-331h212v-155h-212v-351h-167z" />
    <glyph glyph-name="five" unicode="5" horiz-adv-x="1250" 
d="M632 -22q-89 0 -165.5 14t-147.5 43t-146 72l53 153q70 -46 128 -72t121.5 -37t148.5 -11q140 0 222 71t82 228q0 102 -28.5 174.5t-89 110.5t-155.5 38q-82 0 -151.5 -34.5t-123.5 -75.5l-144 60l51 734h737v-165h-576l-33 -487l-28 10q46 50 123.5 78.5t168.5 28.5
q145 0 242 -54t146.5 -157t49.5 -251q0 -163 -63 -267.5t-172.5 -154t-249.5 -49.5z" />
    <glyph glyph-name="six" unicode="6" horiz-adv-x="1250" 
d="M653 -22q-177 0 -281 62.5t-149 166.5t-45 229q0 98 24 187t70 183t112 208l249 432h200l-406 -688l-21 35q67 49 125.5 67t147.5 18q150 0 250.5 -55t151.5 -152t51 -225q0 -126 -46.5 -232.5t-151.5 -171t-281 -64.5zM661 140q117 0 178.5 40.5t83.5 106t22 139.5
q0 73 -22.5 139t-84.5 108t-181 42q-117 0 -180.5 -42t-87.5 -108t-24 -139q0 -74 24.5 -139.5t88.5 -106t183 -40.5z" />
    <glyph glyph-name="seven" unicode="7" horiz-adv-x="1250" 
d="M358 0l516 1333l29 -52h-725v165h881v-157l-490 -1289h-211z" />
    <glyph glyph-name="eight" unicode="8" horiz-adv-x="1250" 
d="M623 -22q-180 0 -288 53.5t-155.5 144.5t-47.5 204q0 137 88 238t233 157l6 -27q-77 37 -145.5 84t-111 114.5t-42.5 163.5q0 93 46.5 174.5t148.5 132.5t268 51q180 0 282 -52t143.5 -132.5t41.5 -166.5q0 -84 -37 -150.5t-106.5 -118t-169.5 -89.5l17 25
q86 -41 159.5 -94t119 -127.5t45.5 -181.5q0 -112 -48.5 -203.5t-157.5 -145.5t-289 -54zM631 140q122 0 185.5 32t87 88t23.5 126q0 84 -49.5 140.5t-130.5 99t-175 82.5l78 -10q-160 -55 -243.5 -130.5t-83.5 -181.5q0 -70 26 -126t93 -88t189 -32zM597 840
q71 22 141.5 60.5t117.5 91.5t47 118q0 47 -17.5 92t-75 74.5t-179.5 29.5q-108 0 -170 -27.5t-88 -71t-26 -92.5q0 -69 47.5 -119t125 -89t166.5 -77z" />
    <glyph glyph-name="nine" unicode="9" horiz-adv-x="1250" 
d="M451 0l406 688l21 -35q-67 -49 -125.5 -67t-147.5 -18q-150 0 -251 55t-152 152.5t-51 224.5t46.5 233t152 170.5t281.5 64.5q177 0 281 -62.5t149 -166.5t45 -229q0 -98 -24 -187t-70 -183t-112 -208l-249 -432h-200zM627 731q118 0 181 42t87 108.5t24 138.5
q0 75 -24.5 140t-88.5 105.5t-183 40.5q-118 0 -179 -40.5t-83.5 -105.5t-22.5 -140q0 -72 22.5 -138.5t85 -108.5t181.5 -42z" />
    <glyph glyph-name="colon" unicode=":" horiz-adv-x="768" 
d="M256 242h256v-242h-256v242zM256 961h256v-242h-256v242z" />
    <glyph glyph-name="semicolon" unicode=";" horiz-adv-x="768" 
d="M268 -294q24 28 56 71.5t56.5 100t24.5 122.5h-141v233h257v-183q0 -95 -31 -173t-71.5 -133t-69.5 -82zM248 961h256v-242h-256v242z" />
    <glyph glyph-name="less" unicode="&#x3c;" horiz-adv-x="1024" 
d="M862 134l-700 350v158l700 350v-158l-602 -292v42l602 -292v-158z" />
    <glyph glyph-name="equal" unicode="=" horiz-adv-x="1024" 
d="M162 664v148h700v-148h-700zM162 324v148h700v-148h-700z" />
    <glyph glyph-name="greater" unicode="&#x3e;" horiz-adv-x="1024" 
d="M162 134v158l602 292v-42l-602 292v158l700 -350v-158z" />
    <glyph glyph-name="question" unicode="?" horiz-adv-x="1240" 
d="M740 795q65 86 104 153t39 155q0 60 -19 105.5t-68 71.5t-139 26q-108 0 -169 -26t-86.5 -73.5t-25.5 -114.5v-53h-197v32q0 114 27 190.5t84 122t148 65t219 19.5q131 0 216 -32t134 -84t69 -114.5t20 -123.5q0 -91 -33 -165.5t-92 -145.5t-137 -153l-208 -219h-160z
M425 0v236h234v-236h-234z" />
    <glyph glyph-name="at" unicode="@" horiz-adv-x="1468" 
d="M780 -313q-307 0 -469.5 136.5t-162.5 413.5v393q0 247 141 367.5t429 120.5q278 0 406 -96t128 -295v-403q0 -71 23.5 -95t92.5 -24l-20 -148h-40q-112 0 -160.5 45.5t-48.5 128.5l12 -4q-45 -92 -127 -139.5t-207 -47.5q-90 0 -160 37.5t-109.5 100.5t-39.5 140
q0 125 69.5 206.5t212.5 122.5l323 93q0 79 -35.5 128.5t-113.5 73.5t-206 24q-199 0 -290.5 -70.5t-91.5 -224.5v-468q0 -191 112.5 -280t331.5 -89q125 0 239.5 25.5t207.5 68.5l50 -141q-98 -44 -228.5 -72t-268.5 -28zM819 188q86 0 157.5 46t96.5 113v263l-278 -94
q-79 -27 -111 -71.5t-32 -111.5q0 -64 43.5 -104.5t123.5 -40.5z" />
    <glyph glyph-name="A" unicode="A" horiz-adv-x="1428" 
d="M86 0l539 1446h177l540 -1446h-205l-433 1259l30 -1l-439 -1258h-209zM306 282l48 148h723l46 -148h-817z" />
    <glyph glyph-name="B" unicode="B" horiz-adv-x="1420" 
d="M218 0v1446h524q201 0 304 -46.5t139.5 -135.5t36.5 -215q0 -103 -48 -180t-170 -106l3 16q96 -13 159 -63.5t94.5 -128.5t31.5 -176q0 -215 -121 -313t-385 -98h-568zM420 149h351q112 0 183.5 22t105.5 83t34 179q0 66 -22.5 126.5t-81.5 98.5t-170 38h-400v-547z
M420 833h371q91 0 141 26.5t69.5 74.5t19.5 113q0 105 -26.5 158t-94 71.5t-189.5 18.5h-291v-462z" />
    <glyph glyph-name="C" unicode="C" horiz-adv-x="1456" 
d="M761 -22q-181 0 -295 37t-175.5 104.5t-85 160.5t-23.5 206v454q0 115 22.5 211.5t84 167.5t175 110t295.5 39q164 0 270 -29.5t165 -87.5t82.5 -143.5t23.5 -197.5v-13l-191 -17v27q0 131 -33.5 195t-110.5 84t-206 20q-127 0 -210 -28.5t-124 -100t-41 -200.5v-522
q0 -128 42 -196t126.5 -93.5t212.5 -25.5q126 0 201.5 17t109 77.5t33.5 189.5v24h191v-10q0 -109 -20.5 -194.5t-76.5 -144.5t-162.5 -90t-279.5 -31z" />
    <glyph glyph-name="D" unicode="D" horiz-adv-x="1522" 
d="M218 0v1446h574q201 0 321 -64.5t173.5 -174.5t53.5 -248v-477q0 -156 -60 -263.5t-181 -163t-305 -55.5h-576zM420 150h354q104 0 186.5 22.5t130.5 89.5t48 200v509q0 134 -48.5 203.5t-131 95t-185.5 25.5h-354v-1145z" />
    <glyph glyph-name="E" unicode="E" horiz-adv-x="1255" 
d="M218 1446h903v-150h-702v-476h620v-150h-620v-520h714v-150h-915v1446z" />
    <glyph glyph-name="F" unicode="F" horiz-adv-x="1159" 
d="M218 1446h821v-150h-620v-482h584v-150h-584v-664h-201v1446z" />
    <glyph glyph-name="G" unicode="G" horiz-adv-x="1556" 
d="M788 -22q-181 0 -298.5 37t-183.5 104.5t-93 160.5t-27 206v454q0 115 26.5 211.5t92.5 167.5t183.5 110t299.5 39q175 0 284.5 -32.5t168.5 -91t81 -137t22 -170.5v-22l-184 -15v22q0 112 -30.5 173.5t-111 86t-230.5 24.5q-127 0 -216.5 -28.5t-136.5 -100t-47 -200.5
v-522q0 -128 46.5 -196t136 -93.5t217.5 -25.5q129 0 211 25.5t120.5 93.5t38.5 196v133h-343v147h545v-735h-110l-25 246q-9 -59 -38.5 -108t-82 -85t-131 -55.5t-185.5 -19.5z" />
    <glyph glyph-name="H" unicode="H" horiz-adv-x="1528" 
d="M212 1446h201v-639h702v639h201v-1446h-201v659h-702v-659h-201v1446z" />
    <glyph glyph-name="I" unicode="I" horiz-adv-x="1132" 
d="M190 150h276v1147h-276v149h752v-149h-275v-1147h275v-150h-752v150z" />
    <glyph glyph-name="J" unicode="J" horiz-adv-x="1206" 
d="M102 70l55 155q24 -11 81 -29.5t131 -33t147 -14.5q143 0 207 73.5t64 213.5v846h-553v165h754v-1015q0 -205 -111 -326.5t-355 -121.5q-84 0 -168.5 14.5t-151.5 35t-100 37.5z" />
    <glyph glyph-name="K" unicode="K" horiz-adv-x="1418" 
d="M675 701l-27 -4l-229 -260v-437h-201v1446h201v-789l684 789h218zM599 744l141 108l610 -852h-223z" />
    <glyph glyph-name="L" unicode="L" horiz-adv-x="1145" 
d="M218 1446h201v-1291h649v-155h-850v1446z" />
    <glyph glyph-name="M" unicode="M" horiz-adv-x="1778" 
d="M218 0v1446h185l520 -846h-56l515 846h178v-1446h-190v1166l23 -7l-428 -701h-149l-428 697l22 7v-1162h-192z" />
    <glyph glyph-name="N" unicode="N" horiz-adv-x="1594" 
d="M218 1446h153l854 -1193l-26 -8v1201h177v-1446h-179l-828 1140l26 9v-1149h-177v1446z" />
    <glyph glyph-name="O" unicode="O" horiz-adv-x="1546" 
d="M782 -22q-181 0 -297.5 37t-181.5 104.5t-91 160.5t-26 206v455q0 115 25.5 211t90.5 167t181.5 110t298.5 39q175 0 288 -41t176 -114.5t88.5 -171.5t25.5 -213v-428q0 -111 -25.5 -206.5t-89 -166t-176.5 -110t-287 -39.5zM782 140q129 0 212.5 25.5t124 93.5t40.5 196
v523q0 129 -41 200t-124.5 99.5t-211.5 28.5q-127 0 -215 -28.5t-133.5 -99.5t-45.5 -200v-523q0 -128 45 -196t133 -93.5t216 -25.5z" />
    <glyph glyph-name="P" unicode="P" horiz-adv-x="1326" 
d="M218 1446h578q182 0 292 -104t110 -351q0 -173 -50 -274t-141 -144.5t-214 -43.5h-373v-529h-202v1446zM797 682q88 0 130 42.5t55.5 110.5t13.5 142q0 71 -11 144t-51.5 122.5t-131.5 49.5h-382v-611h377z" />
    <glyph glyph-name="Q" unicode="Q" horiz-adv-x="1542" 
d="M944 -384l-230 363q-213 10 -327 76t-157.5 177t-43.5 254v455q0 115 25.5 211t90.5 167t181.5 110t298.5 39q175 0 288 -41t176 -114.5t88.5 -171.5t25.5 -213v-428q0 -135 -39 -246t-139.5 -182t-286.5 -89l190 -291zM782 140q129 0 212.5 25.5t124 93.5t40.5 196v523
q0 129 -41 200t-124.5 99.5t-211.5 28.5q-127 0 -215 -28.5t-133.5 -99.5t-45.5 -200v-523q0 -128 45 -196t133 -93.5t216 -25.5z" />
    <glyph glyph-name="R" unicode="R" horiz-adv-x="1464" 
d="M218 0v1446h645q122 0 212.5 -39.5t141 -133t50.5 -255.5q0 -117 -26 -192t-71.5 -119.5t-106.5 -70.5l307 -636h-207l-287 600h-456v-600h-202zM420 752h426q88 0 135 33t65.5 89.5t18.5 125.5q0 70 -11.5 137t-52.5 111.5t-132 44.5h-449v-541z" />
    <glyph glyph-name="S" unicode="S" horiz-adv-x="1304" 
d="M691 -22q-161 0 -297 34.5t-250 100.5l71 154q83 -49 211 -88t261 -39q118 0 180.5 31t86.5 96.5t24 169.5q0 41 -13.5 73t-51 59t-111.5 51l-349 116q-100 33 -162 77.5t-91 111t-29 164.5q0 139 63.5 222t173.5 120t248 37q185 0 300 -28.5t185 -72.5l-49 -157
q-65 35 -162.5 65.5t-238.5 30.5q-157 0 -241 -41t-84 -177q0 -66 28.5 -107.5t120.5 -73.5l364 -123q148 -50 216.5 -132t68.5 -246q0 -133 -48 -229t-152.5 -147.5t-272.5 -51.5z" />
    <glyph glyph-name="T" unicode="T" horiz-adv-x="1204" 
d="M501 0v1281h-417v165h1036v-165h-418v-1281h-201z" />
    <glyph glyph-name="U" unicode="U" horiz-adv-x="1538" 
d="M779 -22q-177 0 -290.5 39t-176.5 107t-87.5 157.5t-24.5 191.5v973h202v-994q0 -133 52.5 -200t138.5 -89.5t186 -22.5q102 0 182.5 22.5t127.5 89.5t47 200v994h202v-973q0 -100 -24.5 -189.5t-85.5 -158.5t-170 -108t-279 -39z" />
    <glyph glyph-name="V" unicode="V" horiz-adv-x="1386" 
d="M86 1446h207l399 -1152l399 1152h209l-521 -1446h-177z" />
    <glyph glyph-name="W" unicode="W" horiz-adv-x="2048" 
d="M112 1446h184l307 -1100l315 1100h215l329 -1100l291 1100h183l-394 -1446h-152l-353 1232l-363 -1232h-152z" />
    <glyph glyph-name="X" unicode="X" horiz-adv-x="1336" 
d="M116 1446h217l909 -1446h-220zM755 696l-116 140l378 610h216zM577 770l116 -140l-383 -630h-216z" />
    <glyph glyph-name="Y" unicode="Y" horiz-adv-x="1318" 
d="M560 568l-512 878h213l422 -741h-44l424 741h207l-509 -878v-568h-201v568z" />
    <glyph glyph-name="Z" unicode="Z" horiz-adv-x="1242" 
d="M180 150l682 1131h-651v165h872v-151l-681 -1130h694v-165h-916v150z" />
    <glyph glyph-name="bracketleft" unicode="[" horiz-adv-x="768" 
d="M256 1529h378v-133h-190v-1338h190v-134h-378v1605z" />
    <glyph glyph-name="backslash" unicode="\" horiz-adv-x="768" 
d="M64 1506h187l453 -1506h-183z" />
    <glyph glyph-name="bracketright" unicode="]" horiz-adv-x="768" 
d="M195 57h190v1338h-190v134h378v-1605h-378v133z" />
    <glyph glyph-name="asciicircum" unicode="^" horiz-adv-x="1257" 
d="M513 1283h222l368 -657h-193l-303 575h42l-301 -575h-194z" />
    <glyph glyph-name="underscore" unicode="_" horiz-adv-x="790" 
d="M0 -237v143h790v-143h-790z" />
    <glyph glyph-name="grave" unicode="`" horiz-adv-x="480" 
d="M292 1235l-232 350h225l135 -350h-128z" />
    <glyph glyph-name="a" unicode="a" horiz-adv-x="1172" 
d="M465 -22q-117 0 -190.5 40.5t-108 107t-34.5 142.5q0 80 31.5 134.5t119 99t256.5 93.5q88 26 141 46t77 51t24 89q0 43 -13.5 78t-55 56t-126.5 21q-106 0 -155 -22t-62.5 -57.5t-13.5 -78.5v-47h-181v48q0 157 105 229t313 72q140 0 222.5 -44.5t118.5 -125.5t36 -190
v-452q0 -84 21.5 -108t89.5 -24l-22 -144h-38q-106 0 -153 41.5t-71 116.5q-23 -36 -63.5 -76t-105 -68t-162.5 -28zM488 118q57 0 119 24.5t110.5 65t63.5 89.5v279q-22 -22 -76.5 -57.5t-155.5 -64.5q-123 -35 -180.5 -72t-57.5 -108q0 -80 41.5 -118t135.5 -38z" />
    <glyph glyph-name="b" unicode="b" horiz-adv-x="1204" 
d="M626 -22q-94 0 -164.5 33.5t-112.5 59.5l-24 -71h-139v1505h188v-495q51 29 128 49.5t162 20.5q131 0 218 -44.5t130.5 -122t43.5 -177.5v-384q0 -106 -50 -191t-146 -134t-234 -49zM598 126q111 0 190.5 54.5t79.5 151.5v418q0 95 -61.5 140.5t-165.5 45.5
q-66 0 -140 -21t-127 -45v-682q41 -23 99 -42.5t125 -19.5z" />
    <glyph glyph-name="c" unicode="c" horiz-adv-x="1106" 
d="M579 -22q-158 0 -252.5 50.5t-136.5 134t-42 181.5v404q0 150 114.5 241t311.5 91q127 0 221 -29.5t145.5 -106.5t51.5 -220l-179 -17q0 97 -22 146t-73 66t-139 17q-121 0 -182 -43.5t-61 -149.5v-415q0 -114 64.5 -160t178.5 -46q93 0 141.5 13.5t68.5 54t27 120.5h174
q-10 -122 -52 -195t-128.5 -105t-230.5 -32z" />
    <glyph glyph-name="d" unicode="d" horiz-adv-x="1200" 
d="M148 335v400q0 160 106 252.5t337 92.5q50 0 118 -11t117 -29v465h188v-1505h-128l-31 70q-46 -36 -125.5 -64t-161.5 -28q-152 0 -244.5 47t-134 127.5t-41.5 182.5zM826 189v703q-42 20 -104.5 32t-128.5 12q-111 0 -184 -41t-73 -139v-435q0 -99 70.5 -147t173.5 -48
q80 0 147 22t99 41z" />
    <glyph glyph-name="e" unicode="e" horiz-adv-x="1138" 
d="M148 374v369q0 150 103 243.5t331 93.5q218 0 321 -85.5t103 -236.5v-252h-670v-149q0 -129 51.5 -182t201.5 -53q89 0 140.5 6.5t76 40t32.5 113.5h166q-13 -125 -54.5 -190.5t-127.5 -89.5t-233 -24q-158 0 -255 44t-141.5 132t-44.5 220zM824 633v145q0 64 -30.5 98
t-84.5 47t-127 13q-112 0 -179 -39t-67 -137v-127h488z" />
    <glyph glyph-name="f" unicode="f" horiz-adv-x="790" 
d="M287 918h-177v142h177v161q0 149 81.5 216.5t244.5 67.5h119l12 -133h-116q-86 0 -119.5 -38t-33.5 -95v-179h257v-142h-257v-918h-188v918z" />
    <glyph glyph-name="g" unicode="g" horiz-adv-x="1182" 
d="M573 -408q-107 0 -184 9t-136 31l42 141q43 -16 119 -27t150 -11q137 0 197.5 58t60.5 176v147q-30 -28 -80.5 -44.5t-102.5 -24t-89 -7.5q-203 0 -302.5 87t-99.5 252v349q0 107 43 186t132 122.5t227 43.5q54 0 111.5 -16t101.5 -40t59 -49v85h188v-1035
q0 -124 -40.5 -222t-136 -154.5t-260.5 -56.5zM579 184q105 0 163 31t80 49v526q0 69 -59.5 107.5t-184.5 38.5q-111 0 -176.5 -45t-65.5 -143v-398q0 -95 70 -130.5t173 -35.5z" />
    <glyph glyph-name="h" unicode="h" horiz-adv-x="1224" 
d="M186 1505h188v-545q47 54 124 87t192 33q131 0 210 -41.5t114.5 -111.5t35.5 -154v-773h-188v783q0 53 -27.5 86.5t-77 50t-115.5 16.5q-92 0 -151.5 -23.5t-88 -63.5t-28.5 -91v-758h-188v1505z" />
    <glyph glyph-name="i" unicode="i" horiz-adv-x="596" 
d="M206 1060h188v-1060h-188v1060zM203 1297v208h194v-208h-194z" />
    <glyph glyph-name="j" unicode="j" horiz-adv-x="602" 
d="M13 -197h29q67 0 108.5 13t61.5 54t20 126v1064h188v-1053q0 -156 -37.5 -233t-109.5 -102t-175 -25h-66zM229 1297v208h194v-208h-194z" />
    <glyph glyph-name="k" unicode="k" horiz-adv-x="1145" 
d="M186 1505h188v-981l507 536h206l-431 -466l474 -594h-217l-380 492l-159 -158v-334h-188v1505z" />
    <glyph glyph-name="l" unicode="l" horiz-adv-x="696" 
d="M190 358v1147h188v-1149q0 -86 16 -130.5t58 -60t121 -15.5h33l-22 -158h-54q-116 0 -191.5 27t-112 106t-36.5 233z" />
    <glyph glyph-name="m" unicode="m" horiz-adv-x="1860" 
d="M186 1060h188v-103q31 36 72.5 64t98 43.5t133.5 15.5q123 0 198.5 -38.5t112.5 -100.5q69 68 150.5 103.5t196.5 35.5q131 0 207 -42.5t108.5 -113t32.5 -154.5v-770h-188v781q0 79 -55 117t-153 38q-92 0 -148.5 -24t-82 -65t-25.5 -92v-755h-188v781q0 79 -58 117
t-156 38q-92 0 -148.5 -24t-82 -65t-25.5 -92v-755h-188v1060z" />
    <glyph glyph-name="n" unicode="n" horiz-adv-x="1226" 
d="M186 1060h188v-103q47 54 123 88.5t191 34.5q131 0 210.5 -42.5t115.5 -113t36 -154.5v-770h-188v781q0 53 -28 87t-78 51t-116 17q-92 0 -151 -24t-87 -65t-28 -92v-755h-188v1060z" />
    <glyph glyph-name="o" unicode="o" horiz-adv-x="1174" 
d="M587 -22q-159 0 -255.5 43.5t-140 119.5t-43.5 174v427q0 98 43.5 174.5t140 120t255.5 43.5q158 0 254.5 -43.5t140.5 -120t44 -174.5v-427q0 -98 -44 -174t-140.5 -119.5t-254.5 -43.5zM587 122q110 0 180.5 39.5t70.5 137.5v459q0 98 -70.5 138t-180.5 40
q-112 0 -181.5 -40t-69.5 -138v-459q0 -98 69.5 -137.5t181.5 -39.5z" />
    <glyph glyph-name="p" unicode="p" horiz-adv-x="1198" 
d="M186 -408v1468h148l22 -80q42 38 121.5 69t170.5 31q203 0 302.5 -99t99.5 -252v-385q0 -106 -49 -189t-144 -130t-233 -47q-89 0 -150.5 18.5t-99.5 37.5v-442h-188zM612 122q111 0 180.5 52.5t69.5 149.5v420q0 95 -69.5 143.5t-173.5 48.5q-66 0 -118.5 -22.5
t-85 -49.5t-41.5 -40v-645q36 -20 96 -38.5t142 -18.5z" />
    <glyph glyph-name="q" unicode="q" horiz-adv-x="1200" 
d="M826 47q-49 -37 -123.5 -53t-129.5 -16q-135 0 -230 41.5t-145 117t-50 177.5v414q0 160 102.5 256t309.5 96q54 0 110 -16t98.5 -40t57.5 -49v85h188v-1468h-188v455zM585 122q105 0 169.5 31.5t71.5 47.5v609q0 44 -56.5 85t-181.5 41q-111 0 -181.5 -45t-70.5 -143
v-464q0 -95 73 -128.5t176 -33.5z" />
    <glyph glyph-name="r" unicode="r" horiz-adv-x="798" 
d="M186 1060h188v-150q23 60 83.5 96.5t137.5 52.5t147 16l-6 -161q-68 0 -132.5 -14t-116.5 -38.5t-82.5 -55.5t-30.5 -64v-742h-188v1060z" />
    <glyph glyph-name="s" unicode="s" horiz-adv-x="992" 
d="M142 64l46 138q35 -19 121 -49.5t194 -30.5q125 0 169 46t44 113q0 62 -16.5 98t-91.5 64l-252 92q-115 42 -161 99t-46 156q0 134 74 212t270 78q112 0 205.5 -17.5t151.5 -40.5l-43 -144q-30 13 -79 26t-102 22.5t-98 9.5q-129 0 -166.5 -32.5t-37.5 -104.5
q0 -49 18.5 -72.5t72.5 -44.5l249 -97q89 -34 134.5 -72.5t61.5 -92.5t16 -137t-34.5 -152.5t-111 -111t-202.5 -41.5q-148 0 -249 33t-137 53z" />
    <glyph glyph-name="t" unicode="t" horiz-adv-x="832" 
d="M257 303v615h-177v142h184l23 328h158v-328h266v-142h-266v-603q0 -105 62 -135t196 -30h21l-20 -158h-28q-145 0 -237.5 29t-137 97.5t-44.5 184.5z" />
    <glyph glyph-name="u" unicode="u" horiz-adv-x="1224" 
d="M541 -22q-130 0 -210.5 43t-117.5 114t-37 155v770h188v-771q0 -52 26 -89.5t74.5 -57.5t113.5 -20q92 0 152.5 28t90 71.5t29.5 87.5v751h188v-1060h-168l-20 133q-40 -71 -116.5 -113t-192.5 -42z" />
    <glyph glyph-name="v" unicode="v" horiz-adv-x="1104" 
d="M64 1060h189l335 -902l-30 -1l298 903h184l-375 -1060h-190z" />
    <glyph glyph-name="w" unicode="w" horiz-adv-x="1614" 
d="M52 1060h172l247 -875h-25l268 875h181l280 -875h-26l239 875h174l-310 -1060h-175l-285 888h28l-285 -888h-178z" />
    <glyph glyph-name="x" unicode="x" horiz-adv-x="1056" 
d="M801 0l-326 473l-405 587h199l314 -455l417 -605h-199zM64 0l380 565l102 -130l-282 -435h-200zM611 502l-100 130l286 428h198z" />
    <glyph glyph-name="y" unicode="y" horiz-adv-x="1118" 
d="M198 -406v147q111 0 181 45t118 160l33 79v-69l-454 1104h194l351 -902h-40l291 902h188l-404 -1158q-54 -155 -157 -231.5t-301 -76.5z" />
    <glyph glyph-name="z" unicode="z" horiz-adv-x="959" 
d="M140 126l525 836l21 -44h-528v142h687v-125l-531 -841l-21 48h561v-142h-714v126z" />
    <glyph glyph-name="braceleft" unicode="{" horiz-adv-x="952" 
d="M866 -207q-178 0 -276.5 30.5t-141.5 89t-52.5 144t-9.5 196.5v41q0 100 -3 156.5t-17.5 83t-48.5 33.5t-96 7h-63v151h63q62 0 96 7t48.5 33.5t17.5 83t3 156.5v41q0 111 9.5 196.5t52.5 144t141.5 89t276.5 30.5v-151q-106 0 -165 -13t-85 -45t-32 -88.5t-6 -144.5v-62
q0 -129 -24 -227t-80 -125q56 -28 80 -126t24 -227v-62q0 -88 6 -144.5t32 -88.5t85 -45t165 -13v-151z" />
    <glyph glyph-name="bar" unicode="|" horiz-adv-x="658" 
d="M240 1555h178v-1722h-178v1722z" />
    <glyph glyph-name="braceright" unicode="}" horiz-adv-x="952" 
d="M128 -207v151q106 0 165 13t85 45t32 89t6 144v62q0 129 24.5 227t79.5 126q-55 27 -79.5 125t-24.5 227v62q0 87 -6 144t-32 89t-85 45t-165 13v151q178 0 276.5 -30.5t141.5 -89t52.5 -144t9.5 -196.5v-41q0 -100 3 -156.5t17.5 -83t48.5 -33.5t96 -7h63v-151h-63
q-62 0 -96 -7t-48.5 -33.5t-17.5 -83t-3 -156.5v-41q0 -111 -9.5 -196.5t-52.5 -144t-141.5 -89t-276.5 -30.5z" />
    <glyph glyph-name="asciitilde" unicode="~" horiz-adv-x="864" 
d="M593 1176q-49 0 -93.5 16.5t-85.5 38.5t-78 38.5t-71 16.5q-51 0 -70.5 -23t-19.5 -60h-105q0 113 60 167.5t140 54.5q50 0 94 -16.5t83.5 -38t75 -38t67.5 -16.5q54 0 76.5 22.5t22.5 60.5h105q0 -112 -60 -167.5t-141 -55.5z" />
    <glyph glyph-name="uni00A0" unicode="&#xa0;" horiz-adv-x="512" 
 />
    <glyph glyph-name="exclamdown" unicode="&#xa1;" horiz-adv-x="768" 
d="M415 689q15 -148 27 -302t21 -299t14 -267t5 -207h-202q0 84 6 206t16.5 266.5t25 299t31.5 303.5h56zM503 1060v-236h-234v236h234z" />
    <glyph glyph-name="cent" unicode="&#xa2;" horiz-adv-x="1106" 
d="M532 -219v1496h95v-1496h-95zM579 -22q-158 0 -252.5 50.5t-136.5 134t-42 181.5v404q0 150 114.5 241t311.5 91q127 0 221 -29.5t145.5 -106.5t51.5 -220l-179 -17q0 97 -22 146t-73 66t-139 17q-121 0 -182 -43.5t-61 -149.5v-415q0 -114 64.5 -160t178.5 -46
q93 0 141.5 13.5t68.5 54t27 120.5h174q-10 -122 -52 -195t-128.5 -105t-230.5 -32z" />
    <glyph glyph-name="sterling" unicode="&#xa3;" horiz-adv-x="1278" 
d="M256 0l116 1125q10 97 55.5 178.5t127 131t198.5 49.5q70 0 152.5 -20t176.5 -66l-54 -139q-19 10 -60 26t-91.5 29t-101.5 13q-78 0 -137.5 -47.5t-73.5 -175.5l-97 -942h574v-162h-785zM166 673v125h846v-125h-846z" />
    <glyph glyph-name="currency" unicode="&#xa4;" horiz-adv-x="1149" 
d="M564 360q-71 0 -133 28t-107 80l-147 -108l-51 83l148 106q-29 66 -29 140q0 95 46 173l-175 117l54 82l180 -124q43 41 98 61t116 20q62 0 117.5 -21t98.5 -62l193 140l50 -82l-184 -133q20 -38 32 -81t12 -90q0 -31 -5 -60.5t-16 -57.5l171 -114l-52 -81l-164 110
q-43 -60 -109.5 -93t-143.5 -33zM565 444q97 0 161 72.5t64 173.5q0 102 -64 174t-161 72t-161 -72t-64 -174q0 -101 64 -173.5t161 -72.5z" />
    <glyph glyph-name="yen" unicode="&#xa5;" horiz-adv-x="1318" 
d="M484 943l64 -124h-417v124h353zM131 515v124h1059v-124h-1059zM808 819l61 124h321v-124h-382zM560 568l-512 878h213l422 -741h-44l424 741h207l-509 -878v-568h-201v568z" />
    <glyph glyph-name="brokenbar" unicode="&#xa6;" horiz-adv-x="658" 
d="M240 513h178v-680h-178v680zM240 1555h178v-707h-178v707z" />
    <glyph glyph-name="section" unicode="&#xa7;" horiz-adv-x="995" 
d="M751 426l-89 104q30 22 46.5 50t16.5 79q0 62 -18 102t-100 69l-262 93q-115 41 -161 98.5t-46 156.5q0 134 74 212t270 78q127 0 219.5 -19.5t157.5 -48.5l-43 -144q-35 17 -84 32.5t-104.5 25.5t-110.5 10q-129 0 -166.5 -32.5t-37.5 -104.5q0 -49 18.5 -73t72.5 -44
l259 -97q94 -35 141.5 -75.5t64 -97t16.5 -139.5q0 -70 -32 -135t-102 -100zM541 -20q-127 0 -219.5 20t-157.5 48l43 144q35 -16 84 -32t105 -26t110 -10q129 0 166.5 32.5t37.5 104.5q0 50 -18.5 73.5t-72.5 43.5l-259 97q-93 35 -141 75.5t-64.5 97.5t-16.5 139
q0 71 32 136t102 99l89 -104q-30 -22 -46.5 -50t-16.5 -79q0 -61 18 -101.5t100 -69.5l262 -93q116 -41 161.5 -98.5t45.5 -156.5q0 -134 -73.5 -212t-270.5 -78z" />
    <glyph glyph-name="dieresis" unicode="&#xa8;" horiz-adv-x="690" 
d="M424 1262v181h206v-181h-206zM60 1262v181h206v-181h-206z" />
    <glyph glyph-name="copyright" unicode="&#xa9;" horiz-adv-x="1784" 
d="M892 -14q-155 0 -288.5 55.5t-234 155.5t-157 234t-56.5 291q0 156 56.5 290t157 233.5t234 155t288.5 55.5q156 0 290 -55.5t234 -155t156 -233.5t56 -290q0 -157 -56 -291t-156 -234t-234 -155.5t-290 -55.5zM894 82q183 0 325 84t222.5 229t80.5 327t-80.5 326.5
t-222.5 228.5t-325 84q-182 0 -324 -84t-223.5 -228.5t-81.5 -326.5t81.5 -327t223.5 -229t324 -84zM903 287q-143 0 -219.5 38.5t-104.5 107t-28 157.5v278q0 91 28 162t103.5 111.5t219.5 40.5q139 0 208.5 -42.5t93.5 -115t24 -163.5v-25l-116 -10v64q0 114 -48 157.5
t-162 43.5q-113 0 -172 -43.5t-59 -157.5v-319q0 -114 59 -154.5t173 -40.5q115 0 162 40.5t47 154.5v61h116v-34q0 -88 -24 -158.5t-93.5 -111.5t-207.5 -41z" />
    <glyph glyph-name="ordfeminine" unicode="&#xaa;" horiz-adv-x="948" 
d="M390 508q-155 0 -212.5 69t-57.5 174q0 69 25.5 116.5t96.5 86.5t208 81q71 22 114 40t62.5 46t19.5 78q0 56 -28 94.5t-130 38.5q-86 0 -126 -19t-51 -49.5t-11 -67.5v-40h-146v41q0 135 84.5 197t253.5 62q170 0 238 -84.5t68 -225.5v-388q0 -73 17.5 -93.5t72.5 -20.5
l-18 -124h-31q-85 0 -123 36t-58 100q-19 -31 -51.5 -65.5t-85 -58.5t-131.5 -24zM408 629q46 0 96.5 21t90 56t51.5 77v240q-18 -19 -62.5 -50t-125.5 -55q-100 -30 -146.5 -61.5t-46.5 -93.5q0 -69 30.5 -101.5t112.5 -32.5z" />
    <glyph glyph-name="guillemotleft" unicode="&#xab;" horiz-adv-x="1054" 
d="M96 530l273 450l147 -70l-229 -420v80l229 -420l-140 -70zM510 530l273 450l145 -70l-226 -420v80l226 -420l-138 -70z" />
    <glyph glyph-name="logicalnot" unicode="&#xac;" horiz-adv-x="1024" 
d="M711 494h-549v148h700v-386h-151v238z" />
    <glyph glyph-name="registered" unicode="&#xae;" horiz-adv-x="1784" 
d="M892 -14q-155 0 -288.5 55.5t-234 155.5t-157 234t-56.5 291q0 156 56.5 290t157 233.5t234 155t288.5 55.5q156 0 290 -55.5t234 -155t156 -233.5t56 -290q0 -157 -56 -291t-156 -234t-234 -155.5t-290 -55.5zM894 82q183 0 325 84t222.5 229t80.5 327t-80.5 326.5
t-222.5 228.5t-325 84q-182 0 -324 -84t-223.5 -228.5t-81.5 -326.5t81.5 -327t223.5 -229t324 -84zM585 319v834h423q125 0 184 -61t59 -184v-14q0 -108 -41.5 -158.5t-110.5 -69.5l184 -347h-128l-180 333h-259v-333h-131zM716 742h267q72 0 104 39t32 106v24
q0 39 -7 73.5t-34 56t-86 21.5h-276v-320z" />
    <glyph glyph-name="macron" unicode="&#xaf;" horiz-adv-x="624" 
d="M60 1305v155h504v-155h-504z" />
    <glyph glyph-name="degree" unicode="&#xb0;" horiz-adv-x="823" 
d="M412 849q-162 0 -246 88t-84 222t84 222.5t246 88.5t245.5 -88.5t83.5 -222.5t-83.5 -222t-245.5 -88zM412 983q90 0 134.5 47.5t44.5 129.5q0 83 -44.5 130t-134.5 47t-135 -47t-45 -130q0 -82 45 -129.5t135 -47.5z" />
    <glyph glyph-name="plusminus" unicode="&#xb1;" horiz-adv-x="1024" 
d="M437 594h-275v148h275v226h151v-226h274v-148h-274v-238h-151v238zM162 101v148h700v-148h-700z" />
    <glyph glyph-name="uni00B2" unicode="&#xb2;" horiz-adv-x="724" 
d="M121 878l-12 95l272 317q63 73 90.5 116t27.5 104q0 63 -35.5 92.5t-112.5 29.5t-108.5 -31.5t-31.5 -107.5h-131q0 143 77 204.5t208 61.5q140 0 207 -70.5t67 -174.5q0 -45 -12 -83.5t-43.5 -85.5t-92.5 -118l-236 -275l-35 39h424v-113h-523z" />
    <glyph glyph-name="uni00B3" unicode="&#xb3;" horiz-adv-x="711" 
d="M362 868q-137 0 -202 59.5t-80 212.5h131q8 -86 43 -115.5t102 -29.5q69 0 102 30t33 106q0 60 -13.5 92.5t-53 45.5t-117.5 13v118q104 0 135 32.5t31 87.5q0 52 -29 82t-96 30q-66 0 -98.5 -28t-32.5 -107h-131q0 127 66 194.5t208 67.5q112 0 182.5 -53.5t70.5 -169.5
q0 -61 -16 -103t-51 -67.5t-94 -35.5l4 25q83 -20 129 -69t46 -166q0 -124 -70.5 -188t-198.5 -64z" />
    <glyph glyph-name="acute" unicode="&#xb4;" horiz-adv-x="480" 
d="M60 1235l135 350h225l-232 -350h-128z" />
    <glyph glyph-name="uni00B5" unicode="&#xb5;" horiz-adv-x="1224" 
d="M174 -383v1443h188v-771q0 -52 26 -89.5t74.5 -57.5t113.5 -20q92 0 152.5 28t90 71.5t29.5 87.5v751h188v-1060h-168l-20 133q-40 -71 -116.5 -113t-192.5 -42q-52 0 -96.5 9t-80.5 24v-394h-188z" />
    <glyph glyph-name="paragraph" unicode="&#xb6;" horiz-adv-x="1180" 
d="M520 0v869q-166 0 -259 73.5t-93 220.5t95 215t272 68h433v-1446h-162v1284h-124v-1284h-162z" />
    <glyph glyph-name="periodcentered" unicode="&#xb7;" horiz-adv-x="405" 
d="M100 828h205v-206h-205v206z" />
    <glyph glyph-name="cedilla" unicode="&#xb8;" horiz-adv-x="502" 
d="M60 -465v112h188q32 0 44 13.5t12 32.5v68q0 20 -14 33t-42 13h-100v223h101v-166l-15 46q115 0 161.5 -42t46.5 -130v-30q0 -71 -46 -122t-159 -51h-177z" />
    <glyph glyph-name="uni00B9" unicode="&#xb9;" horiz-adv-x="708" 
d="M85 991h220v681l50 -44l-261 -27l-14 115l267 30h99v-755h212v-113h-573v113z" />
    <glyph glyph-name="ordmasculine" unicode="&#xba;" horiz-adv-x="951" 
d="M475 508q-193 0 -274 81.5t-81 208.5v367q0 127 81 209t274 82q192 0 274 -82t82 -209v-367q0 -127 -82 -208.5t-274 -81.5zM475 632q90 0 147 33.5t57 118.5v395q0 85 -57 119t-147 34q-91 0 -147 -34t-56 -119v-395q0 -85 56 -118.5t147 -33.5z" />
    <glyph glyph-name="guillemotright" unicode="&#xbb;" horiz-adv-x="1054" 
d="M126 150l226 420v-80l-226 420l138 70l280 -450l-273 -450zM538 150l229 420v-80l-229 420l140 70l280 -450l-273 -450z" />
    <glyph glyph-name="onequarter" unicode="&#xbc;" horiz-adv-x="1732" 
d="M85 691h220v681l50 -44l-261 -27l-14 115l267 30h99v-755h212v-113h-573v113zM1192 1446h126l-678 -1446h-132zM1432 0v211h-364v94l307 563h149l-322 -587l-27 43h257v179h140v-179h110v-113h-110v-211h-140z" />
    <glyph glyph-name="onehalf" unicode="&#xbd;" horiz-adv-x="1762" 
d="M85 691h220v681l50 -44l-261 -27l-14 115l267 30h99v-755h212v-113h-573v113zM1192 1446h126l-678 -1446h-132zM1159 0l-12 95l272 317q63 73 90.5 116t27.5 104q0 63 -35.5 92.5t-112.5 29.5t-108.5 -31.5t-31.5 -107.5h-131q0 143 77 204.5t208 61.5q140 0 207 -70.5
t67 -174.5q0 -45 -12 -83.5t-43.5 -85.5t-92.5 -118l-236 -275l-35 39h424v-113h-523z" />
    <glyph glyph-name="threequarters" unicode="&#xbe;" horiz-adv-x="1735" 
d="M362 568q-137 0 -202 59.5t-80 212.5h131q8 -86 43 -115.5t102 -29.5q69 0 102 30t33 106q0 60 -13.5 92.5t-53 45.5t-117.5 13v118q104 0 135 32.5t31 87.5q0 52 -29 82t-96 30q-66 0 -98.5 -28t-32.5 -107h-131q0 127 66 194.5t208 67.5q112 0 182.5 -53.5t70.5 -169.5
q0 -61 -16 -103t-51 -67.5t-94 -35.5l4 25q83 -20 129 -69t46 -166q0 -124 -70.5 -188t-198.5 -64zM1195 1446h126l-678 -1446h-132zM1435 0v211h-364v94l307 563h149l-322 -587l-27 43h257v179h140v-179h110v-113h-110v-211h-140z" />
    <glyph glyph-name="questiondown" unicode="&#xbf;" horiz-adv-x="1240" 
d="M503 265q-64 -85 -103.5 -152.5t-39.5 -155.5q0 -59 19 -105t68.5 -72t138.5 -26q108 0 169.5 26t86.5 74t25 114v53h197v-32q0 -114 -27 -190.5t-84 -122t-148 -65t-219 -19.5q-130 0 -215.5 32t-134.5 84t-69 114.5t-20 123.5q0 92 33 166t92.5 145t136.5 153l208 219
h160zM818 1060v-236h-234v236h234z" />
    <glyph glyph-name="Agrave" unicode="&#xc0;" horiz-adv-x="1428" 
d="M86 0l539 1446h177l540 -1446h-205l-433 1259l30 -1l-439 -1258h-209zM306 282l48 148h723l46 -148h-817zM716 1632l-262 350h225l165 -350h-128z" />
    <glyph glyph-name="Aacute" unicode="&#xc1;" horiz-adv-x="1428" 
d="M86 0l539 1446h177l540 -1446h-205l-433 1259l30 -1l-439 -1258h-209zM306 282l48 148h723l46 -148h-817zM584 1632l165 350h225l-262 -350h-128z" />
    <glyph glyph-name="Acircumflex" unicode="&#xc2;" horiz-adv-x="1428" 
d="M86 0l539 1446h177l540 -1446h-205l-433 1259l30 -1l-439 -1258h-209zM306 282l48 148h723l46 -148h-817zM372 1635l255 320h175l255 -320h-138l-256 230h104l-257 -230h-138z" />
    <glyph glyph-name="Atilde" unicode="&#xc3;" horiz-adv-x="1428" 
d="M86 0l539 1446h177l540 -1446h-205l-433 1259l30 -1l-439 -1258h-209zM306 282l48 148h723l46 -148h-817zM824 1602q-51 0 -85.5 16t-59 37.5t-46.5 37.5t-49 16q-31 0 -50.5 -23t-19.5 -70h-97q0 124 48 176.5t138 52.5q51 0 85.5 -16t59.5 -37.5t46.5 -37.5t48.5 -16
q31 0 50.5 23.5t19.5 69.5h97q0 -124 -48 -176.5t-138 -52.5z" />
    <glyph glyph-name="Adieresis" unicode="&#xc4;" horiz-adv-x="1428" 
d="M86 0l539 1446h177l540 -1446h-205l-433 1259l30 -1l-439 -1258h-209zM306 282l48 148h723l46 -148h-817zM793 1649v181h206v-181h-206zM429 1649v181h206v-181h-206z" />
    <glyph glyph-name="Aring" unicode="&#xc5;" horiz-adv-x="1428" 
d="M86 0l539 1446h177l540 -1446h-205l-433 1259l30 -1l-439 -1258h-209zM306 282l48 148h723l46 -148h-817zM714 1542q-106 0 -170 58.5t-64 167.5q0 108 64 166t170 58t170 -58t64 -166q0 -109 -63.5 -167.5t-170.5 -58.5zM714 1645q42 0 78.5 25t36.5 97q0 71 -36.5 97.5
t-79.5 26.5t-78.5 -25.5t-35.5 -96.5q0 -73 35.5 -98.5t79.5 -25.5z" />
    <glyph glyph-name="AE" unicode="&#xc6;" horiz-adv-x="1686" 
d="M299 502l36 148h539v646h-242l-330 -1296l-204 3l394 1443h1058v-150h-485v-482h424v-150h-424v-514h494v-150h-685v502h-575z" />
    <glyph glyph-name="Ccedilla" unicode="&#xc7;" horiz-adv-x="1456" 
d="M761 -22q-181 0 -295 37t-175.5 104.5t-85 160.5t-23.5 206v454q0 115 22.5 211.5t84 167.5t175 110t295.5 39q164 0 270 -29.5t165 -87.5t82.5 -143.5t23.5 -197.5v-13l-191 -17v27q0 131 -33.5 195t-110.5 84t-206 20q-127 0 -210 -28.5t-124 -100t-41 -200.5v-522
q0 -128 42 -196t126.5 -93.5t212.5 -25.5q126 0 201.5 17t109 77.5t33.5 189.5v24h191v-10q0 -109 -20.5 -194.5t-76.5 -144.5t-162.5 -90t-279.5 -31zM623 -465v112h188q32 0 44 13.5t12 32.5v68q0 20 -14 33t-42 13h-100v223h101v-166l-15 46q115 0 161.5 -42t46.5 -130
v-30q0 -71 -46 -122t-159 -51h-177z" />
    <glyph glyph-name="Egrave" unicode="&#xc8;" horiz-adv-x="1255" 
d="M218 1446h903v-150h-702v-476h620v-150h-620v-520h714v-150h-915v1446zM672 1632l-262 350h225l165 -350h-128z" />
    <glyph glyph-name="Eacute" unicode="&#xc9;" horiz-adv-x="1255" 
d="M218 1446h903v-150h-702v-476h620v-150h-620v-520h714v-150h-915v1446zM540 1632l165 350h225l-262 -350h-128z" />
    <glyph glyph-name="Ecircumflex" unicode="&#xca;" horiz-adv-x="1255" 
d="M218 1446h903v-150h-702v-476h620v-150h-620v-520h714v-150h-915v1446zM328 1635l255 320h175l255 -320h-138l-256 230h104l-257 -230h-138z" />
    <glyph glyph-name="Edieresis" unicode="&#xcb;" horiz-adv-x="1255" 
d="M218 1446h903v-150h-702v-476h620v-150h-620v-520h714v-150h-915v1446zM749 1649v181h206v-181h-206zM385 1649v181h206v-181h-206z" />
    <glyph glyph-name="Igrave" unicode="&#xcc;" horiz-adv-x="1132" 
d="M190 150h276v1147h-276v149h752v-149h-275v-1147h275v-150h-752v150zM568 1632l-262 350h225l165 -350h-128z" />
    <glyph glyph-name="Iacute" unicode="&#xcd;" horiz-adv-x="1132" 
d="M190 150h276v1147h-276v149h752v-149h-275v-1147h275v-150h-752v150zM436 1632l165 350h225l-262 -350h-128z" />
    <glyph glyph-name="Icircumflex" unicode="&#xce;" horiz-adv-x="1132" 
d="M190 150h276v1147h-276v149h752v-149h-275v-1147h275v-150h-752v150zM224 1635l255 320h175l255 -320h-138l-256 230h104l-257 -230h-138z" />
    <glyph glyph-name="Idieresis" unicode="&#xcf;" horiz-adv-x="1132" 
d="M190 150h276v1147h-276v149h752v-149h-275v-1147h275v-150h-752v150zM645 1649v181h206v-181h-206zM281 1649v181h206v-181h-206z" />
    <glyph glyph-name="Eth" unicode="&#xd0;" horiz-adv-x="1522" 
d="M218 0v1446h574q201 0 321 -64.5t173.5 -174.5t53.5 -248v-477q0 -156 -60 -263.5t-181 -163t-305 -55.5h-576zM420 150h354q104 0 186.5 22.5t130.5 89.5t48 200v509q0 134 -48.5 203.5t-131 95t-185.5 25.5h-354v-1145zM21 694v143h660v-143h-660z" />
    <glyph glyph-name="Ntilde" unicode="&#xd1;" horiz-adv-x="1594" 
d="M218 1446h153l854 -1193l-26 -8v1201h177v-1446h-179l-828 1140l26 9v-1149h-177v1446zM907 1602q-51 0 -85.5 16t-59 37.5t-46.5 37.5t-49 16q-31 0 -50.5 -23t-19.5 -70h-97q0 124 48 176.5t138 52.5q51 0 85.5 -16t59.5 -37.5t46.5 -37.5t48.5 -16q31 0 50.5 23.5
t19.5 69.5h97q0 -124 -48 -176.5t-138 -52.5z" />
    <glyph glyph-name="Ograve" unicode="&#xd2;" horiz-adv-x="1546" 
d="M782 -22q-181 0 -297.5 37t-181.5 104.5t-91 160.5t-26 206v455q0 115 25.5 211t90.5 167t181.5 110t298.5 39q175 0 288 -41t176 -114.5t88.5 -171.5t25.5 -213v-428q0 -111 -25.5 -206.5t-89 -166t-176.5 -110t-287 -39.5zM782 140q129 0 212.5 25.5t124 93.5t40.5 196
v523q0 129 -41 200t-124.5 99.5t-211.5 28.5q-127 0 -215 -28.5t-133.5 -99.5t-45.5 -200v-523q0 -128 45 -196t133 -93.5t216 -25.5zM775 1632l-262 350h225l165 -350h-128z" />
    <glyph glyph-name="Oacute" unicode="&#xd3;" horiz-adv-x="1546" 
d="M782 -22q-181 0 -297.5 37t-181.5 104.5t-91 160.5t-26 206v455q0 115 25.5 211t90.5 167t181.5 110t298.5 39q175 0 288 -41t176 -114.5t88.5 -171.5t25.5 -213v-428q0 -111 -25.5 -206.5t-89 -166t-176.5 -110t-287 -39.5zM782 140q129 0 212.5 25.5t124 93.5t40.5 196
v523q0 129 -41 200t-124.5 99.5t-211.5 28.5q-127 0 -215 -28.5t-133.5 -99.5t-45.5 -200v-523q0 -128 45 -196t133 -93.5t216 -25.5zM643 1632l165 350h225l-262 -350h-128z" />
    <glyph glyph-name="Ocircumflex" unicode="&#xd4;" horiz-adv-x="1546" 
d="M782 -22q-181 0 -297.5 37t-181.5 104.5t-91 160.5t-26 206v455q0 115 25.5 211t90.5 167t181.5 110t298.5 39q175 0 288 -41t176 -114.5t88.5 -171.5t25.5 -213v-428q0 -111 -25.5 -206.5t-89 -166t-176.5 -110t-287 -39.5zM782 140q129 0 212.5 25.5t124 93.5t40.5 196
v523q0 129 -41 200t-124.5 99.5t-211.5 28.5q-127 0 -215 -28.5t-133.5 -99.5t-45.5 -200v-523q0 -128 45 -196t133 -93.5t216 -25.5zM431 1635l255 320h175l255 -320h-138l-256 230h104l-257 -230h-138z" />
    <glyph glyph-name="Otilde" unicode="&#xd5;" horiz-adv-x="1546" 
d="M782 -22q-181 0 -297.5 37t-181.5 104.5t-91 160.5t-26 206v455q0 115 25.5 211t90.5 167t181.5 110t298.5 39q175 0 288 -41t176 -114.5t88.5 -171.5t25.5 -213v-428q0 -111 -25.5 -206.5t-89 -166t-176.5 -110t-287 -39.5zM782 140q129 0 212.5 25.5t124 93.5t40.5 196
v523q0 129 -41 200t-124.5 99.5t-211.5 28.5q-127 0 -215 -28.5t-133.5 -99.5t-45.5 -200v-523q0 -128 45 -196t133 -93.5t216 -25.5zM883 1602q-51 0 -85.5 16t-59 37.5t-46.5 37.5t-49 16q-31 0 -50.5 -23t-19.5 -70h-97q0 124 48 176.5t138 52.5q51 0 85.5 -16
t59.5 -37.5t46.5 -37.5t48.5 -16q31 0 50.5 23.5t19.5 69.5h97q0 -124 -48 -176.5t-138 -52.5z" />
    <glyph glyph-name="Odieresis" unicode="&#xd6;" horiz-adv-x="1546" 
d="M782 -22q-181 0 -297.5 37t-181.5 104.5t-91 160.5t-26 206v455q0 115 25.5 211t90.5 167t181.5 110t298.5 39q175 0 288 -41t176 -114.5t88.5 -171.5t25.5 -213v-428q0 -111 -25.5 -206.5t-89 -166t-176.5 -110t-287 -39.5zM782 140q129 0 212.5 25.5t124 93.5t40.5 196
v523q0 129 -41 200t-124.5 99.5t-211.5 28.5q-127 0 -215 -28.5t-133.5 -99.5t-45.5 -200v-523q0 -128 45 -196t133 -93.5t216 -25.5zM852 1649v181h206v-181h-206zM488 1649v181h206v-181h-206z" />
    <glyph glyph-name="multiply" unicode="&#xd7;" horiz-adv-x="1024" 
d="M155 344l237 232l-237 230l110 131l248 -243l248 243l109 -131l-236 -230l236 -232l-109 -128l-248 242l-248 -242z" />
    <glyph glyph-name="Oslash" unicode="&#xd8;" horiz-adv-x="1546" 
d="M376 -157l678 1833l104 -38l-679 -1833zM782 -22q-181 0 -297.5 37t-181.5 104.5t-91 160.5t-26 206v455q0 115 25.5 211t90.5 167t181.5 110t298.5 39q175 0 288 -41t176 -114.5t88.5 -171.5t25.5 -213v-428q0 -111 -25.5 -206.5t-89 -166t-176.5 -110t-287 -39.5z
M782 140q129 0 212.5 25.5t124 93.5t40.5 196v523q0 129 -41 200t-124.5 99.5t-211.5 28.5q-127 0 -215 -28.5t-133.5 -99.5t-45.5 -200v-523q0 -128 45 -196t133 -93.5t216 -25.5z" />
    <glyph glyph-name="Ugrave" unicode="&#xd9;" horiz-adv-x="1538" 
d="M779 -22q-177 0 -290.5 39t-176.5 107t-87.5 157.5t-24.5 191.5v973h202v-994q0 -133 52.5 -200t138.5 -89.5t186 -22.5q102 0 182.5 22.5t127.5 89.5t47 200v994h202v-973q0 -100 -24.5 -189.5t-85.5 -158.5t-170 -108t-279 -39zM771 1632l-262 350h225l165 -350h-128z
" />
    <glyph glyph-name="Uacute" unicode="&#xda;" horiz-adv-x="1538" 
d="M779 -22q-177 0 -290.5 39t-176.5 107t-87.5 157.5t-24.5 191.5v973h202v-994q0 -133 52.5 -200t138.5 -89.5t186 -22.5q102 0 182.5 22.5t127.5 89.5t47 200v994h202v-973q0 -100 -24.5 -189.5t-85.5 -158.5t-170 -108t-279 -39zM639 1632l165 350h225l-262 -350h-128z
" />
    <glyph glyph-name="Ucircumflex" unicode="&#xdb;" horiz-adv-x="1538" 
d="M779 -22q-177 0 -290.5 39t-176.5 107t-87.5 157.5t-24.5 191.5v973h202v-994q0 -133 52.5 -200t138.5 -89.5t186 -22.5q102 0 182.5 22.5t127.5 89.5t47 200v994h202v-973q0 -100 -24.5 -189.5t-85.5 -158.5t-170 -108t-279 -39zM427 1635l255 320h175l255 -320h-138
l-256 230h104l-257 -230h-138z" />
    <glyph glyph-name="Udieresis" unicode="&#xdc;" horiz-adv-x="1538" 
d="M779 -22q-177 0 -290.5 39t-176.5 107t-87.5 157.5t-24.5 191.5v973h202v-994q0 -133 52.5 -200t138.5 -89.5t186 -22.5q102 0 182.5 22.5t127.5 89.5t47 200v994h202v-973q0 -100 -24.5 -189.5t-85.5 -158.5t-170 -108t-279 -39zM848 1649v181h206v-181h-206zM484 1649
v181h206v-181h-206z" />
    <glyph glyph-name="Yacute" unicode="&#xdd;" horiz-adv-x="1318" 
d="M560 568l-512 878h213l422 -741h-44l424 741h207l-509 -878v-568h-201v568zM529 1632l165 350h225l-262 -350h-128z" />
    <glyph glyph-name="Thorn" unicode="&#xde;" horiz-adv-x="1320" 
d="M212 1446h202v-238h374q122 0 212.5 -40t141 -135t50.5 -260q0 -173 -50 -269t-141 -134.5t-214 -38.5h-373v-331h-202v1446zM791 484q88 0 130 37.5t55.5 100.5t13.5 137q0 71 -11.5 139t-52.5 112.5t-132 44.5h-380v-571h377z" />
    <glyph glyph-name="germandbls" unicode="&#xdf;" horiz-adv-x="1281" 
d="M190 0v1103q0 149 62 231.5t167 115.5t233 33q211 0 308 -94.5t97 -253.5q0 -127 -44 -186t-142 -78l-22 14q52 -5 107.5 -26.5t103 -66.5t77 -119t29.5 -185q0 -184 -73 -291t-213.5 -152t-343.5 -45l-19 149q99 6 185.5 17.5t151 43t101 96.5t36.5 179q0 129 -48 189.5
t-136 78t-207 17.5v142q109 0 167 24.5t80 71t22 111.5q0 89 -27.5 134.5t-78.5 62t-120 16.5q-73 0 -133 -14t-96 -57t-36 -130v-1131h-188z" />
    <glyph glyph-name="agrave" unicode="&#xe0;" horiz-adv-x="1172" 
d="M465 -22q-117 0 -190.5 40.5t-108 107t-34.5 142.5q0 80 31.5 134.5t119 99t256.5 93.5q88 26 141 46t77 51t24 89q0 43 -13.5 78t-55 56t-126.5 21q-106 0 -155 -22t-62.5 -57.5t-13.5 -78.5v-47h-181v48q0 157 105 229t313 72q140 0 222.5 -44.5t118.5 -125.5t36 -190
v-452q0 -84 21.5 -108t89.5 -24l-22 -144h-38q-106 0 -153 41.5t-71 116.5q-23 -36 -63.5 -76t-105 -68t-162.5 -28zM488 118q57 0 119 24.5t110.5 65t63.5 89.5v279q-22 -22 -76.5 -57.5t-155.5 -64.5q-123 -35 -180.5 -72t-57.5 -108q0 -80 41.5 -118t135.5 -38zM569 1235
l-232 350h225l135 -350h-128z" />
    <glyph glyph-name="aacute" unicode="&#xe1;" horiz-adv-x="1172" 
d="M465 -22q-117 0 -190.5 40.5t-108 107t-34.5 142.5q0 80 31.5 134.5t119 99t256.5 93.5q88 26 141 46t77 51t24 89q0 43 -13.5 78t-55 56t-126.5 21q-106 0 -155 -22t-62.5 -57.5t-13.5 -78.5v-47h-181v48q0 157 105 229t313 72q140 0 222.5 -44.5t118.5 -125.5t36 -190
v-452q0 -84 21.5 -108t89.5 -24l-22 -144h-38q-106 0 -153 41.5t-71 116.5q-23 -36 -63.5 -76t-105 -68t-162.5 -28zM488 118q57 0 119 24.5t110.5 65t63.5 89.5v279q-22 -22 -76.5 -57.5t-155.5 -64.5q-123 -35 -180.5 -72t-57.5 -108q0 -80 41.5 -118t135.5 -38zM457 1235
l135 350h225l-232 -350h-128z" />
    <glyph glyph-name="acircumflex" unicode="&#xe2;" horiz-adv-x="1172" 
d="M465 -22q-117 0 -190.5 40.5t-108 107t-34.5 142.5q0 80 31.5 134.5t119 99t256.5 93.5q88 26 141 46t77 51t24 89q0 43 -13.5 78t-55 56t-126.5 21q-106 0 -155 -22t-62.5 -57.5t-13.5 -78.5v-47h-181v48q0 157 105 229t313 72q140 0 222.5 -44.5t118.5 -125.5t36 -190
v-452q0 -84 21.5 -108t89.5 -24l-22 -144h-38q-106 0 -153 41.5t-71 116.5q-23 -36 -63.5 -76t-105 -68t-162.5 -28zM488 118q57 0 119 24.5t110.5 65t63.5 89.5v279q-22 -22 -76.5 -57.5t-155.5 -64.5q-123 -35 -180.5 -72t-57.5 -108q0 -80 41.5 -118t135.5 -38zM235 1235
l255 340h175l255 -340h-138l-256 250h104l-257 -250h-138z" />
    <glyph glyph-name="atilde" unicode="&#xe3;" horiz-adv-x="1172" 
d="M465 -22q-117 0 -190.5 40.5t-108 107t-34.5 142.5q0 80 31.5 134.5t119 99t256.5 93.5q88 26 141 46t77 51t24 89q0 43 -13.5 78t-55 56t-126.5 21q-106 0 -155 -22t-62.5 -57.5t-13.5 -78.5v-47h-181v48q0 157 105 229t313 72q140 0 222.5 -44.5t118.5 -125.5t36 -190
v-452q0 -84 21.5 -108t89.5 -24l-22 -144h-38q-106 0 -153 41.5t-71 116.5q-23 -36 -63.5 -76t-105 -68t-162.5 -28zM488 118q57 0 119 24.5t110.5 65t63.5 89.5v279q-22 -22 -76.5 -57.5t-155.5 -64.5q-123 -35 -180.5 -72t-57.5 -108q0 -80 41.5 -118t135.5 -38zM687 1253
q-51 0 -85.5 16t-59 37.5t-46.5 37.5t-49 16q-31 0 -50.5 -23t-19.5 -70h-97q0 124 48 176.5t138 52.5q51 0 85.5 -16t59.5 -37.5t46.5 -37.5t48.5 -16q31 0 50.5 23.5t19.5 69.5h97q0 -124 -48 -176.5t-138 -52.5z" />
    <glyph glyph-name="adieresis" unicode="&#xe4;" horiz-adv-x="1172" 
d="M465 -22q-117 0 -190.5 40.5t-108 107t-34.5 142.5q0 80 31.5 134.5t119 99t256.5 93.5q88 26 141 46t77 51t24 89q0 43 -13.5 78t-55 56t-126.5 21q-106 0 -155 -22t-62.5 -57.5t-13.5 -78.5v-47h-181v48q0 157 105 229t313 72q140 0 222.5 -44.5t118.5 -125.5t36 -190
v-452q0 -84 21.5 -108t89.5 -24l-22 -144h-38q-106 0 -153 41.5t-71 116.5q-23 -36 -63.5 -76t-105 -68t-162.5 -28zM488 118q57 0 119 24.5t110.5 65t63.5 89.5v279q-22 -22 -76.5 -57.5t-155.5 -64.5q-123 -35 -180.5 -72t-57.5 -108q0 -80 41.5 -118t135.5 -38zM656 1262
v181h206v-181h-206zM292 1262v181h206v-181h-206z" />
    <glyph glyph-name="aring" unicode="&#xe5;" horiz-adv-x="1172" 
d="M465 -22q-117 0 -190.5 40.5t-108 107t-34.5 142.5q0 80 31.5 134.5t119 99t256.5 93.5q88 26 141 46t77 51t24 89q0 43 -13.5 78t-55 56t-126.5 21q-106 0 -155 -22t-62.5 -57.5t-13.5 -78.5v-47h-181v48q0 157 105 229t313 72q140 0 222.5 -44.5t118.5 -125.5t36 -190
v-452q0 -84 21.5 -108t89.5 -24l-22 -144h-38q-106 0 -153 41.5t-71 116.5q-23 -36 -63.5 -76t-105 -68t-162.5 -28zM488 118q57 0 119 24.5t110.5 65t63.5 89.5v279q-22 -22 -76.5 -57.5t-155.5 -64.5q-123 -35 -180.5 -72t-57.5 -108q0 -80 41.5 -118t135.5 -38zM577 1172
q-106 0 -170 58.5t-64 167.5q0 108 64 166t170 58t170 -58t64 -166q0 -109 -63.5 -167.5t-170.5 -58.5zM577 1275q42 0 78.5 25t36.5 97q0 71 -36.5 97.5t-79.5 26.5t-78.5 -25.5t-35.5 -96.5q0 -73 35.5 -98.5t79.5 -25.5z" />
    <glyph glyph-name="ae" unicode="&#xe6;" horiz-adv-x="1741" 
d="M469 -20q-112 0 -187.5 42t-113 111t-37.5 150q0 53 12 101.5t51.5 91.5t121.5 77t223 57q113 18 164.5 32t66 40t14.5 79q0 74 -38 126.5t-157 52.5q-106 0 -156.5 -29t-65 -74t-14.5 -95v-24h-181v28q0 161 105 247.5t313 86.5q104 0 186.5 -34.5t110.5 -106.5
q47 74 124 107.5t186 33.5q138 0 229.5 -38.5t137 -110.5t45.5 -173v-247h-636v-183q0 -106 53 -156.5t163 -50.5q83 0 134.5 11t77.5 53t32 133h170q-10 -129 -52.5 -203t-129.5 -105t-232 -31q-155 0 -225.5 62t-99.5 160l47 -1q-46 -60 -102.5 -110t-137.5 -80t-202 -30z
M502 113q58 0 117.5 20t105 56.5t60.5 85.5v285q0 -10 -19.5 -21t-74 -25t-159.5 -35q-126 -25 -173 -74.5t-47 -120.5q0 -89 54 -130t136 -41zM973 633h464v145q0 96 -66 128t-175 32q-112 0 -167.5 -40t-55.5 -138v-127z" />
    <glyph glyph-name="ccedilla" unicode="&#xe7;" horiz-adv-x="1106" 
d="M579 -22q-158 0 -252.5 50.5t-136.5 134t-42 181.5v404q0 150 114.5 241t311.5 91q127 0 221 -29.5t145.5 -106.5t51.5 -220l-179 -17q0 97 -22 146t-73 66t-139 17q-121 0 -182 -43.5t-61 -149.5v-415q0 -114 64.5 -160t178.5 -46q93 0 141.5 13.5t68.5 54t27 120.5h174
q-10 -122 -52 -195t-128.5 -105t-230.5 -32zM431 -465v112h188q32 0 44 13.5t12 32.5v68q0 20 -14 33t-42 13h-100v223h101v-166l-15 46q115 0 161.5 -42t46.5 -130v-30q0 -71 -46 -122t-159 -51h-177z" />
    <glyph glyph-name="egrave" unicode="&#xe8;" horiz-adv-x="1138" 
d="M148 374v369q0 150 103 243.5t331 93.5q218 0 321 -85.5t103 -236.5v-252h-670v-149q0 -129 51.5 -182t201.5 -53q89 0 140.5 6.5t76 40t32.5 113.5h166q-13 -125 -54.5 -190.5t-127.5 -89.5t-233 -24q-158 0 -255 44t-141.5 132t-44.5 220zM824 633v145q0 64 -30.5 98
t-84.5 47t-127 13q-112 0 -179 -39t-67 -137v-127h488zM576 1235l-232 350h225l135 -350h-128z" />
    <glyph glyph-name="eacute" unicode="&#xe9;" horiz-adv-x="1138" 
d="M148 374v369q0 150 103 243.5t331 93.5q218 0 321 -85.5t103 -236.5v-252h-670v-149q0 -129 51.5 -182t201.5 -53q89 0 140.5 6.5t76 40t32.5 113.5h166q-13 -125 -54.5 -190.5t-127.5 -89.5t-233 -24q-158 0 -255 44t-141.5 132t-44.5 220zM824 633v145q0 64 -30.5 98
t-84.5 47t-127 13q-112 0 -179 -39t-67 -137v-127h488zM464 1235l135 350h225l-232 -350h-128z" />
    <glyph glyph-name="ecircumflex" unicode="&#xea;" horiz-adv-x="1138" 
d="M148 374v369q0 150 103 243.5t331 93.5q218 0 321 -85.5t103 -236.5v-252h-670v-149q0 -129 51.5 -182t201.5 -53q89 0 140.5 6.5t76 40t32.5 113.5h166q-13 -125 -54.5 -190.5t-127.5 -89.5t-233 -24q-158 0 -255 44t-141.5 132t-44.5 220zM824 633v145q0 64 -30.5 98
t-84.5 47t-127 13q-112 0 -179 -39t-67 -137v-127h488zM242 1235l255 340h175l255 -340h-138l-256 250h104l-257 -250h-138z" />
    <glyph glyph-name="edieresis" unicode="&#xeb;" horiz-adv-x="1138" 
d="M148 374v369q0 150 103 243.5t331 93.5q218 0 321 -85.5t103 -236.5v-252h-670v-149q0 -129 51.5 -182t201.5 -53q89 0 140.5 6.5t76 40t32.5 113.5h166q-13 -125 -54.5 -190.5t-127.5 -89.5t-233 -24q-158 0 -255 44t-141.5 132t-44.5 220zM824 633v145q0 64 -30.5 98
t-84.5 47t-127 13q-112 0 -179 -39t-67 -137v-127h488zM663 1262v181h206v-181h-206zM299 1262v181h206v-181h-206z" />
    <glyph glyph-name="igrave" unicode="&#xec;" horiz-adv-x="560" 
d="M186 1060h188v-1060h-188v1060zM272 1235l-232 350h225l135 -350h-128z" />
    <glyph glyph-name="iacute" unicode="&#xed;" horiz-adv-x="560" 
d="M186 1060h188v-1060h-188v1060zM160 1235l135 350h225l-232 -350h-128z" />
    <glyph glyph-name="icircumflex" unicode="&#xee;" horiz-adv-x="564" 
d="M-12 1235l215 340h175l215 -340h-138l-216 250h104l-217 -250h-138zM186 1060h188v-1060h-188v1060z" />
    <glyph glyph-name="idieresis" unicode="&#xef;" horiz-adv-x="560" 
d="M186 1060h188v-1060h-188v1060zM359 1262v181h206v-181h-206zM-5 1262v181h206v-181h-206z" />
    <glyph glyph-name="eth" unicode="&#xf0;" horiz-adv-x="1158" 
d="M587 -20q-237 0 -337 93.5t-100 240.5v332q0 100 52 174t148 114.5t227 40.5q87 0 156 -23.5t89 -40.5q0 151 -59 247.5t-151 145.5l-141 -204l-95 52l130 189q-72 23 -139.5 33t-156.5 10l29 128q95 0 176 -10t180 -36l102 151l95 -52l-99 -138q116 -57 185.5 -158
t100.5 -236.5t31 -296.5v-371q0 -73 -13 -142t-55 -123.5t-126.5 -87t-228.5 -32.5zM587 121q86 0 138 21t76 73t24 144v141.5v141.5v141q-23 15 -68.5 26.5t-92.5 17.5t-77 6q-109 0 -179.5 -41.5t-70.5 -139.5v-344q0 -106 70 -146.5t180 -40.5z" />
    <glyph glyph-name="ntilde" unicode="&#xf1;" horiz-adv-x="1226" 
d="M186 1060h188v-103q47 54 123 88.5t191 34.5q131 0 210.5 -42.5t115.5 -113t36 -154.5v-770h-188v781q0 53 -28 87t-78 51t-116 17q-92 0 -151 -24t-87 -65t-28 -92v-755h-188v1060zM756 1253q-51 0 -85.5 16t-59 37.5t-46.5 37.5t-49 16q-31 0 -50.5 -23t-19.5 -70h-97
q0 124 48 176.5t138 52.5q51 0 85.5 -16t59.5 -37.5t46.5 -37.5t48.5 -16q31 0 50.5 23.5t19.5 69.5h97q0 -124 -48 -176.5t-138 -52.5z" />
    <glyph glyph-name="ograve" unicode="&#xf2;" horiz-adv-x="1174" 
d="M587 -22q-159 0 -255.5 43.5t-140 119.5t-43.5 174v427q0 98 43.5 174.5t140 120t255.5 43.5q158 0 254.5 -43.5t140.5 -120t44 -174.5v-427q0 -98 -44 -174t-140.5 -119.5t-254.5 -43.5zM587 122q110 0 180.5 39.5t70.5 137.5v459q0 98 -70.5 138t-180.5 40
q-112 0 -181.5 -40t-69.5 -138v-459q0 -98 69.5 -137.5t181.5 -39.5zM577 1235l-232 350h225l135 -350h-128z" />
    <glyph glyph-name="oacute" unicode="&#xf3;" horiz-adv-x="1174" 
d="M587 -22q-159 0 -255.5 43.5t-140 119.5t-43.5 174v427q0 98 43.5 174.5t140 120t255.5 43.5q158 0 254.5 -43.5t140.5 -120t44 -174.5v-427q0 -98 -44 -174t-140.5 -119.5t-254.5 -43.5zM587 122q110 0 180.5 39.5t70.5 137.5v459q0 98 -70.5 138t-180.5 40
q-112 0 -181.5 -40t-69.5 -138v-459q0 -98 69.5 -137.5t181.5 -39.5zM465 1235l135 350h225l-232 -350h-128z" />
    <glyph glyph-name="ocircumflex" unicode="&#xf4;" horiz-adv-x="1174" 
d="M587 -22q-159 0 -255.5 43.5t-140 119.5t-43.5 174v427q0 98 43.5 174.5t140 120t255.5 43.5q158 0 254.5 -43.5t140.5 -120t44 -174.5v-427q0 -98 -44 -174t-140.5 -119.5t-254.5 -43.5zM587 122q110 0 180.5 39.5t70.5 137.5v459q0 98 -70.5 138t-180.5 40
q-112 0 -181.5 -40t-69.5 -138v-459q0 -98 69.5 -137.5t181.5 -39.5zM243 1235l255 340h175l255 -340h-138l-256 250h104l-257 -250h-138z" />
    <glyph glyph-name="otilde" unicode="&#xf5;" horiz-adv-x="1174" 
d="M587 -22q-159 0 -255.5 43.5t-140 119.5t-43.5 174v427q0 98 43.5 174.5t140 120t255.5 43.5q158 0 254.5 -43.5t140.5 -120t44 -174.5v-427q0 -98 -44 -174t-140.5 -119.5t-254.5 -43.5zM587 122q110 0 180.5 39.5t70.5 137.5v459q0 98 -70.5 138t-180.5 40
q-112 0 -181.5 -40t-69.5 -138v-459q0 -98 69.5 -137.5t181.5 -39.5zM695 1253q-51 0 -85.5 16t-59 37.5t-46.5 37.5t-49 16q-31 0 -50.5 -23t-19.5 -70h-97q0 124 48 176.5t138 52.5q51 0 85.5 -16t59.5 -37.5t46.5 -37.5t48.5 -16q31 0 50.5 23.5t19.5 69.5h97
q0 -124 -48 -176.5t-138 -52.5z" />
    <glyph glyph-name="odieresis" unicode="&#xf6;" horiz-adv-x="1174" 
d="M587 -22q-159 0 -255.5 43.5t-140 119.5t-43.5 174v427q0 98 43.5 174.5t140 120t255.5 43.5q158 0 254.5 -43.5t140.5 -120t44 -174.5v-427q0 -98 -44 -174t-140.5 -119.5t-254.5 -43.5zM587 122q110 0 180.5 39.5t70.5 137.5v459q0 98 -70.5 138t-180.5 40
q-112 0 -181.5 -40t-69.5 -138v-459q0 -98 69.5 -137.5t181.5 -39.5zM664 1262v181h206v-181h-206zM300 1262v181h206v-181h-206z" />
    <glyph glyph-name="divide" unicode="&#xf7;" horiz-adv-x="1024" 
d="M162 494v148h700v-148h-700zM410 115v209h205v-209h-205zM410 812v209h205v-209h-205z" />
    <glyph glyph-name="oslash" unicode="&#xf8;" horiz-adv-x="1174" 
d="M271 -195l540 1446l90 -31l-538 -1446zM587 -22q-159 0 -255.5 43.5t-140 119.5t-43.5 174v427q0 98 43.5 174.5t140 120t255.5 43.5q158 0 254.5 -43.5t140.5 -120t44 -174.5v-427q0 -98 -44 -174t-140.5 -119.5t-254.5 -43.5zM587 122q110 0 180.5 39.5t70.5 137.5v459
q0 98 -70.5 138t-180.5 40q-112 0 -181.5 -40t-69.5 -138v-459q0 -98 69.5 -137.5t181.5 -39.5z" />
    <glyph glyph-name="ugrave" unicode="&#xf9;" horiz-adv-x="1224" 
d="M541 -22q-130 0 -210.5 43t-117.5 114t-37 155v770h188v-771q0 -52 26 -89.5t74.5 -57.5t113.5 -20q92 0 152.5 28t90 71.5t29.5 87.5v751h188v-1060h-168l-20 133q-40 -71 -116.5 -113t-192.5 -42zM596 1235l-232 350h225l135 -350h-128z" />
    <glyph glyph-name="uacute" unicode="&#xfa;" horiz-adv-x="1224" 
d="M541 -22q-130 0 -210.5 43t-117.5 114t-37 155v770h188v-771q0 -52 26 -89.5t74.5 -57.5t113.5 -20q92 0 152.5 28t90 71.5t29.5 87.5v751h188v-1060h-168l-20 133q-40 -71 -116.5 -113t-192.5 -42zM484 1235l135 350h225l-232 -350h-128z" />
    <glyph glyph-name="ucircumflex" unicode="&#xfb;" horiz-adv-x="1224" 
d="M541 -22q-130 0 -210.5 43t-117.5 114t-37 155v770h188v-771q0 -52 26 -89.5t74.5 -57.5t113.5 -20q92 0 152.5 28t90 71.5t29.5 87.5v751h188v-1060h-168l-20 133q-40 -71 -116.5 -113t-192.5 -42zM262 1235l255 340h175l255 -340h-138l-256 250h104l-257 -250h-138z
" />
    <glyph glyph-name="udieresis" unicode="&#xfc;" horiz-adv-x="1224" 
d="M541 -22q-130 0 -210.5 43t-117.5 114t-37 155v770h188v-771q0 -52 26 -89.5t74.5 -57.5t113.5 -20q92 0 152.5 28t90 71.5t29.5 87.5v751h188v-1060h-168l-20 133q-40 -71 -116.5 -113t-192.5 -42zM683 1262v181h206v-181h-206zM319 1262v181h206v-181h-206z" />
    <glyph glyph-name="yacute" unicode="&#xfd;" horiz-adv-x="1118" 
d="M198 -406v147q111 0 181 45t118 160l33 79v-69l-454 1104h194l351 -902h-40l291 902h188l-404 -1158q-54 -155 -157 -231.5t-301 -76.5zM444 1235l135 350h225l-232 -350h-128z" />
    <glyph glyph-name="thorn" unicode="&#xfe;" horiz-adv-x="1195" 
d="M180 1506h188v-512q45 34 118.5 58t155.5 24q203 0 304 -97t101 -250v-385q0 -106 -49.5 -189.5t-145.5 -131t-234 -47.5q-89 0 -150.5 19.5t-99.5 38.5v-442h-188v1914zM606 117q111 0 182 55t71 152v418q0 95 -71 143.5t-175 48.5q-66 0 -118.5 -22t-85 -48.5
t-41.5 -39.5v-645q36 -20 96 -41t142 -21z" />
    <glyph glyph-name="ydieresis" unicode="&#xff;" horiz-adv-x="1118" 
d="M198 -406v147q111 0 181 45t118 160l33 79v-69l-454 1104h194l351 -902h-40l291 902h188l-404 -1158q-54 -155 -157 -231.5t-301 -76.5zM643 1262v181h206v-181h-206zM279 1262v181h206v-181h-206z" />
    <glyph glyph-name="Amacron" unicode="&#x100;" horiz-adv-x="1428" 
d="M86 0l539 1446h177l540 -1446h-205l-433 1259l30 -1l-439 -1258h-209zM306 282l48 148h723l46 -148h-817zM462 1658v155h504v-155h-504z" />
    <glyph glyph-name="amacron" unicode="&#x101;" horiz-adv-x="1172" 
d="M465 -22q-117 0 -190.5 40.5t-108 107t-34.5 142.5q0 80 31.5 134.5t119 99t256.5 93.5q88 26 141 46t77 51t24 89q0 43 -13.5 78t-55 56t-126.5 21q-106 0 -155 -22t-62.5 -57.5t-13.5 -78.5v-47h-181v48q0 157 105 229t313 72q140 0 222.5 -44.5t118.5 -125.5t36 -190
v-452q0 -84 21.5 -108t89.5 -24l-22 -144h-38q-106 0 -153 41.5t-71 116.5q-23 -36 -63.5 -76t-105 -68t-162.5 -28zM488 118q57 0 119 24.5t110.5 65t63.5 89.5v279q-22 -22 -76.5 -57.5t-155.5 -64.5q-123 -35 -180.5 -72t-57.5 -108q0 -80 41.5 -118t135.5 -38zM325 1305
v155h504v-155h-504z" />
    <glyph glyph-name="Abreve" unicode="&#x102;" horiz-adv-x="1428" 
d="M86 0l539 1446h177l540 -1446h-205l-433 1259l30 -1l-439 -1258h-209zM306 282l48 148h723l46 -148h-817zM714 1651q-136 0 -218.5 72t-82.5 226h135q0 -65 40.5 -104t125.5 -39q84 0 124.5 39t40.5 104h136q0 -154 -83 -226t-218 -72z" />
    <glyph glyph-name="abreve" unicode="&#x103;" horiz-adv-x="1172" 
d="M465 -22q-117 0 -190.5 40.5t-108 107t-34.5 142.5q0 80 31.5 134.5t119 99t256.5 93.5q88 26 141 46t77 51t24 89q0 43 -13.5 78t-55 56t-126.5 21q-106 0 -155 -22t-62.5 -57.5t-13.5 -78.5v-47h-181v48q0 157 105 229t313 72q140 0 222.5 -44.5t118.5 -125.5t36 -190
v-452q0 -84 21.5 -108t89.5 -24l-22 -144h-38q-106 0 -153 41.5t-71 116.5q-23 -36 -63.5 -76t-105 -68t-162.5 -28zM488 118q57 0 119 24.5t110.5 65t63.5 89.5v279q-22 -22 -76.5 -57.5t-155.5 -64.5q-123 -35 -180.5 -72t-57.5 -108q0 -80 41.5 -118t135.5 -38zM577 1235
q-90 0 -158 32.5t-105.5 103t-37.5 182.5h135q0 -76 40.5 -126t125.5 -50q84 0 124.5 50t40.5 126h136q0 -112 -37.5 -182.5t-105.5 -103t-158 -32.5z" />
    <glyph glyph-name="Aogonek" unicode="&#x104;" horiz-adv-x="1428" 
d="M86 0l539 1446h177l540 -1446h-205l-433 1259l30 -1l-439 -1258h-209zM306 282l48 148h723l46 -148h-817zM1277 -454q-111 0 -172 49.5t-61 144.5q0 65 51.5 143t133.5 127l113 -10q-60 -51 -99 -105t-39 -106q0 -47 24.5 -74.5t76.5 -27.5h60l-12 -141h-76z" />
    <glyph glyph-name="aogonek" unicode="&#x105;" horiz-adv-x="1172" 
d="M465 -22q-117 0 -190.5 40.5t-108 107t-34.5 142.5q0 80 31.5 134.5t119 99t256.5 93.5q88 26 141 46t77 51t24 89q0 43 -13.5 78t-55 56t-126.5 21q-106 0 -155 -22t-62.5 -57.5t-13.5 -78.5v-47h-181v48q0 157 105 229t313 72q140 0 222.5 -44.5t118.5 -125.5t36 -190
v-452q0 -84 21.5 -108t89.5 -24l-22 -144h-38q-106 0 -153 41.5t-71 116.5q-23 -36 -63.5 -76t-105 -68t-162.5 -28zM488 118q57 0 119 24.5t110.5 65t63.5 89.5v279q-22 -22 -76.5 -57.5t-155.5 -64.5q-123 -35 -180.5 -72t-57.5 -108q0 -80 41.5 -118t135.5 -38zM993 -462
q-111 0 -172 49.5t-61 144.5q0 65 51.5 143t133.5 127l113 -10q-60 -51 -99 -105t-39 -106q0 -47 24.5 -74.5t76.5 -27.5h60l-12 -141h-76z" />
    <glyph glyph-name="Cacute" unicode="&#x106;" horiz-adv-x="1456" 
d="M761 -22q-181 0 -295 37t-175.5 104.5t-85 160.5t-23.5 206v454q0 115 22.5 211.5t84 167.5t175 110t295.5 39q164 0 270 -29.5t165 -87.5t82.5 -143.5t23.5 -197.5v-13l-191 -17v27q0 131 -33.5 195t-110.5 84t-206 20q-127 0 -210 -28.5t-124 -100t-41 -200.5v-522
q0 -128 42 -196t126.5 -93.5t212.5 -25.5q126 0 201.5 17t109 77.5t33.5 189.5v24h191v-10q0 -109 -20.5 -194.5t-76.5 -144.5t-162.5 -90t-279.5 -31zM635 1632l165 350h225l-262 -350h-128z" />
    <glyph glyph-name="cacute" unicode="&#x107;" horiz-adv-x="1106" 
d="M579 -22q-158 0 -252.5 50.5t-136.5 134t-42 181.5v404q0 150 114.5 241t311.5 91q127 0 221 -29.5t145.5 -106.5t51.5 -220l-179 -17q0 97 -22 146t-73 66t-139 17q-121 0 -182 -43.5t-61 -149.5v-415q0 -114 64.5 -160t178.5 -46q93 0 141.5 13.5t68.5 54t27 120.5h174
q-10 -122 -52 -195t-128.5 -105t-230.5 -32zM453 1235l135 350h225l-232 -350h-128z" />
    <glyph glyph-name="Ccircumflex" unicode="&#x108;" horiz-adv-x="1456" 
d="M761 -22q-181 0 -295 37t-175.5 104.5t-85 160.5t-23.5 206v454q0 115 22.5 211.5t84 167.5t175 110t295.5 39q164 0 270 -29.5t165 -87.5t82.5 -143.5t23.5 -197.5v-13l-191 -17v27q0 131 -33.5 195t-110.5 84t-206 20q-127 0 -210 -28.5t-124 -100t-41 -200.5v-522
q0 -128 42 -196t126.5 -93.5t212.5 -25.5q126 0 201.5 17t109 77.5t33.5 189.5v24h191v-10q0 -109 -20.5 -194.5t-76.5 -144.5t-162.5 -90t-279.5 -31zM423 1635l255 320h175l255 -320h-138l-256 230h104l-257 -230h-138z" />
    <glyph glyph-name="ccircumflex" unicode="&#x109;" horiz-adv-x="1106" 
d="M579 -22q-158 0 -252.5 50.5t-136.5 134t-42 181.5v404q0 150 114.5 241t311.5 91q127 0 221 -29.5t145.5 -106.5t51.5 -220l-179 -17q0 97 -22 146t-73 66t-139 17q-121 0 -182 -43.5t-61 -149.5v-415q0 -114 64.5 -160t178.5 -46q93 0 141.5 13.5t68.5 54t27 120.5h174
q-10 -122 -52 -195t-128.5 -105t-230.5 -32zM231 1235l255 340h175l255 -340h-138l-256 250h104l-257 -250h-138z" />
    <glyph glyph-name="Cdotaccent" unicode="&#x10a;" horiz-adv-x="1456" 
d="M761 -22q-181 0 -295 37t-175.5 104.5t-85 160.5t-23.5 206v454q0 115 22.5 211.5t84 167.5t175 110t295.5 39q164 0 270 -29.5t165 -87.5t82.5 -143.5t23.5 -197.5v-13l-191 -17v27q0 131 -33.5 195t-110.5 84t-206 20q-127 0 -210 -28.5t-124 -100t-41 -200.5v-522
q0 -128 42 -196t126.5 -93.5t212.5 -25.5q126 0 201.5 17t109 77.5t33.5 189.5v24h191v-10q0 -109 -20.5 -194.5t-76.5 -144.5t-162.5 -90t-279.5 -31zM668 1614v208h194v-208h-194z" />
    <glyph glyph-name="cdotaccent" unicode="&#x10b;" horiz-adv-x="1106" 
d="M579 -22q-158 0 -252.5 50.5t-136.5 134t-42 181.5v404q0 150 114.5 241t311.5 91q127 0 221 -29.5t145.5 -106.5t51.5 -220l-179 -17q0 97 -22 146t-73 66t-139 17q-121 0 -182 -43.5t-61 -149.5v-415q0 -114 64.5 -160t178.5 -46q93 0 141.5 13.5t68.5 54t27 120.5h174
q-10 -122 -52 -195t-128.5 -105t-230.5 -32zM476 1297v208h194v-208h-194z" />
    <glyph glyph-name="Ccaron" unicode="&#x10c;" horiz-adv-x="1456" 
d="M761 -22q-181 0 -295 37t-175.5 104.5t-85 160.5t-23.5 206v454q0 115 22.5 211.5t84 167.5t175 110t295.5 39q164 0 270 -29.5t165 -87.5t82.5 -143.5t23.5 -197.5v-13l-191 -17v27q0 131 -33.5 195t-110.5 84t-206 20q-127 0 -210 -28.5t-124 -100t-41 -200.5v-522
q0 -128 42 -196t126.5 -93.5t212.5 -25.5q126 0 201.5 17t109 77.5t33.5 189.5v24h191v-10q0 -109 -20.5 -194.5t-76.5 -144.5t-162.5 -90t-279.5 -31zM678 1635l-255 320h138l257 -230h-104l256 230h138l-255 -320h-175z" />
    <glyph glyph-name="ccaron" unicode="&#x10d;" horiz-adv-x="1106" 
d="M579 -22q-158 0 -252.5 50.5t-136.5 134t-42 181.5v404q0 150 114.5 241t311.5 91q127 0 221 -29.5t145.5 -106.5t51.5 -220l-179 -17q0 97 -22 146t-73 66t-139 17q-121 0 -182 -43.5t-61 -149.5v-415q0 -114 64.5 -160t178.5 -46q93 0 141.5 13.5t68.5 54t27 120.5h174
q-10 -122 -52 -195t-128.5 -105t-230.5 -32zM486 1235l-255 340h138l257 -250h-104l256 250h138l-255 -340h-175z" />
    <glyph glyph-name="Dcaron" unicode="&#x10e;" horiz-adv-x="1522" 
d="M218 0v1446h574q201 0 321 -64.5t173.5 -174.5t53.5 -248v-477q0 -156 -60 -263.5t-181 -163t-305 -55.5h-576zM420 150h354q104 0 186.5 22.5t130.5 89.5t48 200v509q0 134 -48.5 203.5t-131 95t-185.5 25.5h-354v-1145zM674 1635l-255 320h138l257 -230h-104l256 230
h138l-255 -320h-175z" />
    <glyph glyph-name="dcaron" unicode="&#x10f;" horiz-adv-x="1440" 
d="M148 335v400q0 160 106 252.5t337 92.5q50 0 118 -11t117 -29v465h188v-1505h-128l-31 70q-46 -36 -125.5 -64t-161.5 -28q-152 0 -244.5 47t-134 127.5t-41.5 182.5zM826 189v703q-42 20 -104.5 32t-128.5 12q-111 0 -184 -41t-73 -139v-435q0 -99 70.5 -147t173.5 -48
q80 0 147 22t99 41zM1283 993l-77 41q55 39 92.5 101.5t37.5 148.5h-134v221h243v-154q0 -143 -50 -231.5t-112 -126.5z" />
    <glyph glyph-name="Dcroat" unicode="&#x110;" horiz-adv-x="1522" 
d="M218 0v1446h574q201 0 321 -64.5t173.5 -174.5t53.5 -248v-477q0 -156 -60 -263.5t-181 -163t-305 -55.5h-576zM420 150h354q104 0 186.5 22.5t130.5 89.5t48 200v509q0 134 -48.5 203.5t-131 95t-185.5 25.5h-354v-1145zM21 694v143h660v-143h-660z" />
    <glyph glyph-name="dcroat" unicode="&#x111;" horiz-adv-x="1200" 
d="M630 1360h529v-147h-529v147zM148 335v400q0 160 106 252.5t337 92.5q50 0 118 -11t117 -29v465h188v-1505h-128l-31 70q-46 -36 -125.5 -64t-161.5 -28q-152 0 -244.5 47t-134 127.5t-41.5 182.5zM826 189v703q-42 20 -104.5 32t-128.5 12q-111 0 -184 -41t-73 -139
v-435q0 -99 70.5 -147t173.5 -48q80 0 147 22t99 41z" />
    <glyph glyph-name="Emacron" unicode="&#x112;" horiz-adv-x="1255" 
d="M218 1446h903v-150h-702v-476h620v-150h-620v-520h714v-150h-915v1446zM418 1658v155h504v-155h-504z" />
    <glyph glyph-name="emacron" unicode="&#x113;" horiz-adv-x="1138" 
d="M148 374v369q0 150 103 243.5t331 93.5q218 0 321 -85.5t103 -236.5v-252h-670v-149q0 -129 51.5 -182t201.5 -53q89 0 140.5 6.5t76 40t32.5 113.5h166q-13 -125 -54.5 -190.5t-127.5 -89.5t-233 -24q-158 0 -255 44t-141.5 132t-44.5 220zM824 633v145q0 64 -30.5 98
t-84.5 47t-127 13q-112 0 -179 -39t-67 -137v-127h488zM332 1305v155h504v-155h-504z" />
    <glyph glyph-name="Ebreve" unicode="&#x114;" horiz-adv-x="1255" 
d="M218 1446h903v-150h-702v-476h620v-150h-620v-520h714v-150h-915v1446zM670 1651q-136 0 -218.5 72t-82.5 226h135q0 -65 40.5 -104t125.5 -39q84 0 124.5 39t40.5 104h136q0 -154 -83 -226t-218 -72z" />
    <glyph glyph-name="ebreve" unicode="&#x115;" horiz-adv-x="1138" 
d="M148 374v369q0 150 103 243.5t331 93.5q218 0 321 -85.5t103 -236.5v-252h-670v-149q0 -129 51.5 -182t201.5 -53q89 0 140.5 6.5t76 40t32.5 113.5h166q-13 -125 -54.5 -190.5t-127.5 -89.5t-233 -24q-158 0 -255 44t-141.5 132t-44.5 220zM824 633v145q0 64 -30.5 98
t-84.5 47t-127 13q-112 0 -179 -39t-67 -137v-127h488zM584 1235q-90 0 -158 32.5t-105.5 103t-37.5 182.5h135q0 -76 40.5 -126t125.5 -50q84 0 124.5 50t40.5 126h136q0 -112 -37.5 -182.5t-105.5 -103t-158 -32.5z" />
    <glyph glyph-name="Edotaccent" unicode="&#x116;" horiz-adv-x="1255" 
d="M218 1446h903v-150h-702v-476h620v-150h-620v-520h714v-150h-915v1446zM573 1614v208h194v-208h-194z" />
    <glyph glyph-name="edotaccent" unicode="&#x117;" horiz-adv-x="1138" 
d="M148 374v369q0 150 103 243.5t331 93.5q218 0 321 -85.5t103 -236.5v-252h-670v-149q0 -129 51.5 -182t201.5 -53q89 0 140.5 6.5t76 40t32.5 113.5h166q-13 -125 -54.5 -190.5t-127.5 -89.5t-233 -24q-158 0 -255 44t-141.5 132t-44.5 220zM824 633v145q0 64 -30.5 98
t-84.5 47t-127 13q-112 0 -179 -39t-67 -137v-127h488zM487 1297v208h194v-208h-194z" />
    <glyph glyph-name="Eogonek" unicode="&#x118;" horiz-adv-x="1255" 
d="M218 1446h903v-150h-702v-476h620v-150h-620v-520h714v-150h-915v1446zM1068 -454q-111 0 -172 49.5t-61 144.5q0 65 51.5 143t133.5 127l113 -10q-60 -51 -99 -105t-39 -106q0 -47 24.5 -74.5t76.5 -27.5h60l-12 -141h-76z" />
    <glyph glyph-name="eogonek" unicode="&#x119;" horiz-adv-x="1138" 
d="M148 374v369q0 150 103 243.5t331 93.5q218 0 321 -85.5t103 -236.5v-252h-670v-149q0 -129 51.5 -182t201.5 -53q89 0 140.5 6.5t76 40t32.5 113.5h166q-13 -125 -54.5 -190.5t-127.5 -89.5t-233 -24q-158 0 -255 44t-141.5 132t-44.5 220zM824 633v145q0 64 -30.5 98
t-84.5 47t-127 13q-112 0 -179 -39t-67 -137v-127h488zM741 -454q-111 0 -172 49.5t-61 144.5q0 65 51.5 143t133.5 127l113 -10q-60 -51 -99 -105t-39 -106q0 -47 24.5 -74.5t76.5 -27.5h60l-12 -141h-76z" />
    <glyph glyph-name="Ecaron" unicode="&#x11a;" horiz-adv-x="1255" 
d="M218 1446h903v-150h-702v-476h620v-150h-620v-520h714v-150h-915v1446zM583 1635l-255 320h138l257 -230h-104l256 230h138l-255 -320h-175z" />
    <glyph glyph-name="ecaron" unicode="&#x11b;" horiz-adv-x="1138" 
d="M148 374v369q0 150 103 243.5t331 93.5q218 0 321 -85.5t103 -236.5v-252h-670v-149q0 -129 51.5 -182t201.5 -53q89 0 140.5 6.5t76 40t32.5 113.5h166q-13 -125 -54.5 -190.5t-127.5 -89.5t-233 -24q-158 0 -255 44t-141.5 132t-44.5 220zM824 633v145q0 64 -30.5 98
t-84.5 47t-127 13q-112 0 -179 -39t-67 -137v-127h488zM497 1235l-255 340h138l257 -250h-104l256 250h138l-255 -340h-175z" />
    <glyph glyph-name="Gcircumflex" unicode="&#x11c;" horiz-adv-x="1556" 
d="M788 -22q-181 0 -298.5 37t-183.5 104.5t-93 160.5t-27 206v454q0 115 26.5 211.5t92.5 167.5t183.5 110t299.5 39q175 0 284.5 -32.5t168.5 -91t81 -137t22 -170.5v-22l-184 -15v22q0 112 -30.5 173.5t-111 86t-230.5 24.5q-127 0 -216.5 -28.5t-136.5 -100t-47 -200.5
v-522q0 -128 46.5 -196t136 -93.5t217.5 -25.5q129 0 211 25.5t120.5 93.5t38.5 196v133h-343v147h545v-735h-110l-25 246q-9 -59 -38.5 -108t-82 -85t-131 -55.5t-185.5 -19.5zM440 1635l255 320h175l255 -320h-138l-256 230h104l-257 -230h-138z" />
    <glyph glyph-name="gcircumflex" unicode="&#x11d;" horiz-adv-x="1182" 
d="M573 -408q-107 0 -184 9t-136 31l42 141q43 -16 119 -27t150 -11q137 0 197.5 58t60.5 176v147q-30 -28 -80.5 -44.5t-102.5 -24t-89 -7.5q-203 0 -302.5 87t-99.5 252v349q0 107 43 186t132 122.5t227 43.5q54 0 111.5 -16t101.5 -40t59 -49v85h188v-1035
q0 -124 -40.5 -222t-136 -154.5t-260.5 -56.5zM579 184q105 0 163 31t80 49v526q0 69 -59.5 107.5t-184.5 38.5q-111 0 -176.5 -45t-65.5 -143v-398q0 -95 70 -130.5t173 -35.5zM223 1235l255 340h175l255 -340h-138l-256 250h104l-257 -250h-138z" />
    <glyph glyph-name="Gbreve" unicode="&#x11e;" horiz-adv-x="1556" 
d="M788 -22q-181 0 -298.5 37t-183.5 104.5t-93 160.5t-27 206v454q0 115 26.5 211.5t92.5 167.5t183.5 110t299.5 39q175 0 284.5 -32.5t168.5 -91t81 -137t22 -170.5v-22l-184 -15v22q0 112 -30.5 173.5t-111 86t-230.5 24.5q-127 0 -216.5 -28.5t-136.5 -100t-47 -200.5
v-522q0 -128 46.5 -196t136 -93.5t217.5 -25.5q129 0 211 25.5t120.5 93.5t38.5 196v133h-343v147h545v-735h-110l-25 246q-9 -59 -38.5 -108t-82 -85t-131 -55.5t-185.5 -19.5zM782 1651q-136 0 -218.5 72t-82.5 226h135q0 -65 40.5 -104t125.5 -39q84 0 124.5 39t40.5 104
h136q0 -154 -83 -226t-218 -72z" />
    <glyph glyph-name="gbreve" unicode="&#x11f;" horiz-adv-x="1182" 
d="M573 -408q-107 0 -184 9t-136 31l42 141q43 -16 119 -27t150 -11q137 0 197.5 58t60.5 176v147q-30 -28 -80.5 -44.5t-102.5 -24t-89 -7.5q-203 0 -302.5 87t-99.5 252v349q0 107 43 186t132 122.5t227 43.5q54 0 111.5 -16t101.5 -40t59 -49v85h188v-1035
q0 -124 -40.5 -222t-136 -154.5t-260.5 -56.5zM579 184q105 0 163 31t80 49v526q0 69 -59.5 107.5t-184.5 38.5q-111 0 -176.5 -45t-65.5 -143v-398q0 -95 70 -130.5t173 -35.5zM565 1235q-90 0 -158 32.5t-105.5 103t-37.5 182.5h135q0 -76 40.5 -126t125.5 -50
q84 0 124.5 50t40.5 126h136q0 -112 -37.5 -182.5t-105.5 -103t-158 -32.5z" />
    <glyph glyph-name="Gdotaccent" unicode="&#x120;" horiz-adv-x="1556" 
d="M788 -22q-181 0 -298.5 37t-183.5 104.5t-93 160.5t-27 206v454q0 115 26.5 211.5t92.5 167.5t183.5 110t299.5 39q175 0 284.5 -32.5t168.5 -91t81 -137t22 -170.5v-22l-184 -15v22q0 112 -30.5 173.5t-111 86t-230.5 24.5q-127 0 -216.5 -28.5t-136.5 -100t-47 -200.5
v-522q0 -128 46.5 -196t136 -93.5t217.5 -25.5q129 0 211 25.5t120.5 93.5t38.5 196v133h-343v147h545v-735h-110l-25 246q-9 -59 -38.5 -108t-82 -85t-131 -55.5t-185.5 -19.5zM685 1614v208h194v-208h-194z" />
    <glyph glyph-name="gdotaccent" unicode="&#x121;" horiz-adv-x="1182" 
d="M573 -408q-107 0 -184 9t-136 31l42 141q43 -16 119 -27t150 -11q137 0 197.5 58t60.5 176v147q-30 -28 -80.5 -44.5t-102.5 -24t-89 -7.5q-203 0 -302.5 87t-99.5 252v349q0 107 43 186t132 122.5t227 43.5q54 0 111.5 -16t101.5 -40t59 -49v85h188v-1035
q0 -124 -40.5 -222t-136 -154.5t-260.5 -56.5zM579 184q105 0 163 31t80 49v526q0 69 -59.5 107.5t-184.5 38.5q-111 0 -176.5 -45t-65.5 -143v-398q0 -95 70 -130.5t173 -35.5zM468 1297v208h194v-208h-194z" />
    <glyph glyph-name="uni0122" unicode="&#x122;" horiz-adv-x="1556" 
d="M788 -22q-181 0 -298.5 37t-183.5 104.5t-93 160.5t-27 206v454q0 115 26.5 211.5t92.5 167.5t183.5 110t299.5 39q175 0 284.5 -32.5t168.5 -91t81 -137t22 -170.5v-22l-184 -15v22q0 112 -30.5 173.5t-111 86t-230.5 24.5q-127 0 -216.5 -28.5t-136.5 -100t-47 -200.5
v-522q0 -128 46.5 -196t136 -93.5t217.5 -25.5q129 0 211 25.5t120.5 93.5t38.5 196v133h-343v147h545v-735h-110l-25 246q-9 -59 -38.5 -108t-82 -85t-131 -55.5t-185.5 -19.5zM769 -574l-88 37q57 55 81 109t24 124v13.5t-1 13.5l39 -81h-154v233h234v-92q0 -114 -33 -203
t-102 -154z" />
    <glyph glyph-name="uni0123" unicode="&#x123;" horiz-adv-x="1182" 
d="M573 -408q-107 0 -184 9t-136 31l42 141q43 -16 119 -27t150 -11q137 0 197.5 58t60.5 176v147q-30 -28 -80.5 -44.5t-102.5 -24t-89 -7.5q-203 0 -302.5 87t-99.5 252v349q0 107 43 186t132 122.5t227 43.5q54 0 111.5 -16t101.5 -40t59 -49v85h188v-1035
q0 -124 -40.5 -222t-136 -154.5t-260.5 -56.5zM579 184q105 0 163 31t80 49v526q0 69 -59.5 107.5t-184.5 38.5q-111 0 -176.5 -45t-65.5 -143v-398q0 -95 70 -130.5t173 -35.5zM505 1240v163q0 71 27 135.5t66.5 115t78.5 77.5l81 -44q-59 -49 -98 -108t-39 -106h131v-233
h-247z" />
    <glyph glyph-name="Hcircumflex" unicode="&#x124;" horiz-adv-x="1528" 
d="M212 1446h201v-639h702v639h201v-1446h-201v659h-702v-659h-201v1446zM422 1635l255 320h175l255 -320h-138l-256 230h104l-257 -230h-138z" />
    <glyph glyph-name="hcircumflex" unicode="&#x125;" horiz-adv-x="1224" 
d="M186 1505h188v-545q47 54 124 87t192 33q131 0 210 -41.5t114.5 -111.5t35.5 -154v-773h-188v783q0 53 -27.5 86.5t-77 50t-115.5 16.5q-92 0 -151.5 -23.5t-88 -63.5t-28.5 -91v-758h-188v1505zM310 1621l255 340h175l255 -340h-138l-256 250h104l-257 -250h-138z" />
    <glyph glyph-name="Hbar" unicode="&#x126;" horiz-adv-x="1528" 
d="M100 1204h1328v-144h-1328v144zM212 1446h201v-639h702v639h201v-1446h-201v659h-702v-659h-201v1446z" />
    <glyph glyph-name="hbar" unicode="&#x127;" horiz-adv-x="1224" 
d="M41 1213v147h529v-147h-529zM186 1505h188v-545q47 54 124 87t192 33q131 0 210 -41.5t114.5 -111.5t35.5 -154v-773h-188v783q0 53 -27.5 86.5t-77 50t-115.5 16.5q-92 0 -151.5 -23.5t-88 -63.5t-28.5 -91v-758h-188v1505z" />
    <glyph glyph-name="Itilde" unicode="&#x128;" horiz-adv-x="1132" 
d="M190 150h276v1147h-276v149h752v-149h-275v-1147h275v-150h-752v150zM676 1602q-51 0 -85.5 16t-59 37.5t-46.5 37.5t-49 16q-31 0 -50.5 -23t-19.5 -70h-97q0 124 48 176.5t138 52.5q51 0 85.5 -16t59.5 -37.5t46.5 -37.5t48.5 -16q31 0 50.5 23.5t19.5 69.5h97
q0 -124 -48 -176.5t-138 -52.5z" />
    <glyph glyph-name="itilde" unicode="&#x129;" horiz-adv-x="560" 
d="M186 1060h188v-1060h-188v1060zM390 1253q-51 0 -85.5 16t-59 37.5t-46.5 37.5t-49 16q-31 0 -50.5 -23t-19.5 -70h-97q0 124 48 176.5t138 52.5q51 0 85.5 -16t59.5 -37.5t46.5 -37.5t48.5 -16q31 0 50.5 23.5t19.5 69.5h97q0 -124 -48 -176.5t-138 -52.5z" />
    <glyph glyph-name="Imacron" unicode="&#x12a;" horiz-adv-x="1132" 
d="M190 150h276v1147h-276v149h752v-149h-275v-1147h275v-150h-752v150zM314 1658v155h504v-155h-504z" />
    <glyph glyph-name="imacron" unicode="&#x12b;" horiz-adv-x="560" 
d="M186 1060h188v-1060h-188v1060zM28 1305v155h504v-155h-504z" />
    <glyph glyph-name="Ibreve" unicode="&#x12c;" horiz-adv-x="1132" 
d="M190 150h276v1147h-276v149h752v-149h-275v-1147h275v-150h-752v150zM566 1651q-136 0 -218.5 72t-82.5 226h135q0 -65 40.5 -104t125.5 -39q84 0 124.5 39t40.5 104h136q0 -154 -83 -226t-218 -72z" />
    <glyph glyph-name="ibreve" unicode="&#x12d;" horiz-adv-x="564" 
d="M19 1543h135q0 -76 29.5 -126t106.5 -50t106 50t29 126h136q0 -112 -36.5 -182.5t-98 -103t-136.5 -32.5t-136.5 32.5t-98 103t-36.5 182.5zM186 1060h188v-1060h-188v1060z" />
    <glyph glyph-name="Iogonek" unicode="&#x12e;" horiz-adv-x="1132" 
d="M190 150h276v1147h-276v149h752v-149h-275v-1147h275v-150h-752v150zM877 -454q-111 0 -172 49.5t-61 144.5q0 65 51.5 143t133.5 127l113 -10q-60 -51 -99 -105t-39 -106q0 -47 24.5 -74.5t76.5 -27.5h60l-12 -141h-76z" />
    <glyph glyph-name="iogonek" unicode="&#x12f;" horiz-adv-x="560" 
d="M186 1060h188v-1060h-188v1060zM183 1297v208h194v-208h-194zM309 -454q-111 0 -172 49.5t-61 144.5q0 65 51.5 143t133.5 127l113 -10q-60 -51 -99 -105t-39 -106q0 -47 24.5 -74.5t76.5 -27.5h60l-12 -141h-76z" />
    <glyph glyph-name="Idotaccent" unicode="&#x130;" horiz-adv-x="1132" 
d="M190 150h276v1147h-276v149h752v-149h-275v-1147h275v-150h-752v150zM469 1614v208h194v-208h-194z" />
    <glyph glyph-name="dotlessi" unicode="&#x131;" horiz-adv-x="560" 
d="M186 1060h188v-1060h-188v1060z" />
    <glyph glyph-name="IJ" unicode="&#x132;" horiz-adv-x="2338" 
d="M190 150h276v1147h-276v149h752v-149h-275v-1147h275v-150h-752v150zM1234 70l55 155q24 -11 81 -29.5t131 -33t147 -14.5q143 0 207 73.5t64 213.5v846h-553v165h754v-1015q0 -205 -111 -326.5t-355 -121.5q-84 0 -168.5 14.5t-151.5 35t-100 37.5z" />
    <glyph glyph-name="ij" unicode="&#x133;" horiz-adv-x="1162" 
d="M186 1060h188v-1060h-188v1060zM183 1297v208h194v-208h-194zM573 -197h29q67 0 108.5 13t61.5 54t20 126v1064h188v-1053q0 -156 -37.5 -233t-109.5 -102t-175 -25h-66zM789 1297v208h194v-208h-194z" />
    <glyph glyph-name="Jcircumflex" unicode="&#x134;" horiz-adv-x="1206" 
d="M102 70l55 155q24 -11 81 -29.5t131 -33t147 -14.5q143 0 207 73.5t64 213.5v846h-553v165h754v-1015q0 -205 -111 -326.5t-355 -121.5q-84 0 -168.5 14.5t-151.5 35t-100 37.5zM266 1635l255 320h175l255 -320h-138l-256 230h104l-257 -230h-138z" />
    <glyph glyph-name="jcircumflex" unicode="&#x135;" horiz-adv-x="602" 
d="M13 -197h29q67 0 108.5 13t61.5 54t20 126v1064h188v-1053q0 -156 -37.5 -233t-109.5 -102t-175 -25h-66zM-16 1235l255 340h175l255 -340h-138l-256 250h104l-257 -250h-138z" />
    <glyph glyph-name="uni0136" unicode="&#x136;" horiz-adv-x="1418" 
d="M675 701l-27 -4l-229 -260v-437h-201v1446h201v-789l684 789h218zM599 744l141 108l610 -852h-223zM733 -574l-88 37q57 55 81 109t24 124v13.5t-1 13.5l39 -81h-154v233h234v-92q0 -114 -33 -203t-102 -154z" />
    <glyph glyph-name="uni0137" unicode="&#x137;" horiz-adv-x="1145" 
d="M186 1505h188v-981l507 536h206l-431 -466l474 -594h-217l-380 492l-159 -158v-334h-188v1505zM606 -574l-88 37q57 55 81 109t24 124v13.5t-1 13.5l39 -81h-154v233h234v-92q0 -114 -33 -203t-102 -154z" />
    <glyph glyph-name="kgreenlandic" unicode="&#x138;" horiz-adv-x="1153" 
d="M186 1060h188v-536l507 536h206l-431 -466l474 -594h-217l-380 492l-159 -158v-334h-188v1060z" />
    <glyph glyph-name="Lacute" unicode="&#x139;" horiz-adv-x="1145" 
d="M218 1446h201v-1291h649v-155h-850v1446zM189 1632l165 350h225l-262 -350h-128z" />
    <glyph glyph-name="lacute" unicode="&#x13a;" horiz-adv-x="696" 
d="M190 358v1147h188v-1149q0 -86 16 -130.5t58 -60t121 -15.5h33l-22 -158h-54q-116 0 -191.5 27t-112 106t-36.5 233zM164 1621l135 350h225l-232 -350h-128z" />
    <glyph glyph-name="uni013B" unicode="&#x13b;" horiz-adv-x="1145" 
d="M218 1446h201v-1291h649v-155h-850v1446zM640 -574l-88 37q57 55 81 109t24 124v13.5t-1 13.5l39 -81h-154v233h234v-92q0 -114 -33 -203t-102 -154z" />
    <glyph glyph-name="uni013C" unicode="&#x13c;" horiz-adv-x="696" 
d="M190 358v1147h188v-1149q0 -86 16 -130.5t58 -60t121 -15.5h33l-22 -158h-54q-116 0 -191.5 27t-112 106t-36.5 233zM383 -574l-88 37q57 55 81 109t24 124v13.5t-1 13.5l39 -81h-154v233h234v-92q0 -114 -33 -203t-102 -154z" />
    <glyph glyph-name="Lcaron" unicode="&#x13d;" horiz-adv-x="1145" 
d="M218 1446h201v-1291h649v-155h-850v1446zM826 934l-77 41q55 39 92.5 101.5t37.5 148.5h-134v221h243v-154q0 -143 -50 -231.5t-112 -126.5z" />
    <glyph glyph-name="lcaron" unicode="&#x13e;" horiz-adv-x="809" 
d="M190 358v1147h188v-1149q0 -86 16 -130.5t58 -60t121 -15.5h33l-22 -158h-54q-116 0 -191.5 27t-112 106t-36.5 233zM647 993l-77 41q55 39 92.5 101.5t37.5 148.5h-134v221h243v-154q0 -143 -50 -231.5t-112 -126.5z" />
    <glyph glyph-name="Ldot" unicode="&#x13f;" horiz-adv-x="1145" 
d="M218 1446h201v-1291h649v-155h-850v1446zM790 892h205v-206h-205v206z" />
    <glyph glyph-name="ldot" unicode="&#x140;" horiz-adv-x="692" 
d="M530 925h205v-206h-205v206zM190 358v1147h188v-1149q0 -86 16 -130.5t58 -60t121 -15.5h33l-22 -158h-54q-116 0 -191.5 27t-112 106t-36.5 233z" />
    <glyph glyph-name="Lslash" unicode="&#x141;" horiz-adv-x="1145" 
d="M52 711l671 334v-155l-671 -334v155zM218 1446h201v-1291h649v-155h-850v1446z" />
    <glyph glyph-name="lslash" unicode="&#x142;" horiz-adv-x="708" 
d="M52 587v153l552 271v-153zM190 358v1147h188v-1149q0 -86 16 -130.5t58 -60t121 -15.5h33l-22 -158h-54q-116 0 -191.5 27t-112 106t-36.5 233z" />
    <glyph glyph-name="Nacute" unicode="&#x143;" horiz-adv-x="1594" 
d="M218 1446h153l854 -1193l-26 -8v1201h177v-1446h-179l-828 1140l26 9v-1149h-177v1446zM687 1582l165 350h225l-262 -350h-128z" />
    <glyph glyph-name="nacute" unicode="&#x144;" horiz-adv-x="1226" 
d="M186 1060h188v-103q47 54 123 88.5t191 34.5q131 0 210.5 -42.5t115.5 -113t36 -154.5v-770h-188v781q0 53 -28 87t-78 51t-116 17q-92 0 -151 -24t-87 -65t-28 -92v-755h-188v1060zM526 1235l135 350h225l-232 -350h-128z" />
    <glyph glyph-name="uni0145" unicode="&#x145;" horiz-adv-x="1594" 
d="M218 1446h153l854 -1193l-26 -8v1201h177v-1446h-179l-828 1140l26 9v-1149h-177v1446zM779 -574l-88 37q57 55 81 109t24 124v13.5t-1 13.5l39 -81h-154v233h234v-92q0 -114 -33 -203t-102 -154z" />
    <glyph glyph-name="uni0146" unicode="&#x146;" horiz-adv-x="1226" 
d="M186 1060h188v-103q47 54 123 88.5t191 34.5q131 0 210.5 -42.5t115.5 -113t36 -154.5v-770h-188v781q0 53 -28 87t-78 51t-116 17q-92 0 -151 -24t-87 -65t-28 -92v-755h-188v1060zM597 -574l-88 37q57 55 81 109t24 124v13.5t-1 13.5l39 -81h-154v233h234v-92
q0 -114 -33 -203t-102 -154z" />
    <glyph glyph-name="Ncaron" unicode="&#x147;" horiz-adv-x="1594" 
d="M218 1446h153l854 -1193l-26 -8v1201h177v-1446h-179l-828 1140l26 9v-1149h-177v1446zM710 1585l-255 320h138l257 -230h-104l256 230h138l-255 -320h-175z" />
    <glyph glyph-name="ncaron" unicode="&#x148;" horiz-adv-x="1226" 
d="M186 1060h188v-103q47 54 123 88.5t191 34.5q131 0 210.5 -42.5t115.5 -113t36 -154.5v-770h-188v781q0 53 -28 87t-78 51t-116 17q-92 0 -151 -24t-87 -65t-28 -92v-755h-188v1060zM559 1235l-255 340h138l257 -250h-104l256 250h138l-255 -340h-175z" />
    <glyph glyph-name="napostrophe" unicode="&#x149;" horiz-adv-x="1314" 
d="M276 1060h188v-103q47 54 123 88.5t191 34.5q131 0 210.5 -42.5t115.5 -113t36 -154.5v-770h-188v781q0 53 -28 87t-78 51t-116 17q-92 0 -151 -24t-87 -65t-28 -92v-755h-188v1060zM21 912l-87 47q67 56 102 113t35 141h-141v233h257v-163q0 -143 -42.5 -227.5
t-123.5 -143.5z" />
    <glyph glyph-name="Eng" unicode="&#x14a;" horiz-adv-x="1582" 
d="M793 -232q92 8 164 20.5t122 44.5t76.5 98.5t26.5 183.5v75l-793 914v-1104h-177v1446h153l828 -976v976h177v-1324q0 -190 -68.5 -298t-191.5 -152.5t-289 -44.5z" />
    <glyph glyph-name="eng" unicode="&#x14b;" horiz-adv-x="1226" 
d="M613 -175q93 0 144 17t73.5 59.5t27 118t4.5 192.5v569q0 53 -28 87t-78 51t-116 17q-92 0 -151 -24t-87 -65t-28 -92v-755h-188v1060h188v-103q47 54 123 88.5t191 34.5q131 0 210.5 -42.5t115.5 -113t36 -154.5v-551q0 -190 -30 -308t-118 -172.5t-261 -54.5z" />
    <glyph glyph-name="Omacron" unicode="&#x14c;" horiz-adv-x="1546" 
d="M782 -22q-181 0 -297.5 37t-181.5 104.5t-91 160.5t-26 206v455q0 115 25.5 211t90.5 167t181.5 110t298.5 39q175 0 288 -41t176 -114.5t88.5 -171.5t25.5 -213v-428q0 -111 -25.5 -206.5t-89 -166t-176.5 -110t-287 -39.5zM782 140q129 0 212.5 25.5t124 93.5t40.5 196
v523q0 129 -41 200t-124.5 99.5t-211.5 28.5q-127 0 -215 -28.5t-133.5 -99.5t-45.5 -200v-523q0 -128 45 -196t133 -93.5t216 -25.5zM521 1658v155h504v-155h-504z" />
    <glyph glyph-name="omacron" unicode="&#x14d;" horiz-adv-x="1174" 
d="M587 -22q-159 0 -255.5 43.5t-140 119.5t-43.5 174v427q0 98 43.5 174.5t140 120t255.5 43.5q158 0 254.5 -43.5t140.5 -120t44 -174.5v-427q0 -98 -44 -174t-140.5 -119.5t-254.5 -43.5zM587 122q110 0 180.5 39.5t70.5 137.5v459q0 98 -70.5 138t-180.5 40
q-112 0 -181.5 -40t-69.5 -138v-459q0 -98 69.5 -137.5t181.5 -39.5zM333 1305v155h504v-155h-504z" />
    <glyph glyph-name="Obreve" unicode="&#x14e;" horiz-adv-x="1546" 
d="M782 -22q-181 0 -297.5 37t-181.5 104.5t-91 160.5t-26 206v455q0 115 25.5 211t90.5 167t181.5 110t298.5 39q175 0 288 -41t176 -114.5t88.5 -171.5t25.5 -213v-428q0 -111 -25.5 -206.5t-89 -166t-176.5 -110t-287 -39.5zM782 140q129 0 212.5 25.5t124 93.5t40.5 196
v523q0 129 -41 200t-124.5 99.5t-211.5 28.5q-127 0 -215 -28.5t-133.5 -99.5t-45.5 -200v-523q0 -128 45 -196t133 -93.5t216 -25.5zM773 1651q-136 0 -218.5 72t-82.5 226h135q0 -65 40.5 -104t125.5 -39q84 0 124.5 39t40.5 104h136q0 -154 -83 -226t-218 -72z" />
    <glyph glyph-name="obreve" unicode="&#x14f;" horiz-adv-x="1174" 
d="M587 -22q-159 0 -255.5 43.5t-140 119.5t-43.5 174v427q0 98 43.5 174.5t140 120t255.5 43.5q158 0 254.5 -43.5t140.5 -120t44 -174.5v-427q0 -98 -44 -174t-140.5 -119.5t-254.5 -43.5zM587 122q110 0 180.5 39.5t70.5 137.5v459q0 98 -70.5 138t-180.5 40
q-112 0 -181.5 -40t-69.5 -138v-459q0 -98 69.5 -137.5t181.5 -39.5zM585 1235q-90 0 -158 32.5t-105.5 103t-37.5 182.5h135q0 -76 40.5 -126t125.5 -50q84 0 124.5 50t40.5 126h136q0 -112 -37.5 -182.5t-105.5 -103t-158 -32.5z" />
    <glyph glyph-name="Ohungarumlaut" unicode="&#x150;" horiz-adv-x="1546" 
d="M782 -22q-181 0 -297.5 37t-181.5 104.5t-91 160.5t-26 206v455q0 115 25.5 211t90.5 167t181.5 110t298.5 39q175 0 288 -41t176 -114.5t88.5 -171.5t25.5 -213v-428q0 -111 -25.5 -206.5t-89 -166t-176.5 -110t-287 -39.5zM782 140q129 0 212.5 25.5t124 93.5t40.5 196
v523q0 129 -41 200t-124.5 99.5t-211.5 28.5q-127 0 -215 -28.5t-133.5 -99.5t-45.5 -200v-523q0 -128 45 -196t133 -93.5t216 -25.5zM835 1632l65 350h220l-162 -350h-123zM545 1632l65 350h220l-162 -350h-123z" />
    <glyph glyph-name="ohungarumlaut" unicode="&#x151;" horiz-adv-x="1174" 
d="M587 -22q-159 0 -255.5 43.5t-140 119.5t-43.5 174v427q0 98 43.5 174.5t140 120t255.5 43.5q158 0 254.5 -43.5t140.5 -120t44 -174.5v-427q0 -98 -44 -174t-140.5 -119.5t-254.5 -43.5zM587 122q110 0 180.5 39.5t70.5 137.5v459q0 98 -70.5 138t-180.5 40
q-112 0 -181.5 -40t-69.5 -138v-459q0 -98 69.5 -137.5t181.5 -39.5zM651 1235l65 350h220l-162 -350h-123zM361 1235l65 350h220l-162 -350h-123z" />
    <glyph glyph-name="OE" unicode="&#x152;" horiz-adv-x="1567" 
d="M183 510v408q0 115 25 211.5t89 167.5t180 110t298 39h625v-150h-414v-482h353v-150h-353v-514h423v-150h-634q-181 0 -297 37t-180 105t-89.5 161.5t-25.5 206.5zM785 150v1145h-21q-123 0 -207.5 -32.5t-128 -106.5t-43.5 -201v-476q0 -126 43 -198t128 -101.5
t209 -29.5h20z" />
    <glyph glyph-name="oe" unicode="&#x153;" horiz-adv-x="1734" 
d="M569 -20q-158 0 -249.5 43.5t-130.5 119.5t-39 174v430q0 150 111 241.5t308 91.5q104 0 183 -30t131 -100q50 70 128 100t187 30q207 0 306.5 -85.5t99.5 -236.5v-252h-625v-178q0 -106 54.5 -156.5t164.5 -50.5q83 0 132 14.5t73 59.5t30 136h170q-10 -129 -50 -206
t-125 -111t-230 -34q-108 0 -187.5 38.5t-127.5 103.5q-46 -66 -119.5 -104t-194.5 -38zM569 121q104 0 163 41.5t59 138.5v462q0 94 -56.5 134.5t-165.5 40.5q-104 0 -167.5 -38.5t-63.5 -136.5v-462q0 -98 60.5 -139t170.5 -41zM979 633h443v145q0 96 -57.5 128t-166.5 32
q-112 0 -165.5 -40t-53.5 -138v-127z" />
    <glyph glyph-name="Racute" unicode="&#x154;" horiz-adv-x="1464" 
d="M218 0v1446h645q122 0 212.5 -39.5t141 -133t50.5 -255.5q0 -117 -26 -192t-71.5 -119.5t-106.5 -70.5l307 -636h-207l-287 600h-456v-600h-202zM420 752h426q88 0 135 33t65.5 89.5t18.5 125.5q0 70 -11.5 137t-52.5 111.5t-132 44.5h-449v-541zM573 1632l165 350h225
l-262 -350h-128z" />
    <glyph glyph-name="racute" unicode="&#x155;" horiz-adv-x="798" 
d="M186 1060h188v-150q23 60 83.5 96.5t137.5 52.5t147 16l-6 -161q-68 0 -132.5 -14t-116.5 -38.5t-82.5 -55.5t-30.5 -64v-742h-188v1060zM342 1235l135 350h225l-232 -350h-128z" />
    <glyph glyph-name="uni0156" unicode="&#x156;" horiz-adv-x="1464" 
d="M218 0v1446h645q122 0 212.5 -39.5t141 -133t50.5 -255.5q0 -117 -26 -192t-71.5 -119.5t-106.5 -70.5l307 -636h-207l-287 600h-456v-600h-202zM420 752h426q88 0 135 33t65.5 89.5t18.5 125.5q0 70 -11.5 137t-52.5 111.5t-132 44.5h-449v-541zM714 -574l-88 37
q57 55 81 109t24 124v13.5t-1 13.5l39 -81h-154v233h234v-92q0 -114 -33 -203t-102 -154z" />
    <glyph glyph-name="uni0157" unicode="&#x157;" horiz-adv-x="798" 
d="M186 1060h188v-150q23 60 83.5 96.5t137.5 52.5t147 16l-6 -161q-68 0 -132.5 -14t-116.5 -38.5t-82.5 -55.5t-30.5 -64v-742h-188v1060zM266 -574l-88 37q57 55 81 109t24 124v13.5t-1 13.5l39 -81h-154v233h234v-92q0 -114 -33 -203t-102 -154z" />
    <glyph glyph-name="Rcaron" unicode="&#x158;" horiz-adv-x="1464" 
d="M218 0v1446h645q122 0 212.5 -39.5t141 -133t50.5 -255.5q0 -117 -26 -192t-71.5 -119.5t-106.5 -70.5l307 -636h-207l-287 600h-456v-600h-202zM420 752h426q88 0 135 33t65.5 89.5t18.5 125.5q0 70 -11.5 137t-52.5 111.5t-132 44.5h-449v-541zM616 1635l-255 320h138
l257 -230h-104l256 230h138l-255 -320h-175z" />
    <glyph glyph-name="rcaron" unicode="&#x159;" horiz-adv-x="798" 
d="M186 1060h188v-150q23 60 83.5 96.5t137.5 52.5t147 16l-6 -161q-68 0 -132.5 -14t-116.5 -38.5t-82.5 -55.5t-30.5 -64v-742h-188v1060zM375 1235l-255 340h138l257 -250h-104l256 250h138l-255 -340h-175z" />
    <glyph glyph-name="Sacute" unicode="&#x15a;" horiz-adv-x="1304" 
d="M691 -22q-161 0 -297 34.5t-250 100.5l71 154q83 -49 211 -88t261 -39q118 0 180.5 31t86.5 96.5t24 169.5q0 41 -13.5 73t-51 59t-111.5 51l-349 116q-100 33 -162 77.5t-91 111t-29 164.5q0 139 63.5 222t173.5 120t248 37q185 0 300 -28.5t185 -72.5l-49 -157
q-65 35 -162.5 65.5t-238.5 30.5q-157 0 -241 -41t-84 -177q0 -66 28.5 -107.5t120.5 -73.5l364 -123q148 -50 216.5 -132t68.5 -246q0 -133 -48 -229t-152.5 -147.5t-272.5 -51.5zM553 1632l165 350h225l-262 -350h-128z" />
    <glyph glyph-name="sacute" unicode="&#x15b;" horiz-adv-x="992" 
d="M142 64l46 138q35 -19 121 -49.5t194 -30.5q125 0 169 46t44 113q0 62 -16.5 98t-91.5 64l-252 92q-115 42 -161 99t-46 156q0 134 74 212t270 78q112 0 205.5 -17.5t151.5 -40.5l-43 -144q-30 13 -79 26t-102 22.5t-98 9.5q-129 0 -166.5 -32.5t-37.5 -104.5
q0 -49 18.5 -72.5t72.5 -44.5l249 -97q89 -34 134.5 -72.5t61.5 -92.5t16 -137t-34.5 -152.5t-111 -111t-202.5 -41.5q-148 0 -249 33t-137 53zM404 1235l135 350h225l-232 -350h-128z" />
    <glyph glyph-name="Scircumflex" unicode="&#x15c;" horiz-adv-x="1304" 
d="M691 -22q-161 0 -297 34.5t-250 100.5l71 154q83 -49 211 -88t261 -39q118 0 180.5 31t86.5 96.5t24 169.5q0 41 -13.5 73t-51 59t-111.5 51l-349 116q-100 33 -162 77.5t-91 111t-29 164.5q0 139 63.5 222t173.5 120t248 37q185 0 300 -28.5t185 -72.5l-49 -157
q-65 35 -162.5 65.5t-238.5 30.5q-157 0 -241 -41t-84 -177q0 -66 28.5 -107.5t120.5 -73.5l364 -123q148 -50 216.5 -132t68.5 -246q0 -133 -48 -229t-152.5 -147.5t-272.5 -51.5zM341 1635l255 320h175l255 -320h-138l-256 230h104l-257 -230h-138z" />
    <glyph glyph-name="scircumflex" unicode="&#x15d;" horiz-adv-x="992" 
d="M142 64l46 138q35 -19 121 -49.5t194 -30.5q125 0 169 46t44 113q0 62 -16.5 98t-91.5 64l-252 92q-115 42 -161 99t-46 156q0 134 74 212t270 78q112 0 205.5 -17.5t151.5 -40.5l-43 -144q-30 13 -79 26t-102 22.5t-98 9.5q-129 0 -166.5 -32.5t-37.5 -104.5
q0 -49 18.5 -72.5t72.5 -44.5l249 -97q89 -34 134.5 -72.5t61.5 -92.5t16 -137t-34.5 -152.5t-111 -111t-202.5 -41.5q-148 0 -249 33t-137 53zM182 1235l255 340h175l255 -340h-138l-256 250h104l-257 -250h-138z" />
    <glyph glyph-name="Scedilla" unicode="&#x15e;" horiz-adv-x="1304" 
d="M691 -22q-161 0 -297 34.5t-250 100.5l71 154q83 -49 211 -88t261 -39q118 0 180.5 31t86.5 96.5t24 169.5q0 41 -13.5 73t-51 59t-111.5 51l-349 116q-100 33 -162 77.5t-91 111t-29 164.5q0 139 63.5 222t173.5 120t248 37q185 0 300 -28.5t185 -72.5l-49 -157
q-65 35 -162.5 65.5t-238.5 30.5q-157 0 -241 -41t-84 -177q0 -66 28.5 -107.5t120.5 -73.5l364 -123q148 -50 216.5 -132t68.5 -246q0 -133 -48 -229t-152.5 -147.5t-272.5 -51.5zM525 -465v112h188q32 0 44 13.5t12 32.5v68q0 20 -14 33t-42 13h-100v223h101v-166l-15 46
q115 0 161.5 -42t46.5 -130v-30q0 -71 -46 -122t-159 -51h-177z" />
    <glyph glyph-name="scedilla" unicode="&#x15f;" horiz-adv-x="992" 
d="M142 64l46 138q35 -19 121 -49.5t194 -30.5q125 0 169 46t44 113q0 62 -16.5 98t-91.5 64l-252 92q-115 42 -161 99t-46 156q0 134 74 212t270 78q112 0 205.5 -17.5t151.5 -40.5l-43 -144q-30 13 -79 26t-102 22.5t-98 9.5q-129 0 -166.5 -32.5t-37.5 -104.5
q0 -49 18.5 -72.5t72.5 -44.5l249 -97q89 -34 134.5 -72.5t61.5 -92.5t16 -137t-34.5 -152.5t-111 -111t-202.5 -41.5q-148 0 -249 33t-137 53zM377 -465v112h188q32 0 44 13.5t12 32.5v68q0 20 -14 33t-42 13h-100v223h101v-166l-15 46q115 0 161.5 -42t46.5 -130v-30
q0 -71 -46 -122t-159 -51h-177z" />
    <glyph glyph-name="Scaron" unicode="&#x160;" horiz-adv-x="1304" 
d="M691 -22q-161 0 -297 34.5t-250 100.5l71 154q83 -49 211 -88t261 -39q118 0 180.5 31t86.5 96.5t24 169.5q0 41 -13.5 73t-51 59t-111.5 51l-349 116q-100 33 -162 77.5t-91 111t-29 164.5q0 139 63.5 222t173.5 120t248 37q185 0 300 -28.5t185 -72.5l-49 -157
q-65 35 -162.5 65.5t-238.5 30.5q-157 0 -241 -41t-84 -177q0 -66 28.5 -107.5t120.5 -73.5l364 -123q148 -50 216.5 -132t68.5 -246q0 -133 -48 -229t-152.5 -147.5t-272.5 -51.5zM596 1635l-255 320h138l257 -230h-104l256 230h138l-255 -320h-175z" />
    <glyph glyph-name="scaron" unicode="&#x161;" horiz-adv-x="992" 
d="M142 64l46 138q35 -19 121 -49.5t194 -30.5q125 0 169 46t44 113q0 62 -16.5 98t-91.5 64l-252 92q-115 42 -161 99t-46 156q0 134 74 212t270 78q112 0 205.5 -17.5t151.5 -40.5l-43 -144q-30 13 -79 26t-102 22.5t-98 9.5q-129 0 -166.5 -32.5t-37.5 -104.5
q0 -49 18.5 -72.5t72.5 -44.5l249 -97q89 -34 134.5 -72.5t61.5 -92.5t16 -137t-34.5 -152.5t-111 -111t-202.5 -41.5q-148 0 -249 33t-137 53zM437 1235l-255 340h138l257 -250h-104l256 250h138l-255 -340h-175z" />
    <glyph glyph-name="uni0162" unicode="&#x162;" horiz-adv-x="1204" 
d="M501 0v1281h-417v165h1036v-165h-418v-1281h-201zM460 -465v112h188q32 0 44 13.5t12 32.5v68q0 20 -14 33t-42 13h-100v223h101v-166l-15 46q115 0 161.5 -42t46.5 -130v-30q0 -71 -46 -122t-159 -51h-177z" />
    <glyph glyph-name="uni0163" unicode="&#x163;" horiz-adv-x="832" 
d="M257 303v615h-177v142h184l23 328h158v-328h266v-142h-266v-603q0 -105 62 -135t196 -30h21l-20 -158h-28q-145 0 -237.5 29t-137 97.5t-44.5 184.5zM333 -465v112h188q32 0 44 13.5t12 32.5v68q0 20 -14 33t-42 13h-100v223h101v-166l-15 46q115 0 161.5 -42t46.5 -130
v-30q0 -71 -46 -122t-159 -51h-177z" />
    <glyph glyph-name="Tcaron" unicode="&#x164;" horiz-adv-x="1204" 
d="M501 0v1281h-417v165h1036v-165h-418v-1281h-201zM527 1635l-255 320h138l257 -230h-104l256 230h138l-255 -320h-175z" />
    <glyph glyph-name="tcaron" unicode="&#x165;" horiz-adv-x="832" 
d="M257 303v615h-177v142h184l23 328h158v-328h266v-142h-266v-603q0 -105 62 -135t196 -30h21l-20 -158h-28q-145 0 -237.5 29t-137 97.5t-44.5 184.5zM658 1163l-77 41q55 39 92.5 101.5t37.5 148.5h-134v221h243v-154q0 -143 -50 -231.5t-112 -126.5z" />
    <glyph glyph-name="Tbar" unicode="&#x166;" horiz-adv-x="1204" 
d="M249 792h696v-144h-696v144zM501 0v1281h-417v165h1036v-165h-418v-1281h-201z" />
    <glyph glyph-name="tbar" unicode="&#x167;" horiz-adv-x="832" 
d="M93 656h589v-142h-589v142zM257 303v615h-177v142h184l23 328h158v-328h266v-142h-266v-603q0 -105 62 -135t196 -30h21l-20 -158h-28q-145 0 -237.5 29t-137 97.5t-44.5 184.5z" />
    <glyph glyph-name="Utilde" unicode="&#x168;" horiz-adv-x="1538" 
d="M779 -22q-177 0 -290.5 39t-176.5 107t-87.5 157.5t-24.5 191.5v973h202v-994q0 -133 52.5 -200t138.5 -89.5t186 -22.5q102 0 182.5 22.5t127.5 89.5t47 200v994h202v-973q0 -100 -24.5 -189.5t-85.5 -158.5t-170 -108t-279 -39zM879 1602q-51 0 -85.5 16t-59 37.5
t-46.5 37.5t-49 16q-31 0 -50.5 -23t-19.5 -70h-97q0 124 48 176.5t138 52.5q51 0 85.5 -16t59.5 -37.5t46.5 -37.5t48.5 -16q31 0 50.5 23.5t19.5 69.5h97q0 -124 -48 -176.5t-138 -52.5z" />
    <glyph glyph-name="utilde" unicode="&#x169;" horiz-adv-x="1224" 
d="M541 -22q-130 0 -210.5 43t-117.5 114t-37 155v770h188v-771q0 -52 26 -89.5t74.5 -57.5t113.5 -20q92 0 152.5 28t90 71.5t29.5 87.5v751h188v-1060h-168l-20 133q-40 -71 -116.5 -113t-192.5 -42zM714 1253q-51 0 -85.5 16t-59 37.5t-46.5 37.5t-49 16q-31 0 -50.5 -23
t-19.5 -70h-97q0 124 48 176.5t138 52.5q51 0 85.5 -16t59.5 -37.5t46.5 -37.5t48.5 -16q31 0 50.5 23.5t19.5 69.5h97q0 -124 -48 -176.5t-138 -52.5z" />
    <glyph glyph-name="Umacron" unicode="&#x16a;" horiz-adv-x="1538" 
d="M779 -22q-177 0 -290.5 39t-176.5 107t-87.5 157.5t-24.5 191.5v973h202v-994q0 -133 52.5 -200t138.5 -89.5t186 -22.5q102 0 182.5 22.5t127.5 89.5t47 200v994h202v-973q0 -100 -24.5 -189.5t-85.5 -158.5t-170 -108t-279 -39zM517 1658v155h504v-155h-504z" />
    <glyph glyph-name="umacron" unicode="&#x16b;" horiz-adv-x="1224" 
d="M541 -22q-130 0 -210.5 43t-117.5 114t-37 155v770h188v-771q0 -52 26 -89.5t74.5 -57.5t113.5 -20q92 0 152.5 28t90 71.5t29.5 87.5v751h188v-1060h-168l-20 133q-40 -71 -116.5 -113t-192.5 -42zM352 1305v155h504v-155h-504z" />
    <glyph glyph-name="Ubreve" unicode="&#x16c;" horiz-adv-x="1538" 
d="M779 -22q-177 0 -290.5 39t-176.5 107t-87.5 157.5t-24.5 191.5v973h202v-994q0 -133 52.5 -200t138.5 -89.5t186 -22.5q102 0 182.5 22.5t127.5 89.5t47 200v994h202v-973q0 -100 -24.5 -189.5t-85.5 -158.5t-170 -108t-279 -39zM769 1651q-136 0 -218.5 72t-82.5 226
h135q0 -65 40.5 -104t125.5 -39q84 0 124.5 39t40.5 104h136q0 -154 -83 -226t-218 -72z" />
    <glyph glyph-name="ubreve" unicode="&#x16d;" horiz-adv-x="1224" 
d="M541 -22q-130 0 -210.5 43t-117.5 114t-37 155v770h188v-771q0 -52 26 -89.5t74.5 -57.5t113.5 -20q92 0 152.5 28t90 71.5t29.5 87.5v751h188v-1060h-168l-20 133q-40 -71 -116.5 -113t-192.5 -42zM604 1235q-90 0 -158 32.5t-105.5 103t-37.5 182.5h135
q0 -76 40.5 -126t125.5 -50q84 0 124.5 50t40.5 126h136q0 -112 -37.5 -182.5t-105.5 -103t-158 -32.5z" />
    <glyph glyph-name="Uring" unicode="&#x16e;" horiz-adv-x="1538" 
d="M779 -22q-177 0 -290.5 39t-176.5 107t-87.5 157.5t-24.5 191.5v973h202v-994q0 -133 52.5 -200t138.5 -89.5t186 -22.5q102 0 182.5 22.5t127.5 89.5t47 200v994h202v-973q0 -100 -24.5 -189.5t-85.5 -158.5t-170 -108t-279 -39zM769 1542q-106 0 -170 58.5t-64 167.5
q0 108 64 166t170 58t170 -58t64 -166q0 -109 -63.5 -167.5t-170.5 -58.5zM769 1645q42 0 78.5 25t36.5 97q0 71 -36.5 97.5t-79.5 26.5t-78.5 -25.5t-35.5 -96.5q0 -73 35.5 -98.5t79.5 -25.5z" />
    <glyph glyph-name="uring" unicode="&#x16f;" horiz-adv-x="1224" 
d="M541 -22q-130 0 -210.5 43t-117.5 114t-37 155v770h188v-771q0 -52 26 -89.5t74.5 -57.5t113.5 -20q92 0 152.5 28t90 71.5t29.5 87.5v751h188v-1060h-168l-20 133q-40 -71 -116.5 -113t-192.5 -42zM604 1172q-106 0 -170 58.5t-64 167.5q0 108 64 166t170 58t170 -58
t64 -166q0 -109 -63.5 -167.5t-170.5 -58.5zM604 1275q42 0 78.5 25t36.5 97q0 71 -36.5 97.5t-79.5 26.5t-78.5 -25.5t-35.5 -96.5q0 -73 35.5 -98.5t79.5 -25.5z" />
    <glyph glyph-name="Uhungarumlaut" unicode="&#x170;" horiz-adv-x="1538" 
d="M779 -22q-177 0 -290.5 39t-176.5 107t-87.5 157.5t-24.5 191.5v973h202v-994q0 -133 52.5 -200t138.5 -89.5t186 -22.5q102 0 182.5 22.5t127.5 89.5t47 200v994h202v-973q0 -100 -24.5 -189.5t-85.5 -158.5t-170 -108t-279 -39zM831 1632l65 350h220l-162 -350h-123z
M541 1632l65 350h220l-162 -350h-123z" />
    <glyph glyph-name="uhungarumlaut" unicode="&#x171;" horiz-adv-x="1224" 
d="M541 -22q-130 0 -210.5 43t-117.5 114t-37 155v770h188v-771q0 -52 26 -89.5t74.5 -57.5t113.5 -20q92 0 152.5 28t90 71.5t29.5 87.5v751h188v-1060h-168l-20 133q-40 -71 -116.5 -113t-192.5 -42zM670 1235l65 350h220l-162 -350h-123zM380 1235l65 350h220l-162 -350
h-123z" />
    <glyph glyph-name="Uogonek" unicode="&#x172;" horiz-adv-x="1538" 
d="M779 -22q-177 0 -290.5 39t-176.5 107t-87.5 157.5t-24.5 191.5v973h202v-994q0 -133 52.5 -200t138.5 -89.5t186 -22.5q102 0 182.5 22.5t127.5 89.5t47 200v994h202v-973q0 -100 -24.5 -189.5t-85.5 -158.5t-170 -108t-279 -39zM968 -444q-111 0 -172 49.5t-61 144.5
q0 65 51.5 143t133.5 127l113 -10q-60 -51 -99 -105t-39 -106q0 -47 24.5 -74.5t76.5 -27.5h60l-12 -141h-76z" />
    <glyph glyph-name="uogonek" unicode="&#x173;" horiz-adv-x="1224" 
d="M541 -22q-130 0 -210.5 43t-117.5 114t-37 155v770h188v-771q0 -52 26 -89.5t74.5 -57.5t113.5 -20q92 0 152.5 28t90 71.5t29.5 87.5v751h188v-1060h-168l-20 133q-40 -71 -116.5 -113t-192.5 -42zM973 -454q-111 0 -172 49.5t-61 144.5q0 65 51.5 143t133.5 127
l113 -10q-60 -51 -99 -105t-39 -106q0 -47 24.5 -74.5t76.5 -27.5h60l-12 -141h-76z" />
    <glyph glyph-name="Wcircumflex" unicode="&#x174;" horiz-adv-x="2048" 
d="M112 1446h184l307 -1100l315 1100h215l329 -1100l291 1100h183l-394 -1446h-152l-353 1232l-363 -1232h-152zM682 1635l255 320h175l255 -320h-138l-256 230h104l-257 -230h-138z" />
    <glyph glyph-name="wcircumflex" unicode="&#x175;" horiz-adv-x="1614" 
d="M52 1060h172l247 -875h-25l268 875h181l280 -875h-26l239 875h174l-310 -1060h-175l-285 888h28l-285 -888h-178zM470 1235l255 340h175l255 -340h-138l-256 250h104l-257 -250h-138z" />
    <glyph glyph-name="Ycircumflex" unicode="&#x176;" horiz-adv-x="1318" 
d="M560 568l-512 878h213l422 -741h-44l424 741h207l-509 -878v-568h-201v568zM317 1635l255 320h175l255 -320h-138l-256 230h104l-257 -230h-138z" />
    <glyph glyph-name="ycircumflex" unicode="&#x177;" horiz-adv-x="1118" 
d="M198 -406v147q111 0 181 45t118 160l33 79v-69l-454 1104h194l351 -902h-40l291 902h188l-404 -1158q-54 -155 -157 -231.5t-301 -76.5zM222 1235l255 340h175l255 -340h-138l-256 250h104l-257 -250h-138z" />
    <glyph glyph-name="Ydieresis" unicode="&#x178;" horiz-adv-x="1318" 
d="M560 568l-512 878h213l422 -741h-44l424 741h207l-509 -878v-568h-201v568zM738 1649v181h206v-181h-206zM374 1649v181h206v-181h-206z" />
    <glyph glyph-name="Zacute" unicode="&#x179;" horiz-adv-x="1242" 
d="M180 150l682 1131h-651v165h872v-151l-681 -1130h694v-165h-916v150zM533 1632l165 350h225l-262 -350h-128z" />
    <glyph glyph-name="zacute" unicode="&#x17a;" horiz-adv-x="959" 
d="M140 126l525 836l21 -44h-528v142h687v-125l-531 -841l-21 48h561v-142h-714v126zM393 1235l135 350h225l-232 -350h-128z" />
    <glyph glyph-name="Zdotaccent" unicode="&#x17b;" horiz-adv-x="1242" 
d="M180 150l682 1131h-651v165h872v-151l-681 -1130h694v-165h-916v150zM566 1614v208h194v-208h-194z" />
    <glyph glyph-name="zdotaccent" unicode="&#x17c;" horiz-adv-x="959" 
d="M140 126l525 836l21 -44h-528v142h687v-125l-531 -841l-21 48h561v-142h-714v126zM416 1297v208h194v-208h-194z" />
    <glyph glyph-name="Zcaron" unicode="&#x17d;" horiz-adv-x="1242" 
d="M180 150l682 1131h-651v165h872v-151l-681 -1130h694v-165h-916v150zM576 1635l-255 320h138l257 -230h-104l256 230h138l-255 -320h-175z" />
    <glyph glyph-name="zcaron" unicode="&#x17e;" horiz-adv-x="959" 
d="M140 126l525 836l21 -44h-528v142h687v-125l-531 -841l-21 48h561v-142h-714v126zM426 1235l-255 340h138l257 -250h-104l256 250h138l-255 -340h-175z" />
    <glyph glyph-name="longs" unicode="&#x17f;" horiz-adv-x="742" 
d="M279 918h-177v142h177v161q0 149 81.5 216.5t244.5 67.5h119l12 -133h-116q-86 0 -119.5 -38t-33.5 -95v-1239h-188v918z" />
    <glyph glyph-name="uni0180" unicode="&#x180;" horiz-adv-x="1204" 
d="M30 1349h671v-144h-671v144zM626 -22q-94 0 -164.5 33.5t-112.5 59.5l-24 -71h-139v1505h188v-495q51 29 128 49.5t162 20.5q131 0 218 -44.5t130.5 -122t43.5 -177.5v-384q0 -106 -50 -191t-146 -134t-234 -49zM598 126q111 0 190.5 54.5t79.5 151.5v418
q0 95 -61.5 140.5t-165.5 45.5q-66 0 -140 -21t-127 -45v-682q41 -23 99 -42.5t125 -19.5z" />
    <glyph glyph-name="uni0181" unicode="&#x181;" horiz-adv-x="1551" 
d="M172 1065l-192 13v56q0 111 41.5 179.5t128 100.5t220.5 32l-21 -151q-106 0 -141.5 -46t-35.5 -141v-43zM349 0v1446h524q201 0 304 -46.5t139.5 -135.5t36.5 -215q0 -103 -48 -180t-170 -106l3 16q96 -13 159 -63.5t94.5 -128.5t31.5 -176q0 -215 -121 -313t-385 -98
h-568zM551 149h351q112 0 183.5 22t105.5 83t34 179q0 66 -22.5 126.5t-81.5 98.5t-170 38h-400v-547zM551 833h371q91 0 141 26.5t69.5 74.5t19.5 113q0 105 -26.5 158t-94 71.5t-189.5 18.5h-291v-462z" />
    <glyph glyph-name="uni0186" unicode="&#x186;" horiz-adv-x="1456" 
d="M695 -22q-172 0 -279 31t-163 90t-76.5 144.5t-20.5 194.5v10h191v-24q0 -129 33.5 -189.5t109.5 -77.5t201 -17q128 0 212.5 25.5t126.5 93.5t42 196v522q0 129 -41 200.5t-124 100t-210 28.5q-129 0 -206 -20t-110.5 -84t-33.5 -195v-27l-191 17v13q0 112 23.5 197.5
t82.5 143.5t165 87.5t270 29.5q182 0 295.5 -39t175 -110t84 -167.5t22.5 -211.5v-454q0 -113 -23.5 -206t-85 -160.5t-175.5 -104.5t-295 -37z" />
    <glyph glyph-name="uni0187" unicode="&#x187;" horiz-adv-x="1456" 
d="M761 -22q-181 0 -295 37t-175.5 104.5t-85 160.5t-23.5 206v454q0 115 22.5 211.5t84 167.5t175 110t295.5 39q134 0 227.5 -20.5t156.5 -61.5l-20 -26q0 179 66 255.5t224 76.5h67l13 -152h-33q-90 0 -125 -38.5t-35 -148.5v-356l-191 -17v27q0 131 -33.5 195t-110.5 84
t-206 20q-127 0 -210 -28.5t-124 -100t-41 -200.5v-522q0 -128 42 -196t126.5 -93.5t212.5 -25.5q126 0 201.5 17t109 77.5t33.5 189.5v24h191v-10q0 -109 -20.5 -194.5t-76.5 -144.5t-162.5 -90t-279.5 -31z" />
    <glyph glyph-name="uni0188" unicode="&#x188;" horiz-adv-x="1106" 
d="M579 -22q-158 0 -252.5 50.5t-136.5 134t-42 181.5v404q0 150 114.5 241t311.5 91q179 0 272 -80l-20 -29v135q0 179 66.5 254.5t223.5 75.5h56l13 -142h-33q-90 0 -125 -38.5t-35 -148.5v-383l-179 -17q0 97 -22 146t-73 66t-139 17q-121 0 -182 -43.5t-61 -149.5v-415
q0 -114 64.5 -160t178.5 -46q93 0 141.5 13.5t68.5 54t27 120.5h174q-10 -122 -52 -195t-128.5 -105t-230.5 -32z" />
    <glyph glyph-name="uni0189" unicode="&#x189;" horiz-adv-x="1522" 
d="M218 0v1446h574q201 0 321 -64.5t173.5 -174.5t53.5 -248v-477q0 -156 -60 -263.5t-181 -163t-305 -55.5h-576zM420 150h354q104 0 186.5 22.5t130.5 89.5t48 200v509q0 134 -48.5 203.5t-131 95t-185.5 25.5h-354v-1145zM21 694v143h660v-143h-660z" />
    <glyph glyph-name="uni018A" unicode="&#x18a;" horiz-adv-x="1653" 
d="M172 1065l-192 13v56q0 111 41.5 179.5t128 100.5t220.5 32l-21 -151q-106 0 -141.5 -46t-35.5 -141v-43zM349 0v1446h574q201 0 321 -64.5t173.5 -174.5t53.5 -248v-477q0 -156 -60 -263.5t-181 -163t-305 -55.5h-576zM551 150h354q104 0 186.5 22.5t130.5 89.5t48 200
v509q0 134 -48.5 203.5t-131 95t-185.5 25.5h-354v-1145z" />
    <glyph glyph-name="uni018E" unicode="&#x18e;" horiz-adv-x="1255" 
d="M1037 1446v-1446h-915v150h714v520h-620v150h620v476h-702v150h903z" />
    <glyph glyph-name="uni018F" unicode="&#x18f;" horiz-adv-x="1456" 
d="M697 1468q182 0 295.5 -39t175 -110t84 -167.5t22.5 -211.5v-454q0 -113 -23.5 -206t-85 -160.5t-175.5 -104.5t-295 -37q-172 0 -279 31t-163 90t-76.5 144.5t-20.5 194.5v348h916v191q0 129 -41 200.5t-124 100t-210 28.5q-129 0 -206 -20t-110.5 -84t-33.5 -195v-27
l-191 17v13q0 112 23.5 197.5t82.5 143.5t165 87.5t270 29.5zM691 140q128 0 212.5 25.5t126.5 93.5t42 196v183h-725v-214q0 -129 33.5 -189.5t109.5 -77.5t201 -17z" />
    <glyph glyph-name="uni0190" unicode="&#x190;" horiz-adv-x="1250" 
d="M633 -22q-161 0 -275 47.5t-174 141t-60 231.5q0 129 39 206t113 116t178 53l5 -9q-109 9 -175.5 48t-96 108.5t-29.5 170.5q0 132 61 215t169 122.5t250 39.5q110 0 204.5 -18t165.5 -65.5t110.5 -134.5t39.5 -225l-191 -20q0 120 -31.5 185t-104 90.5t-194.5 25.5
q-156 0 -216.5 -58t-60.5 -160q0 -61 9 -107.5t44 -78t112 -47t213 -15.5v-149q-176 0 -264 -26.5t-116.5 -90t-28.5 -175.5q0 -127 67.5 -193t223.5 -66q114 0 190 22.5t117.5 85t50.5 183.5h192q-19 -170 -75.5 -269t-167 -141.5t-294.5 -42.5z" />
    <glyph glyph-name="uni0191" unicode="&#x191;" horiz-adv-x="1159" 
d="M38 -408l-13 152h33q90 0 125 38.5t35 148.5v1515h821v-150h-620v-482h584v-150h-584v-740q0 -179 -78 -255.5t-236 -76.5h-67z" />
    <glyph glyph-name="florin" unicode="&#x192;" horiz-adv-x="890" 
d="M141 -183v124q13 -1 25 -1.5t23 -0.5q83 0 113.5 31.5t30.5 92.5v664h-117v131h117v297q0 109 25 177t84.5 100t163.5 32q23 0 49.5 -1.5t54.5 -4.5v-124q-8 1 -15 1h-15q-69 0 -103 -21.5t-45 -57.5t-11 -79v-319h129v-131h-129v-636q0 -94 -25.5 -156.5t-84.5 -93.5
t-160 -31q-25 0 -52.5 1.5t-57.5 5.5z" />
    <glyph glyph-name="uni0193" unicode="&#x193;" horiz-adv-x="1556" 
d="M788 -22q-181 0 -298.5 37t-183.5 104.5t-93 160.5t-27 206v454q0 115 26.5 211.5t92.5 167.5t183.5 110t299.5 39q146 0 245.5 -24.5t162.5 -73.5l-29 -10q0 179 66 255.5t224 76.5h67l13 -152h-33q-90 0 -125 -38.5t-35 -148.5v-343l-184 -15v27q0 112 -30.5 173.5
t-111 86t-230.5 24.5q-127 0 -216.5 -28.5t-136.5 -100t-47 -200.5v-522q0 -128 46.5 -196t136 -93.5t217.5 -25.5q129 0 211 25.5t120.5 93.5t38.5 196v133h-343v147h545v-735h-110l-25 246q-9 -59 -38.5 -108t-82 -85t-131 -55.5t-185.5 -19.5z" />
    <glyph glyph-name="uni0194" unicode="&#x194;" horiz-adv-x="1386" 
d="M694 -420q-129 0 -212 40.5t-123 116.5t-40 184q0 77 21.5 151.5t71 173.5t132.5 247l533 953h224l-621 -1085q-64 -112 -95.5 -185t-41.5 -129.5t-10 -120.5q0 -88 39.5 -133.5t121.5 -45.5t121 45.5t39 133.5q0 64 -10 120.5t-41 129.5t-95 185l-622 1085h227l532 -953
q84 -150 133 -248.5t69.5 -172.5t20.5 -151q0 -108 -40 -184t-122.5 -116.5t-211.5 -40.5z" />
    <glyph glyph-name="uni0196" unicode="&#x196;" horiz-adv-x="1062" 
d="M760 0q-166 0 -250 86.5t-84 265.5v945h-276v149h752v-149h-275v-938q0 -110 41.5 -158.5t138.5 -48.5h33l-13 -152h-67z" />
    <glyph glyph-name="uni0197" unicode="&#x197;" horiz-adv-x="1132" 
d="M231 819h671v-144h-671v144zM190 150h276v1147h-276v149h752v-149h-275v-1147h275v-150h-752v150z" />
    <glyph glyph-name="uni0198" unicode="&#x198;" horiz-adv-x="1418" 
d="M218 0v1446h201v-789l512 591q64 74 117 117.5t111 62t137 18.5h64l15 -154h-60q-51 0 -89.5 -12t-76.5 -44t-89 -91l-385 -444l-27 -4l-229 -260v-437h-201zM1127 0l-528 744l141 108l610 -852h-223z" />
    <glyph glyph-name="uni0199" unicode="&#x199;" horiz-adv-x="1145" 
d="M186 0v1145q0 201 73 280.5t239 79.5h56l13 -142h-33q-51 0 -87 -14t-54.5 -56t-18.5 -127v-642l507 536h206l-431 -466l474 -594h-217l-380 492l-159 -158v-334h-188z" />
    <glyph glyph-name="uni019A" unicode="&#x19a;" horiz-adv-x="692" 
d="M40 866h524v-147h-524v147zM190 358v1147h188v-1149q0 -86 16 -130.5t58 -60t121 -15.5h33l-22 -158h-54q-116 0 -191.5 27t-112 106t-36.5 233z" />
    <glyph glyph-name="uni019B" unicode="&#x19b;" horiz-adv-x="1131" 
d="M76 0l435 1052l-65 189q-25 72 -58 97t-92 25h-33l13 142h56q68 0 120 -14t90.5 -56t67.5 -126l360 -1045q25 -72 57 -97t83 -25h33l-13 -142h-56q-63 0 -113.5 14t-89 56t-65.5 126l-221 691l30 -1l-340 -886h-199zM293 1060l-50 138l547 199l50 -138z" />
    <glyph glyph-name="uni019C" unicode="&#x19c;" horiz-adv-x="1934" 
d="M566 -20q-130 0 -206.5 42.5t-109 113t-32.5 154.5v1156h201v-1149q0 -79 48.5 -117t146.5 -38q92 0 146.5 24t78.5 65t24 92v1123h202v-1149q0 -79 54.5 -117t152.5 -38q138 0 190 52.5t52 128.5v1123h202v-1446h-188v148l16 -25q-31 -41 -73.5 -73.5t-102.5 -51
t-144 -18.5q-123 0 -198 38.5t-113 100.5q-69 -67 -150 -103t-197 -36z" />
    <glyph glyph-name="uni019D" unicode="&#x19d;" horiz-adv-x="1594" 
d="M-83 -373l-28 141q112 0 184.5 35.5t108.5 111.5t36 200v1331h153l854 -1193l-26 -8v1201h177v-1446h-179l-828 1140l26 9v-1027q0 -190 -65.5 -298t-174 -152.5t-238.5 -44.5z" />
    <glyph glyph-name="uni019E" unicode="&#x19e;" horiz-adv-x="1224" 
d="M186 1060h188v-103q31 36 75 64t103 43.5t136 15.5q131 0 210.5 -42.5t115.5 -113t36 -154.5v-1178h-188v1189q0 53 -28 87t-78 51t-116 17q-92 0 -151 -24t-87 -65t-28 -92v-755h-188v1060z" />
    <glyph glyph-name="uni019F" unicode="&#x19f;" horiz-adv-x="1546" 
d="M290 805h960v-144h-960v144zM782 -22q-181 0 -297.5 37t-181.5 104.5t-91 160.5t-26 206v455q0 115 25.5 211t90.5 167t181.5 110t298.5 39q175 0 288 -41t176 -114.5t88.5 -171.5t25.5 -213v-428q0 -111 -25.5 -206.5t-89 -166t-176.5 -110t-287 -39.5zM782 140
q129 0 212.5 25.5t124 93.5t40.5 196v523q0 129 -41 200t-124.5 99.5t-211.5 28.5q-127 0 -215 -28.5t-133.5 -99.5t-45.5 -200v-523q0 -128 45 -196t133 -93.5t216 -25.5z" />
    <glyph glyph-name="Ohorn" unicode="&#x1a0;" horiz-adv-x="1546" 
d="M782 -22q-181 0 -297.5 37t-181.5 104.5t-91 160.5t-26 206v455q0 115 25.5 211t90.5 167t181.5 110t298.5 39q175 0 288 -41t176 -114.5t88.5 -171.5t25.5 -213v-428q0 -111 -25.5 -206.5t-89 -166t-176.5 -110t-287 -39.5zM782 140q129 0 212.5 25.5t124 93.5t40.5 196
v523q0 129 -41 200t-124.5 99.5t-211.5 28.5q-127 0 -215 -28.5t-133.5 -99.5t-45.5 -200v-523q0 -128 45 -196t133 -93.5t216 -25.5zM951 1446h130q50 0 83 33.5t33 94.5v141h188v-124q0 -92 -36.5 -156.5t-104.5 -98.5t-163 -34h-130v144z" />
    <glyph glyph-name="ohorn" unicode="&#x1a1;" horiz-adv-x="1174" 
d="M587 -22q-159 0 -255.5 43.5t-140 119.5t-43.5 174v427q0 98 43.5 174.5t140 120t255.5 43.5q158 0 254.5 -43.5t140.5 -120t44 -174.5v-427q0 -98 -44 -174t-140.5 -119.5t-254.5 -43.5zM587 122q110 0 180.5 39.5t70.5 137.5v459q0 98 -70.5 138t-180.5 40
q-112 0 -181.5 -40t-69.5 -138v-459q0 -98 69.5 -137.5t181.5 -39.5zM766 916v144h60q50 0 83 33.5t33 94.5v141h188v-124q0 -92 -36.5 -156.5t-104.5 -98.5t-163 -34h-60z" />
    <glyph glyph-name="uni01A4" unicode="&#x1a4;" horiz-adv-x="1457" 
d="M172 1065l-192 13v56q0 111 41.5 179.5t128 100.5t220.5 32l-21 -151q-106 0 -141.5 -46t-35.5 -141v-43zM349 1446h578q182 0 292 -104t110 -351q0 -173 -50 -274t-141 -144.5t-214 -43.5h-373v-529h-202v1446zM928 682q88 0 130 42.5t55.5 110.5t13.5 142q0 71 -11 144
t-51.5 122.5t-131.5 49.5h-382v-611h377z" />
    <glyph glyph-name="uni01A5" unicode="&#x1a5;" horiz-adv-x="1192" 
d="M180 -408v1553q0 201 73 280.5t239 79.5h56l13 -142h-33q-51 0 -87 -14t-54.5 -56t-18.5 -127v-229l-32 29q36 41 121 77.5t185 36.5q203 0 302.5 -99t99.5 -252v-385q0 -106 -49 -189t-144 -130t-233 -47q-89 0 -150.5 18.5t-99.5 37.5v-442h-188zM606 122
q111 0 180.5 52.5t69.5 149.5v420q0 95 -69.5 143.5t-173.5 48.5q-66 0 -118.5 -22.5t-85 -49.5t-41.5 -40v-645q36 -20 96 -38.5t142 -18.5z" />
    <glyph glyph-name="uni01A9" unicode="&#x1a9;" horiz-adv-x="1159" 
d="M122 0v155l514 642l10 -68l-524 569v148h903v-150h-743l33 22l472 -511v-69l-484 -611l-17 23h751v-150h-915z" />
    <glyph glyph-name="uni01AC" unicode="&#x1ac;" horiz-adv-x="1276" 
d="M573 0v1281h-184q-106 0 -141.5 -39t-35.5 -134v-43l-192 13v56q0 111 41.5 179.5t128 100.5t220.5 32h782v-165h-418v-1281h-201z" />
    <glyph glyph-name="uni01AD" unicode="&#x1ad;" horiz-adv-x="832" 
d="M676 -8q-145 0 -237.5 29t-137 97.5t-44.5 184.5v615h-177v142h177v85q0 201 73 280.5t239 79.5h56l13 -142h-33q-51 0 -87 -14t-54.5 -56t-18.5 -127v-106h266v-142h-266v-603q0 -70 27 -105.5t84.5 -47.5t146.5 -12h21l-20 -158h-28z" />
    <glyph glyph-name="uni01AE" unicode="&#x1ae;" horiz-adv-x="1204" 
d="M815 -408q-158 0 -236 76.5t-78 255.5v1357h-417v165h1036v-165h-418v-1350q0 -110 35 -148.5t125 -38.5h33l-13 -152h-67z" />
    <glyph glyph-name="Uhorn" unicode="&#x1af;" horiz-adv-x="1552" 
d="M779 -22q-177 0 -290.5 39t-176.5 107t-87.5 157.5t-24.5 191.5v973h202v-994q0 -133 52.5 -200t138.5 -89.5t186 -22.5q102 0 182.5 22.5t127.5 89.5t47 200v994h202v-973q0 -100 -24.5 -189.5t-85.5 -158.5t-170 -108t-279 -39zM1268 1446h30q50 0 83 33.5t33 94.5v141
h188v-124q0 -92 -36.5 -156.5t-104.5 -98.5t-163 -34h-30v144z" />
    <glyph glyph-name="uhorn" unicode="&#x1b0;" horiz-adv-x="1230" 
d="M541 -22q-130 0 -210.5 43t-117.5 114t-37 155v770h188v-771q0 -52 26 -89.5t74.5 -57.5t113.5 -20q92 0 152.5 28t90 71.5t29.5 87.5v751h188v-1060h-168l-20 133q-40 -71 -116.5 -113t-192.5 -42zM938 916v144h60q50 0 83 33.5t33 94.5v141h188v-124
q0 -92 -36.5 -156.5t-104.5 -98.5t-163 -34h-60z" />
    <glyph glyph-name="uni01B1" unicode="&#x1b1;" horiz-adv-x="1546" 
d="M773 -22q-203 0 -333 65.5t-192 211t-62 386.5q0 175 49.5 314.5t130.5 235.5t174 139v-49h-347v165h471v-171q-72 -57 -135 -142t-101.5 -205t-38.5 -285q0 -181 34 -291.5t117.5 -161t232.5 -50.5t232.5 50.5t117.5 161t34 291.5q0 165 -39 285t-101.5 205t-135.5 142
v171h471v-165h-358v49q95 -41 178.5 -137t135.5 -236.5t52 -315.5q0 -241 -62 -386.5t-192 -211t-333 -65.5z" />
    <glyph glyph-name="uni01B2" unicode="&#x1b2;" horiz-adv-x="1510" 
d="M728 -23q-206 0 -321 54t-161 152.5t-46 229.5v1033h202v-1029q0 -124 71 -200.5t255 -76.5q191 0 285.5 106.5t94.5 290.5v524q0 125 -52.5 177.5t-153.5 52.5v165q157 0 245.5 -53t125.5 -145t37 -209v-497q0 -173 -66.5 -302.5t-196 -201t-319.5 -71.5z" />
    <glyph glyph-name="uni01B3" unicode="&#x1b3;" horiz-adv-x="1318" 
d="M560 0v568l-512 878h213l422 -742h-42l254 502q51 101 99.5 155t103 74.5t122.5 20.5h56l11 -152h-31q-65 0 -99.5 -22t-70.5 -90l-325 -624v-568h-201z" />
    <glyph glyph-name="uni01B4" unicode="&#x1b4;" horiz-adv-x="1114" 
d="M187 -418l-13 147q86 0 141 17t88.5 51t52.5 85l54 143v-69l-446 1104h189l343 -902h-35l220 672q29 88 64 140.5t85.5 76t124.5 23.5h56l13 -142h-33q-58 0 -85.5 -23.5t-48.5 -83.5l-338 -974q-47 -136 -144 -200.5t-288 -64.5z" />
    <glyph glyph-name="uni01B5" unicode="&#x1b5;" horiz-adv-x="1242" 
d="M270 815h749v-144h-749v144zM180 150l682 1131h-651v165h872v-151l-681 -1130h694v-165h-916v150z" />
    <glyph glyph-name="uni01B6" unicode="&#x1b6;" horiz-adv-x="959" 
d="M160 617h665v-140h-665v140zM140 126l525 836l21 -44h-528v142h687v-125l-531 -841l-21 48h561v-142h-714v126z" />
    <glyph glyph-name="uni01B7" unicode="&#x1b7;" horiz-adv-x="1266" 
d="M637 -420q-184 0 -294.5 54t-166.5 180t-76 342h192q9 -176 50.5 -265t118 -119t189.5 -30q156 0 223.5 89.5t67.5 283.5q0 142 -28.5 230t-116 129.5t-264.5 41.5v160q208 0 344 -63.5t203 -188.5t67 -311q0 -175 -60 -293.5t-173.5 -179t-275.5 -60.5zM651 534
l-119 142l439 649l4 -29h-803v150h963v-188z" />
    <glyph glyph-name="uni01B8" unicode="&#x1b8;" horiz-adv-x="1226" 
d="M609 -420q-161 0 -275 60.5t-174 179t-60 293.5q0 186 67 311t203 188.5t344 63.5v-160q-176 0 -264 -41.5t-116.5 -129.5t-28.5 -230q0 -194 67.5 -283.5t223.5 -89.5q114 0 190 30t117.5 119t50.5 265h192q-19 -216 -75.5 -342t-167 -180t-294.5 -54zM595 534l-484 724
v188h963v-150h-803l4 29l439 -649z" />
    <glyph glyph-name="uni01B9" unicode="&#x1b9;" horiz-adv-x="1090" 
d="M559 -406q-135 0 -230.5 48.5t-146 146t-50.5 245.5q0 152 46.5 249.5t136 144.5t218.5 47l-23 -60l-341 520v125h801v-136h-642l20 38l319 -487v-148h-64q-166 0 -227.5 -68.5t-61.5 -223.5q0 -142 55.5 -210.5t179.5 -68.5q95 0 153 22.5t87.5 85t36.5 183.5h184
q-16 -170 -63.5 -269t-140.5 -141.5t-247 -42.5z" />
    <glyph glyph-name="uni01C0" unicode="&#x1c0;" horiz-adv-x="638" 
d="M230 -408v1913h178v-1913h-178z" />
    <glyph glyph-name="uni01C1" unicode="&#x1c1;" horiz-adv-x="1018" 
d="M230 -408v1913h178v-1913h-178zM610 -408v1913h178v-1913h-178z" />
    <glyph glyph-name="uni01C2" unicode="&#x1c2;" horiz-adv-x="702" 
d="M262 -408v1913h178v-1913h-178zM702 877v-148h-702v148h702zM702 537v-148h-702v148h702z" />
    <glyph glyph-name="uni01C3" unicode="&#x1c3;" horiz-adv-x="608" 
d="M273 371q-15 148 -27 302t-21 299t-14 267t-5 207h202q0 -84 -6 -206t-16.5 -266.5t-25 -299t-31.5 -303.5h-56zM185 0v236h234v-236h-234z" />
    <glyph glyph-name="uni01C4" unicode="&#x1c4;" horiz-adv-x="2764" 
d="M218 0v1446h574q201 0 321 -64.5t173.5 -174.5t53.5 -248v-477q0 -156 -60 -263.5t-181 -163t-305 -55.5h-576zM420 150h354q104 0 186.5 22.5t130.5 89.5t48 200v509q0 134 -48.5 203.5t-131 95t-185.5 25.5h-354v-1145zM1702 150l682 1131h-651v165h872v-151
l-681 -1130h694v-165h-916v150zM2098 1635l-255 320h138l257 -230h-104l256 230h138l-255 -320h-175z" />
    <glyph glyph-name="uni01C5" unicode="&#x1c5;" horiz-adv-x="2481" 
d="M218 0v1446h574q201 0 321 -64.5t173.5 -174.5t53.5 -248v-477q0 -156 -60 -263.5t-181 -163t-305 -55.5h-576zM420 150h354q104 0 186.5 22.5t130.5 89.5t48 200v509q0 134 -48.5 203.5t-131 95t-185.5 25.5h-354v-1145zM1662 126l525 836l21 -44h-528v142h687v-125
l-531 -841l-21 48h561v-142h-714v126zM1948 1235l-255 340h138l257 -250h-104l256 250h138l-255 -340h-175z" />
    <glyph glyph-name="uni01C6" unicode="&#x1c6;" horiz-adv-x="2159" 
d="M148 335v400q0 160 106 252.5t337 92.5q50 0 118 -11t117 -29v465h188v-1505h-128l-31 70q-46 -36 -125.5 -64t-161.5 -28q-152 0 -244.5 47t-134 127.5t-41.5 182.5zM826 189v703q-42 20 -104.5 32t-128.5 12q-111 0 -184 -41t-73 -139v-435q0 -99 70.5 -147t173.5 -48
q80 0 147 22t99 41zM1340 126l525 836l21 -44h-528v142h687v-125l-531 -841l-21 48h561v-142h-714v126zM1626 1235l-255 340h138l257 -250h-104l256 250h138l-255 -340h-175z" />
    <glyph glyph-name="uni01C7" unicode="&#x1c7;" horiz-adv-x="2351" 
d="M218 1446h201v-1291h649v-155h-850v1446zM1247 70l55 155q24 -11 81 -29.5t131 -33t147 -14.5q143 0 207 73.5t64 213.5v846h-553v165h754v-1015q0 -205 -111 -326.5t-355 -121.5q-84 0 -168.5 14.5t-151.5 35t-100 37.5z" />
    <glyph glyph-name="uni01C8" unicode="&#x1c8;" horiz-adv-x="1747" 
d="M218 1446h201v-1291h649v-155h-850v1446zM1158 -197h29q67 0 108.5 13t61.5 54t20 126v1064h188v-1053q0 -156 -37.5 -233t-109.5 -102t-175 -25h-66zM1374 1297v208h194v-208h-194z" />
    <glyph glyph-name="uni01C9" unicode="&#x1c9;" horiz-adv-x="1298" 
d="M190 358v1147h188v-1149q0 -86 16 -130.5t58 -60t121 -15.5h33l-22 -158h-54q-116 0 -191.5 27t-112 106t-36.5 233zM709 -197h29q67 0 108.5 13t61.5 54t20 126v1064h188v-1053q0 -156 -37.5 -233t-109.5 -102t-175 -25h-66zM925 1297v208h194v-208h-194z" />
    <glyph glyph-name="uni01CA" unicode="&#x1ca;" horiz-adv-x="2800" 
d="M218 1446h153l854 -1193l-26 -8v1201h177v-1446h-179l-828 1140l26 9v-1149h-177v1446zM1696 70l55 155q24 -11 81 -29.5t131 -33t147 -14.5q143 0 207 73.5t64 213.5v846h-553v165h754v-1015q0 -205 -111 -326.5t-355 -121.5q-84 0 -168.5 14.5t-151.5 35t-100 37.5z
" />
    <glyph glyph-name="uni01CB" unicode="&#x1cb;" horiz-adv-x="2196" 
d="M218 1446h153l854 -1193l-26 -8v1201h177v-1446h-179l-828 1140l26 9v-1149h-177v1446zM1607 -197h29q67 0 108.5 13t61.5 54t20 126v1064h188v-1053q0 -156 -37.5 -233t-109.5 -102t-175 -25h-66zM1823 1297v208h194v-208h-194z" />
    <glyph glyph-name="uni01CC" unicode="&#x1cc;" horiz-adv-x="1828" 
d="M186 1060h188v-103q47 54 123 88.5t191 34.5q131 0 210.5 -42.5t115.5 -113t36 -154.5v-770h-188v781q0 53 -28 87t-78 51t-116 17q-92 0 -151 -24t-87 -65t-28 -92v-755h-188v1060zM1239 -197h29q67 0 108.5 13t61.5 54t20 126v1064h188v-1053q0 -156 -37.5 -233
t-109.5 -102t-175 -25h-66zM1455 1297v208h194v-208h-194z" />
    <glyph glyph-name="uni01CD" unicode="&#x1cd;" horiz-adv-x="1428" 
d="M86 0l539 1446h177l540 -1446h-205l-433 1259l30 -1l-439 -1258h-209zM306 282l48 148h723l46 -148h-817zM627 1635l-255 320h138l257 -230h-104l256 230h138l-255 -320h-175z" />
    <glyph glyph-name="uni01CE" unicode="&#x1ce;" horiz-adv-x="1172" 
d="M465 -22q-117 0 -190.5 40.5t-108 107t-34.5 142.5q0 80 31.5 134.5t119 99t256.5 93.5q88 26 141 46t77 51t24 89q0 43 -13.5 78t-55 56t-126.5 21q-106 0 -155 -22t-62.5 -57.5t-13.5 -78.5v-47h-181v48q0 157 105 229t313 72q140 0 222.5 -44.5t118.5 -125.5t36 -190
v-452q0 -84 21.5 -108t89.5 -24l-22 -144h-38q-106 0 -153 41.5t-71 116.5q-23 -36 -63.5 -76t-105 -68t-162.5 -28zM488 118q57 0 119 24.5t110.5 65t63.5 89.5v279q-22 -22 -76.5 -57.5t-155.5 -64.5q-123 -35 -180.5 -72t-57.5 -108q0 -80 41.5 -118t135.5 -38zM490 1235
l-255 340h138l257 -250h-104l256 250h138l-255 -340h-175z" />
    <glyph glyph-name="uni01CF" unicode="&#x1cf;" horiz-adv-x="1132" 
d="M190 150h276v1147h-276v149h752v-149h-275v-1147h275v-150h-752v150zM479 1635l-255 320h138l257 -230h-104l256 230h138l-255 -320h-175z" />
    <glyph glyph-name="uni01D0" unicode="&#x1d0;" horiz-adv-x="564" 
d="M203 1235l-215 340h138l217 -250h-104l216 250h138l-215 -340h-175zM186 1060h188v-1060h-188v1060z" />
    <glyph glyph-name="uni01D1" unicode="&#x1d1;" horiz-adv-x="1546" 
d="M782 -22q-181 0 -297.5 37t-181.5 104.5t-91 160.5t-26 206v455q0 115 25.5 211t90.5 167t181.5 110t298.5 39q175 0 288 -41t176 -114.5t88.5 -171.5t25.5 -213v-428q0 -111 -25.5 -206.5t-89 -166t-176.5 -110t-287 -39.5zM782 140q129 0 212.5 25.5t124 93.5t40.5 196
v523q0 129 -41 200t-124.5 99.5t-211.5 28.5q-127 0 -215 -28.5t-133.5 -99.5t-45.5 -200v-523q0 -128 45 -196t133 -93.5t216 -25.5zM686 1635l-255 320h138l257 -230h-104l256 230h138l-255 -320h-175z" />
    <glyph glyph-name="uni01D2" unicode="&#x1d2;" horiz-adv-x="1174" 
d="M587 -22q-159 0 -255.5 43.5t-140 119.5t-43.5 174v427q0 98 43.5 174.5t140 120t255.5 43.5q158 0 254.5 -43.5t140.5 -120t44 -174.5v-427q0 -98 -44 -174t-140.5 -119.5t-254.5 -43.5zM587 122q110 0 180.5 39.5t70.5 137.5v459q0 98 -70.5 138t-180.5 40
q-112 0 -181.5 -40t-69.5 -138v-459q0 -98 69.5 -137.5t181.5 -39.5zM498 1235l-255 340h138l257 -250h-104l256 250h138l-255 -340h-175z" />
    <glyph glyph-name="uni01D3" unicode="&#x1d3;" horiz-adv-x="1538" 
d="M779 -22q-177 0 -290.5 39t-176.5 107t-87.5 157.5t-24.5 191.5v973h202v-994q0 -133 52.5 -200t138.5 -89.5t186 -22.5q102 0 182.5 22.5t127.5 89.5t47 200v994h202v-973q0 -100 -24.5 -189.5t-85.5 -158.5t-170 -108t-279 -39zM682 1635l-255 320h138l257 -230h-104
l256 230h138l-255 -320h-175z" />
    <glyph glyph-name="uni01D4" unicode="&#x1d4;" horiz-adv-x="1224" 
d="M541 -22q-130 0 -210.5 43t-117.5 114t-37 155v770h188v-771q0 -52 26 -89.5t74.5 -57.5t113.5 -20q92 0 152.5 28t90 71.5t29.5 87.5v751h188v-1060h-168l-20 133q-40 -71 -116.5 -113t-192.5 -42zM517 1235l-255 340h138l257 -250h-104l256 250h138l-255 -340h-175z
" />
    <glyph glyph-name="uni01D5" unicode="&#x1d5;" horiz-adv-x="1538" 
d="M779 -22q-177 0 -290.5 39t-176.5 107t-87.5 157.5t-24.5 191.5v973h202v-994q0 -133 52.5 -200t138.5 -89.5t186 -22.5q102 0 182.5 22.5t127.5 89.5t47 200v994h202v-973q0 -100 -24.5 -189.5t-85.5 -158.5t-170 -108t-279 -39zM848 1599v181h206v-181h-206zM484 1599
v181h206v-181h-206zM517 1942v155h504v-155h-504z" />
    <glyph glyph-name="uni01D6" unicode="&#x1d6;" horiz-adv-x="1224" 
d="M541 -22q-130 0 -210.5 43t-117.5 114t-37 155v770h188v-771q0 -52 26 -89.5t74.5 -57.5t113.5 -20q92 0 152.5 28t90 71.5t29.5 87.5v751h188v-1060h-168l-20 133q-40 -71 -116.5 -113t-192.5 -42zM681 1212v181h206v-181h-206zM317 1212v181h206v-181h-206zM350 1578
v155h504v-155h-504z" />
    <glyph glyph-name="uni01D7" unicode="&#x1d7;" horiz-adv-x="1538" 
d="M779 -22q-177 0 -290.5 39t-176.5 107t-87.5 157.5t-24.5 191.5v973h202v-994q0 -133 52.5 -200t138.5 -89.5t186 -22.5q102 0 182.5 22.5t127.5 89.5t47 200v994h202v-973q0 -100 -24.5 -189.5t-85.5 -158.5t-170 -108t-279 -39zM848 1599v181h206v-181h-206zM484 1599
v181h206v-181h-206zM639 1916l165 350h225l-262 -350h-128z" />
    <glyph glyph-name="uni01D8" unicode="&#x1d8;" horiz-adv-x="1224" 
d="M541 -22q-130 0 -210.5 43t-117.5 114t-37 155v770h188v-771q0 -52 26 -89.5t74.5 -57.5t113.5 -20q92 0 152.5 28t90 71.5t29.5 87.5v751h188v-1060h-168l-20 133q-40 -71 -116.5 -113t-192.5 -42zM683 1208v181h206v-181h-206zM319 1208v181h206v-181h-206zM484 1514
l135 350h225l-232 -350h-128z" />
    <glyph glyph-name="uni01D9" unicode="&#x1d9;" horiz-adv-x="1538" 
d="M779 -22q-177 0 -290.5 39t-176.5 107t-87.5 157.5t-24.5 191.5v973h202v-994q0 -133 52.5 -200t138.5 -89.5t186 -22.5q102 0 182.5 22.5t127.5 89.5t47 200v994h202v-973q0 -100 -24.5 -189.5t-85.5 -158.5t-170 -108t-279 -39zM848 1599v181h206v-181h-206zM484 1599
v181h206v-181h-206zM682 1919l-255 320h138l257 -230h-104l256 230h138l-255 -320h-175z" />
    <glyph glyph-name="uni01DA" unicode="&#x1da;" horiz-adv-x="1224" 
d="M541 -22q-130 0 -210.5 43t-117.5 114t-37 155v770h188v-771q0 -52 26 -89.5t74.5 -57.5t113.5 -20q92 0 152.5 28t90 71.5t29.5 87.5v751h188v-1060h-168l-20 133q-40 -71 -116.5 -113t-192.5 -42zM681 1212v181h206v-181h-206zM317 1212v181h206v-181h-206zM515 1548
l-255 340h138l257 -250h-104l256 250h138l-255 -340h-175z" />
    <glyph glyph-name="uni01DB" unicode="&#x1db;" horiz-adv-x="1538" 
d="M779 -22q-177 0 -290.5 39t-176.5 107t-87.5 157.5t-24.5 191.5v973h202v-994q0 -133 52.5 -200t138.5 -89.5t186 -22.5q102 0 182.5 22.5t127.5 89.5t47 200v994h202v-973q0 -100 -24.5 -189.5t-85.5 -158.5t-170 -108t-279 -39zM848 1599v181h206v-181h-206zM484 1599
v181h206v-181h-206zM771 1916l-262 350h225l165 -350h-128z" />
    <glyph glyph-name="uni01DC" unicode="&#x1dc;" horiz-adv-x="1224" 
d="M541 -22q-130 0 -210.5 43t-117.5 114t-37 155v770h188v-771q0 -52 26 -89.5t74.5 -57.5t113.5 -20q92 0 152.5 28t90 71.5t29.5 87.5v751h188v-1060h-168l-20 133q-40 -71 -116.5 -113t-192.5 -42zM683 1210v181h206v-181h-206zM319 1210v181h206v-181h-206zM596 1516
l-232 350h225l135 -350h-128z" />
    <glyph glyph-name="uni01DD" unicode="&#x1dd;" horiz-adv-x="1138" 
d="M556 -20q-218 0 -321 85.5t-103 236.5v252h670v149q0 129 -51.5 182t-201.5 53q-88 0 -140 -6.5t-76.5 -40t-32.5 -113.5h-166q13 125 54.5 190.5t127.5 89.5t233 24q158 0 255 -44t141.5 -132t44.5 -220v-369q0 -150 -103 -243.5t-331 -93.5zM556 124q113 0 179.5 39
t66.5 137v127h-488v-145q0 -64 30.5 -98t85 -47t126.5 -13z" />
    <glyph glyph-name="uni01DE" unicode="&#x1de;" horiz-adv-x="1428" 
d="M86 0l539 1446h177l540 -1446h-205l-433 1259l30 -1l-439 -1258h-209zM306 282l48 148h723l46 -148h-817zM793 1619v181h206v-181h-206zM429 1619v181h206v-181h-206zM462 1942v155h504v-155h-504z" />
    <glyph glyph-name="uni01DF" unicode="&#x1df;" horiz-adv-x="1172" 
d="M465 -22q-117 0 -190.5 40.5t-108 107t-34.5 142.5q0 80 31.5 134.5t119 99t256.5 93.5q88 26 141 46t77 51t24 89q0 43 -13.5 78t-55 56t-126.5 21q-106 0 -155 -22t-62.5 -57.5t-13.5 -78.5v-47h-181v48q0 157 105 229t313 72q140 0 222.5 -44.5t118.5 -125.5t36 -190
v-452q0 -84 21.5 -108t89.5 -24l-22 -144h-38q-106 0 -153 41.5t-71 116.5q-23 -36 -63.5 -76t-105 -68t-162.5 -28zM488 118q57 0 119 24.5t110.5 65t63.5 89.5v279q-22 -22 -76.5 -57.5t-155.5 -64.5q-123 -35 -180.5 -72t-57.5 -108q0 -80 41.5 -118t135.5 -38zM665 1222
v181h206v-181h-206zM301 1222v181h206v-181h-206zM334 1548v155h504v-155h-504z" />
    <glyph glyph-name="uni01E0" unicode="&#x1e0;" horiz-adv-x="1428" 
d="M86 0l539 1446h177l540 -1446h-205l-433 1259l30 -1l-439 -1258h-209zM306 282l48 148h723l46 -148h-817zM617 1614v208h194v-208h-194zM462 1944v155h504v-155h-504z" />
    <glyph glyph-name="uni01E1" unicode="&#x1e1;" horiz-adv-x="1172" 
d="M465 -22q-117 0 -190.5 40.5t-108 107t-34.5 142.5q0 80 31.5 134.5t119 99t256.5 93.5q88 26 141 46t77 51t24 89q0 43 -13.5 78t-55 56t-126.5 21q-106 0 -155 -22t-62.5 -57.5t-13.5 -78.5v-47h-181v48q0 157 105 229t313 72q140 0 222.5 -44.5t118.5 -125.5t36 -190
v-452q0 -84 21.5 -108t89.5 -24l-22 -144h-38q-106 0 -153 41.5t-71 116.5q-23 -36 -63.5 -76t-105 -68t-162.5 -28zM488 118q57 0 119 24.5t110.5 65t63.5 89.5v279q-22 -22 -76.5 -57.5t-155.5 -64.5q-123 -35 -180.5 -72t-57.5 -108q0 -80 41.5 -118t135.5 -38zM489 1223
v208h194v-208h-194zM334 1548v155h504v-155h-504z" />
    <glyph glyph-name="uni01E2" unicode="&#x1e2;" horiz-adv-x="1686" 
d="M299 502l36 148h539v646h-242l-330 -1296l-204 3l394 1443h1058v-150h-485v-482h424v-150h-424v-514h494v-150h-685v502h-575zM735 1658v155h504v-155h-504z" />
    <glyph glyph-name="uni01E3" unicode="&#x1e3;" horiz-adv-x="1741" 
d="M469 -20q-112 0 -187.5 42t-113 111t-37.5 150q0 53 12 101.5t51.5 91.5t121.5 77t223 57q113 18 164.5 32t66 40t14.5 79q0 74 -38 126.5t-157 52.5q-106 0 -156.5 -29t-65 -74t-14.5 -95v-24h-181v28q0 161 105 247.5t313 86.5q104 0 186.5 -34.5t110.5 -106.5
q47 74 124 107.5t186 33.5q138 0 229.5 -38.5t137 -110.5t45.5 -173v-247h-636v-183q0 -106 53 -156.5t163 -50.5q83 0 134.5 11t77.5 53t32 133h170q-10 -129 -52.5 -203t-129.5 -105t-232 -31q-155 0 -225.5 62t-99.5 160l47 -1q-46 -60 -102.5 -110t-137.5 -80t-202 -30z
M502 113q58 0 117.5 20t105 56.5t60.5 85.5v285q0 -10 -19.5 -21t-74 -25t-159.5 -35q-126 -25 -173 -74.5t-47 -120.5q0 -89 54 -130t136 -41zM973 633h464v145q0 96 -66 128t-175 32q-112 0 -167.5 -40t-55.5 -138v-127zM644 1305v155h504v-155h-504z" />
    <glyph glyph-name="uni01E4" unicode="&#x1e4;" horiz-adv-x="1556" 
d="M788 -22q-181 0 -298.5 37t-183.5 104.5t-93 160.5t-27 206v454q0 115 26.5 211.5t92.5 167.5t183.5 110t299.5 39q175 0 284.5 -32.5t168.5 -91t81 -137t22 -170.5v-22l-184 -15v22q0 112 -30.5 173.5t-111 86t-230.5 24.5q-127 0 -216.5 -28.5t-136.5 -100t-47 -200.5
v-522q0 -128 46.5 -196t136 -93.5t217.5 -25.5q129 0 211 25.5t120.5 93.5t38.5 196v133h-343v147h545v-735h-110l-25 246q-9 -59 -38.5 -108t-82 -85t-131 -55.5t-185.5 -19.5zM815 478h676v-144h-676v144z" />
    <glyph glyph-name="uni01E5" unicode="&#x1e5;" horiz-adv-x="1182" 
d="M573 -424q-107 0 -184 9t-136 31l42 141q43 -16 119 -27t150 -11q137 0 197.5 58t60.5 176v167q-30 -28 -80.5 -44.5t-102.5 -24t-89 -7.5q-203 0 -302.5 87t-99.5 252v345q0 107 43 186t132 122.5t227 43.5q54 0 111.5 -16t101.5 -40t59 -49v85h188v-1051
q0 -124 -40.5 -222t-136 -154.5t-260.5 -56.5zM579 188q105 0 163 31t80 49v522q0 69 -59.5 107.5t-184.5 38.5q-111 0 -176.5 -45t-65.5 -143v-394q0 -95 70 -130.5t173 -35.5zM531 -38h621v-144h-621v144z" />
    <glyph glyph-name="Gcaron" unicode="&#x1e6;" horiz-adv-x="1556" 
d="M788 -22q-181 0 -298.5 37t-183.5 104.5t-93 160.5t-27 206v454q0 115 26.5 211.5t92.5 167.5t183.5 110t299.5 39q175 0 284.5 -32.5t168.5 -91t81 -137t22 -170.5v-22l-184 -15v22q0 112 -30.5 173.5t-111 86t-230.5 24.5q-127 0 -216.5 -28.5t-136.5 -100t-47 -200.5
v-522q0 -128 46.5 -196t136 -93.5t217.5 -25.5q129 0 211 25.5t120.5 93.5t38.5 196v133h-343v147h545v-735h-110l-25 246q-9 -59 -38.5 -108t-82 -85t-131 -55.5t-185.5 -19.5zM695 1635l-255 320h138l257 -230h-104l256 230h138l-255 -320h-175z" />
    <glyph glyph-name="gcaron" unicode="&#x1e7;" horiz-adv-x="1182" 
d="M573 -408q-107 0 -184 9t-136 31l42 141q43 -16 119 -27t150 -11q137 0 197.5 58t60.5 176v147q-30 -28 -80.5 -44.5t-102.5 -24t-89 -7.5q-203 0 -302.5 87t-99.5 252v349q0 107 43 186t132 122.5t227 43.5q54 0 111.5 -16t101.5 -40t59 -49v85h188v-1035
q0 -124 -40.5 -222t-136 -154.5t-260.5 -56.5zM579 184q105 0 163 31t80 49v526q0 69 -59.5 107.5t-184.5 38.5q-111 0 -176.5 -45t-65.5 -143v-398q0 -95 70 -130.5t173 -35.5zM478 1235l-255 340h138l257 -250h-104l256 250h138l-255 -340h-175z" />
    <glyph glyph-name="uni01E8" unicode="&#x1e8;" horiz-adv-x="1418" 
d="M675 701l-27 -4l-229 -260v-437h-201v1446h201v-789l684 789h218zM599 744l141 108l610 -852h-223zM658 1635l-255 320h138l257 -230h-104l256 230h138l-255 -320h-175z" />
    <glyph glyph-name="uni01E9" unicode="&#x1e9;" horiz-adv-x="1145" 
d="M186 1505h188v-981l507 536h206l-431 -466l474 -594h-217l-380 492l-159 -158v-334h-188v1505zM187 1621l-255 340h138l257 -250h-104l256 250h138l-255 -340h-175z" />
    <glyph glyph-name="uni01EA" unicode="&#x1ea;" horiz-adv-x="1546" 
d="M782 -22q-181 0 -297.5 37t-181.5 104.5t-91 160.5t-26 206v455q0 115 25.5 211t90.5 167t181.5 110t298.5 39q175 0 288 -41t176 -114.5t88.5 -171.5t25.5 -213v-428q0 -111 -25.5 -206.5t-89 -166t-176.5 -110t-287 -39.5zM782 140q129 0 212.5 25.5t124 93.5t40.5 196
v523q0 129 -41 200t-124.5 99.5t-211.5 28.5q-127 0 -215 -28.5t-133.5 -99.5t-45.5 -200v-523q0 -128 45 -196t133 -93.5t216 -25.5zM978 -444q-111 0 -172 49.5t-61 144.5q0 65 51.5 143t133.5 127l113 -10q-60 -51 -99 -105t-39 -106q0 -47 24.5 -74.5t76.5 -27.5h60
l-12 -141h-76z" />
    <glyph glyph-name="uni01EB" unicode="&#x1eb;" horiz-adv-x="1174" 
d="M587 -22q-159 0 -255.5 43.5t-140 119.5t-43.5 174v427q0 98 43.5 174.5t140 120t255.5 43.5q158 0 254.5 -43.5t140.5 -120t44 -174.5v-427q0 -98 -44 -174t-140.5 -119.5t-254.5 -43.5zM587 122q110 0 180.5 39.5t70.5 137.5v459q0 98 -70.5 138t-180.5 40
q-112 0 -181.5 -40t-69.5 -138v-459q0 -98 69.5 -137.5t181.5 -39.5zM710 -454q-111 0 -172 49.5t-61 144.5q0 65 51.5 143t133.5 127l113 -10q-60 -51 -99 -105t-39 -106q0 -47 24.5 -74.5t76.5 -27.5h60l-12 -141h-76z" />
    <glyph glyph-name="uni01EC" unicode="&#x1ec;" horiz-adv-x="1546" 
d="M782 -22q-181 0 -297.5 37t-181.5 104.5t-91 160.5t-26 206v455q0 115 25.5 211t90.5 167t181.5 110t298.5 39q175 0 288 -41t176 -114.5t88.5 -171.5t25.5 -213v-428q0 -111 -25.5 -206.5t-89 -166t-176.5 -110t-287 -39.5zM782 140q129 0 212.5 25.5t124 93.5t40.5 196
v523q0 129 -41 200t-124.5 99.5t-211.5 28.5q-127 0 -215 -28.5t-133.5 -99.5t-45.5 -200v-523q0 -128 45 -196t133 -93.5t216 -25.5zM978 -444q-111 0 -172 49.5t-61 144.5q0 65 51.5 143t133.5 127l113 -10q-60 -51 -99 -105t-39 -106q0 -47 24.5 -74.5t76.5 -27.5h60
l-12 -141h-76zM521 1658v155h504v-155h-504z" />
    <glyph glyph-name="uni01ED" unicode="&#x1ed;" horiz-adv-x="1174" 
d="M587 -22q-159 0 -255.5 43.5t-140 119.5t-43.5 174v427q0 98 43.5 174.5t140 120t255.5 43.5q158 0 254.5 -43.5t140.5 -120t44 -174.5v-427q0 -98 -44 -174t-140.5 -119.5t-254.5 -43.5zM587 122q110 0 180.5 39.5t70.5 137.5v459q0 98 -70.5 138t-180.5 40
q-112 0 -181.5 -40t-69.5 -138v-459q0 -98 69.5 -137.5t181.5 -39.5zM710 -454q-111 0 -172 49.5t-61 144.5q0 65 51.5 143t133.5 127l113 -10q-60 -51 -99 -105t-39 -106q0 -47 24.5 -74.5t76.5 -27.5h60l-12 -141h-76zM333 1305v155h504v-155h-504z" />
    <glyph glyph-name="uni01EE" unicode="&#x1ee;" horiz-adv-x="1266" 
d="M637 -420q-184 0 -294.5 54t-166.5 180t-76 342h192q9 -176 50.5 -265t118 -119t189.5 -30q156 0 223.5 89.5t67.5 283.5q0 142 -28.5 230t-116 129.5t-264.5 41.5v160q208 0 344 -63.5t203 -188.5t67 -311q0 -175 -60 -293.5t-173.5 -179t-275.5 -60.5zM651 534
l-119 142l439 649l4 -29h-803v150h963v-188zM578 1635l-255 320h138l257 -230h-104l256 230h138l-255 -320h-175z" />
    <glyph glyph-name="uni01EF" unicode="&#x1ef;" horiz-adv-x="1090" 
d="M531 -406q-154 0 -247 42.5t-140 141.5t-64 269h184q8 -121 37 -183.5t87 -85t153 -22.5q125 0 180 68.5t55 210.5q0 155 -61.5 223.5t-227.5 68.5h-64v148l319 487l20 -38h-642v136h801v-125l-341 -520l-23 60q130 0 219 -47t135.5 -144.5t46.5 -249.5
q0 -148 -50.5 -245.5t-145.5 -146t-231 -48.5zM428 1235l-255 340h138l257 -250h-104l256 250h138l-255 -340h-175z" />
    <glyph glyph-name="uni01F0" unicode="&#x1f0;" horiz-adv-x="602" 
d="M13 -197h29q67 0 108.5 13t61.5 54t20 126v1064h188v-1053q0 -156 -37.5 -233t-109.5 -102t-175 -25h-66zM239 1235l-255 340h138l257 -250h-104l256 250h138l-255 -340h-175z" />
    <glyph glyph-name="uni01F1" unicode="&#x1f1;" horiz-adv-x="2764" 
d="M218 0v1446h574q201 0 321 -64.5t173.5 -174.5t53.5 -248v-477q0 -156 -60 -263.5t-181 -163t-305 -55.5h-576zM420 150h354q104 0 186.5 22.5t130.5 89.5t48 200v509q0 134 -48.5 203.5t-131 95t-185.5 25.5h-354v-1145zM1702 150l682 1131h-651v165h872v-151
l-681 -1130h694v-165h-916v150z" />
    <glyph glyph-name="uni01F2" unicode="&#x1f2;" horiz-adv-x="2481" 
d="M218 0v1446h574q201 0 321 -64.5t173.5 -174.5t53.5 -248v-477q0 -156 -60 -263.5t-181 -163t-305 -55.5h-576zM420 150h354q104 0 186.5 22.5t130.5 89.5t48 200v509q0 134 -48.5 203.5t-131 95t-185.5 25.5h-354v-1145zM1662 126l525 836l21 -44h-528v142h687v-125
l-531 -841l-21 48h561v-142h-714v126z" />
    <glyph glyph-name="uni01F3" unicode="&#x1f3;" horiz-adv-x="2159" 
d="M148 335v400q0 160 106 252.5t337 92.5q50 0 118 -11t117 -29v465h188v-1505h-128l-31 70q-46 -36 -125.5 -64t-161.5 -28q-152 0 -244.5 47t-134 127.5t-41.5 182.5zM826 189v703q-42 20 -104.5 32t-128.5 12q-111 0 -184 -41t-73 -139v-435q0 -99 70.5 -147t173.5 -48
q80 0 147 22t99 41zM1340 126l525 836l21 -44h-528v142h687v-125l-531 -841l-21 48h561v-142h-714v126z" />
    <glyph glyph-name="uni01F4" unicode="&#x1f4;" horiz-adv-x="1556" 
d="M788 -22q-181 0 -298.5 37t-183.5 104.5t-93 160.5t-27 206v454q0 115 26.5 211.5t92.5 167.5t183.5 110t299.5 39q175 0 284.5 -32.5t168.5 -91t81 -137t22 -170.5v-22l-184 -15v22q0 112 -30.5 173.5t-111 86t-230.5 24.5q-127 0 -216.5 -28.5t-136.5 -100t-47 -200.5
v-522q0 -128 46.5 -196t136 -93.5t217.5 -25.5q129 0 211 25.5t120.5 93.5t38.5 196v133h-343v147h545v-735h-110l-25 246q-9 -59 -38.5 -108t-82 -85t-131 -55.5t-185.5 -19.5zM652 1632l165 350h225l-262 -350h-128z" />
    <glyph glyph-name="uni01F5" unicode="&#x1f5;" horiz-adv-x="1182" 
d="M573 -408q-107 0 -184 9t-136 31l42 141q43 -16 119 -27t150 -11q137 0 197.5 58t60.5 176v147q-30 -28 -80.5 -44.5t-102.5 -24t-89 -7.5q-203 0 -302.5 87t-99.5 252v349q0 107 43 186t132 122.5t227 43.5q54 0 111.5 -16t101.5 -40t59 -49v85h188v-1035
q0 -124 -40.5 -222t-136 -154.5t-260.5 -56.5zM579 184q105 0 163 31t80 49v526q0 69 -59.5 107.5t-184.5 38.5q-111 0 -176.5 -45t-65.5 -143v-398q0 -95 70 -130.5t173 -35.5zM445 1235l135 350h225l-232 -350h-128z" />
    <glyph glyph-name="uni01F8" unicode="&#x1f8;" horiz-adv-x="1594" 
d="M218 1446h153l854 -1193l-26 -8v1201h177v-1446h-179l-828 1140l26 9v-1149h-177v1446zM799 1582l-262 350h225l165 -350h-128z" />
    <glyph glyph-name="uni01F9" unicode="&#x1f9;" horiz-adv-x="1226" 
d="M186 1060h188v-103q47 54 123 88.5t191 34.5q131 0 210.5 -42.5t115.5 -113t36 -154.5v-770h-188v781q0 53 -28 87t-78 51t-116 17q-92 0 -151 -24t-87 -65t-28 -92v-755h-188v1060zM638 1235l-232 350h225l135 -350h-128z" />
    <glyph glyph-name="Aringacute" unicode="&#x1fa;" horiz-adv-x="1428" 
d="M86 0l539 1446h177l540 -1446h-205l-433 1259l30 -1l-439 -1258h-209zM306 282l48 148h723l46 -148h-817zM714 1542q-106 0 -170 58.5t-64 167.5q0 108 64 166t170 58t170 -58t64 -166q0 -109 -63.5 -167.5t-170.5 -58.5zM714 1645q42 0 78.5 25t36.5 97q0 71 -36.5 97.5
t-79.5 26.5t-78.5 -25.5t-35.5 -96.5q0 -73 35.5 -98.5t79.5 -25.5zM624 1899l165 350h225l-262 -350h-128z" />
    <glyph glyph-name="aringacute" unicode="&#x1fb;" horiz-adv-x="1172" 
d="M465 -22q-117 0 -190.5 40.5t-108 107t-34.5 142.5q0 80 31.5 134.5t119 99t256.5 93.5q88 26 141 46t77 51t24 89q0 43 -13.5 78t-55 56t-126.5 21q-106 0 -155 -22t-62.5 -57.5t-13.5 -78.5v-47h-181v48q0 157 105 229t313 72q140 0 222.5 -44.5t118.5 -125.5t36 -190
v-452q0 -84 21.5 -108t89.5 -24l-22 -144h-38q-106 0 -153 41.5t-71 116.5q-23 -36 -63.5 -76t-105 -68t-162.5 -28zM488 118q57 0 119 24.5t110.5 65t63.5 89.5v279q-22 -22 -76.5 -57.5t-155.5 -64.5q-123 -35 -180.5 -72t-57.5 -108q0 -80 41.5 -118t135.5 -38zM577 1172
q-106 0 -170 58.5t-64 167.5q0 108 64 166t170 58t170 -58t64 -166q0 -109 -63.5 -167.5t-170.5 -58.5zM577 1275q42 0 78.5 25t36.5 97q0 71 -36.5 97.5t-79.5 26.5t-78.5 -25.5t-35.5 -96.5q0 -73 35.5 -98.5t79.5 -25.5zM506 1537l135 350h225l-232 -350h-128z" />
    <glyph glyph-name="AEacute" unicode="&#x1fc;" horiz-adv-x="1686" 
d="M299 502l36 148h539v646h-242l-330 -1296l-204 3l394 1443h1058v-150h-485v-482h424v-150h-424v-514h494v-150h-685v502h-575zM857 1632l165 350h225l-262 -350h-128z" />
    <glyph glyph-name="aeacute" unicode="&#x1fd;" horiz-adv-x="1741" 
d="M469 -20q-112 0 -187.5 42t-113 111t-37.5 150q0 53 12 101.5t51.5 91.5t121.5 77t223 57q113 18 164.5 32t66 40t14.5 79q0 74 -38 126.5t-157 52.5q-106 0 -156.5 -29t-65 -74t-14.5 -95v-24h-181v28q0 161 105 247.5t313 86.5q104 0 186.5 -34.5t110.5 -106.5
q47 74 124 107.5t186 33.5q138 0 229.5 -38.5t137 -110.5t45.5 -173v-247h-636v-183q0 -106 53 -156.5t163 -50.5q83 0 134.5 11t77.5 53t32 133h170q-10 -129 -52.5 -203t-129.5 -105t-232 -31q-155 0 -225.5 62t-99.5 160l47 -1q-46 -60 -102.5 -110t-137.5 -80t-202 -30z
M502 113q58 0 117.5 20t105 56.5t60.5 85.5v285q0 -10 -19.5 -21t-74 -25t-159.5 -35q-126 -25 -173 -74.5t-47 -120.5q0 -89 54 -130t136 -41zM973 633h464v145q0 96 -66 128t-175 32q-112 0 -167.5 -40t-55.5 -138v-127zM776 1235l135 350h225l-232 -350h-128z" />
    <glyph glyph-name="Oslashacute" unicode="&#x1fe;" horiz-adv-x="1546" 
d="M376 -157l678 1833l104 -38l-679 -1833zM782 -22q-181 0 -297.5 37t-181.5 104.5t-91 160.5t-26 206v455q0 115 25.5 211t90.5 167t181.5 110t298.5 39q175 0 288 -41t176 -114.5t88.5 -171.5t25.5 -213v-428q0 -111 -25.5 -206.5t-89 -166t-176.5 -110t-287 -39.5z
M782 140q129 0 212.5 25.5t124 93.5t40.5 196v523q0 129 -41 200t-124.5 99.5t-211.5 28.5q-127 0 -215 -28.5t-133.5 -99.5t-45.5 -200v-523q0 -128 45 -196t133 -93.5t216 -25.5zM661 1632l165 350h225l-262 -350h-128z" />
    <glyph glyph-name="oslashacute" unicode="&#x1ff;" horiz-adv-x="1174" 
d="M271 -195l540 1446l90 -31l-538 -1446zM587 -22q-159 0 -255.5 43.5t-140 119.5t-43.5 174v427q0 98 43.5 174.5t140 120t255.5 43.5q158 0 254.5 -43.5t140.5 -120t44 -174.5v-427q0 -98 -44 -174t-140.5 -119.5t-254.5 -43.5zM587 122q110 0 180.5 39.5t70.5 137.5v459
q0 98 -70.5 138t-180.5 40q-112 0 -181.5 -40t-69.5 -138v-459q0 -98 69.5 -137.5t181.5 -39.5zM465 1235l135 350h225l-232 -350h-128z" />
    <glyph glyph-name="uni0200" unicode="&#x200;" horiz-adv-x="1428" 
d="M86 0l539 1446h177l540 -1446h-205l-433 1259l30 -1l-439 -1258h-209zM306 282l48 148h723l46 -148h-817zM813 1591l-129 350h198l42 -350h-111zM532 1591l-129 350h198l42 -350h-111z" />
    <glyph glyph-name="uni0201" unicode="&#x201;" horiz-adv-x="1172" 
d="M465 -22q-117 0 -190.5 40.5t-108 107t-34.5 142.5q0 80 31.5 134.5t119 99t256.5 93.5q88 26 141 46t77 51t24 89q0 43 -13.5 78t-55 56t-126.5 21q-106 0 -155 -22t-62.5 -57.5t-13.5 -78.5v-47h-181v48q0 157 105 229t313 72q140 0 222.5 -44.5t118.5 -125.5t36 -190
v-452q0 -84 21.5 -108t89.5 -24l-22 -144h-38q-106 0 -153 41.5t-71 116.5q-23 -36 -63.5 -76t-105 -68t-162.5 -28zM488 118q57 0 119 24.5t110.5 65t63.5 89.5v279q-22 -22 -76.5 -57.5t-155.5 -64.5q-123 -35 -180.5 -72t-57.5 -108q0 -80 41.5 -118t135.5 -38zM676 1235
l-129 350h198l42 -350h-111zM395 1235l-129 350h198l42 -350h-111z" />
    <glyph glyph-name="uni0202" unicode="&#x202;" horiz-adv-x="1428" 
d="M86 0l539 1446h177l540 -1446h-205l-433 1259l30 -1l-439 -1258h-209zM306 282l48 148h723l46 -148h-817zM413 1651q0 154 82.5 226t218.5 72q135 0 218 -72t83 -226h-136q0 65 -40.5 104t-124.5 39q-85 0 -125.5 -39t-40.5 -104h-135z" />
    <glyph glyph-name="uni0203" unicode="&#x203;" horiz-adv-x="1172" 
d="M465 -22q-117 0 -190.5 40.5t-108 107t-34.5 142.5q0 80 31.5 134.5t119 99t256.5 93.5q88 26 141 46t77 51t24 89q0 43 -13.5 78t-55 56t-126.5 21q-106 0 -155 -22t-62.5 -57.5t-13.5 -78.5v-47h-181v48q0 157 105 229t313 72q140 0 222.5 -44.5t118.5 -125.5t36 -190
v-452q0 -84 21.5 -108t89.5 -24l-22 -144h-38q-106 0 -153 41.5t-71 116.5q-23 -36 -63.5 -76t-105 -68t-162.5 -28zM488 118q57 0 119 24.5t110.5 65t63.5 89.5v279q-22 -22 -76.5 -57.5t-155.5 -64.5q-123 -35 -180.5 -72t-57.5 -108q0 -80 41.5 -118t135.5 -38zM276 1235
q0 113 37.5 183t105.5 102.5t158 32.5t158 -32.5t105.5 -102.5t37.5 -183h-136q0 77 -40.5 126.5t-124.5 49.5q-85 0 -125.5 -49.5t-40.5 -126.5h-135z" />
    <glyph glyph-name="uni0204" unicode="&#x204;" horiz-adv-x="1255" 
d="M218 1446h903v-150h-702v-476h620v-150h-620v-520h714v-150h-915v1446zM769 1591l-129 350h198l42 -350h-111zM488 1591l-129 350h198l42 -350h-111z" />
    <glyph glyph-name="uni0205" unicode="&#x205;" horiz-adv-x="1138" 
d="M148 374v369q0 150 103 243.5t331 93.5q218 0 321 -85.5t103 -236.5v-252h-670v-149q0 -129 51.5 -182t201.5 -53q89 0 140.5 6.5t76 40t32.5 113.5h166q-13 -125 -54.5 -190.5t-127.5 -89.5t-233 -24q-158 0 -255 44t-141.5 132t-44.5 220zM824 633v145q0 64 -30.5 98
t-84.5 47t-127 13q-112 0 -179 -39t-67 -137v-127h488zM683 1235l-129 350h198l42 -350h-111zM402 1235l-129 350h198l42 -350h-111z" />
    <glyph glyph-name="uni0206" unicode="&#x206;" horiz-adv-x="1255" 
d="M218 1446h903v-150h-702v-476h620v-150h-620v-520h714v-150h-915v1446zM369 1651q0 154 82.5 226t218.5 72q135 0 218 -72t83 -226h-136q0 65 -40.5 104t-124.5 39q-85 0 -125.5 -39t-40.5 -104h-135z" />
    <glyph glyph-name="uni0207" unicode="&#x207;" horiz-adv-x="1138" 
d="M148 374v369q0 150 103 243.5t331 93.5q218 0 321 -85.5t103 -236.5v-252h-670v-149q0 -129 51.5 -182t201.5 -53q89 0 140.5 6.5t76 40t32.5 113.5h166q-13 -125 -54.5 -190.5t-127.5 -89.5t-233 -24q-158 0 -255 44t-141.5 132t-44.5 220zM824 633v145q0 64 -30.5 98
t-84.5 47t-127 13q-112 0 -179 -39t-67 -137v-127h488zM283 1235q0 113 37.5 183t105.5 102.5t158 32.5t158 -32.5t105.5 -102.5t37.5 -183h-136q0 77 -40.5 126.5t-124.5 49.5q-85 0 -125.5 -49.5t-40.5 -126.5h-135z" />
    <glyph glyph-name="uni0208" unicode="&#x208;" horiz-adv-x="1132" 
d="M190 150h276v1147h-276v149h752v-149h-275v-1147h275v-150h-752v150zM665 1591l-129 350h198l42 -350h-111zM384 1591l-129 350h198l42 -350h-111z" />
    <glyph glyph-name="uni0209" unicode="&#x209;" horiz-adv-x="560" 
d="M186 1060h188v-1060h-188v1060zM379 1235l-129 350h198l42 -350h-111zM98 1235l-129 350h198l42 -350h-111z" />
    <glyph glyph-name="uni020A" unicode="&#x20a;" horiz-adv-x="1132" 
d="M190 150h276v1147h-276v149h752v-149h-275v-1147h275v-150h-752v150zM265 1651q0 154 82.5 226t218.5 72q135 0 218 -72t83 -226h-136q0 65 -40.5 104t-124.5 39q-85 0 -125.5 -39t-40.5 -104h-135z" />
    <glyph glyph-name="uni020B" unicode="&#x20b;" horiz-adv-x="560" 
d="M186 1060h188v-1060h-188v1060zM-21 1235q0 113 37.5 183t105.5 102.5t158 32.5t158 -32.5t105.5 -102.5t37.5 -183h-136q0 77 -40.5 126.5t-124.5 49.5q-85 0 -125.5 -49.5t-40.5 -126.5h-135z" />
    <glyph glyph-name="uni020C" unicode="&#x20c;" horiz-adv-x="1546" 
d="M782 -22q-181 0 -297.5 37t-181.5 104.5t-91 160.5t-26 206v455q0 115 25.5 211t90.5 167t181.5 110t298.5 39q175 0 288 -41t176 -114.5t88.5 -171.5t25.5 -213v-428q0 -111 -25.5 -206.5t-89 -166t-176.5 -110t-287 -39.5zM782 140q129 0 212.5 25.5t124 93.5t40.5 196
v523q0 129 -41 200t-124.5 99.5t-211.5 28.5q-127 0 -215 -28.5t-133.5 -99.5t-45.5 -200v-523q0 -128 45 -196t133 -93.5t216 -25.5zM872 1591l-129 350h198l42 -350h-111zM591 1591l-129 350h198l42 -350h-111z" />
    <glyph glyph-name="uni020D" unicode="&#x20d;" horiz-adv-x="1174" 
d="M587 -22q-159 0 -255.5 43.5t-140 119.5t-43.5 174v427q0 98 43.5 174.5t140 120t255.5 43.5q158 0 254.5 -43.5t140.5 -120t44 -174.5v-427q0 -98 -44 -174t-140.5 -119.5t-254.5 -43.5zM587 122q110 0 180.5 39.5t70.5 137.5v459q0 98 -70.5 138t-180.5 40
q-112 0 -181.5 -40t-69.5 -138v-459q0 -98 69.5 -137.5t181.5 -39.5zM684 1235l-129 350h198l42 -350h-111zM403 1235l-129 350h198l42 -350h-111z" />
    <glyph glyph-name="uni020E" unicode="&#x20e;" horiz-adv-x="1546" 
d="M782 -22q-181 0 -297.5 37t-181.5 104.5t-91 160.5t-26 206v455q0 115 25.5 211t90.5 167t181.5 110t298.5 39q175 0 288 -41t176 -114.5t88.5 -171.5t25.5 -213v-428q0 -111 -25.5 -206.5t-89 -166t-176.5 -110t-287 -39.5zM782 140q129 0 212.5 25.5t124 93.5t40.5 196
v523q0 129 -41 200t-124.5 99.5t-211.5 28.5q-127 0 -215 -28.5t-133.5 -99.5t-45.5 -200v-523q0 -128 45 -196t133 -93.5t216 -25.5zM472 1651q0 154 82.5 226t218.5 72q135 0 218 -72t83 -226h-136q0 65 -40.5 104t-124.5 39q-85 0 -125.5 -39t-40.5 -104h-135z" />
    <glyph glyph-name="uni020F" unicode="&#x20f;" horiz-adv-x="1174" 
d="M587 -22q-159 0 -255.5 43.5t-140 119.5t-43.5 174v427q0 98 43.5 174.5t140 120t255.5 43.5q158 0 254.5 -43.5t140.5 -120t44 -174.5v-427q0 -98 -44 -174t-140.5 -119.5t-254.5 -43.5zM587 122q110 0 180.5 39.5t70.5 137.5v459q0 98 -70.5 138t-180.5 40
q-112 0 -181.5 -40t-69.5 -138v-459q0 -98 69.5 -137.5t181.5 -39.5zM284 1235q0 113 37.5 183t105.5 102.5t158 32.5t158 -32.5t105.5 -102.5t37.5 -183h-136q0 77 -40.5 126.5t-124.5 49.5q-85 0 -125.5 -49.5t-40.5 -126.5h-135z" />
    <glyph glyph-name="uni0210" unicode="&#x210;" horiz-adv-x="1464" 
d="M218 0v1446h645q122 0 212.5 -39.5t141 -133t50.5 -255.5q0 -117 -26 -192t-71.5 -119.5t-106.5 -70.5l307 -636h-207l-287 600h-456v-600h-202zM420 752h426q88 0 135 33t65.5 89.5t18.5 125.5q0 70 -11.5 137t-52.5 111.5t-132 44.5h-449v-541zM802 1591l-129 350h198
l42 -350h-111zM521 1591l-129 350h198l42 -350h-111z" />
    <glyph glyph-name="uni0211" unicode="&#x211;" horiz-adv-x="798" 
d="M186 1060h188v-150q23 60 83.5 96.5t137.5 52.5t147 16l-6 -161q-68 0 -132.5 -14t-116.5 -38.5t-82.5 -55.5t-30.5 -64v-742h-188v1060zM546 1235l-129 350h198l42 -350h-111zM265 1235l-129 350h198l42 -350h-111z" />
    <glyph glyph-name="uni0212" unicode="&#x212;" horiz-adv-x="1464" 
d="M218 0v1446h645q122 0 212.5 -39.5t141 -133t50.5 -255.5q0 -117 -26 -192t-71.5 -119.5t-106.5 -70.5l307 -636h-207l-287 600h-456v-600h-202zM420 752h426q88 0 135 33t65.5 89.5t18.5 125.5q0 70 -11.5 137t-52.5 111.5t-132 44.5h-449v-541zM402 1651
q0 154 82.5 226t218.5 72q135 0 218 -72t83 -226h-136q0 65 -40.5 104t-124.5 39q-85 0 -125.5 -39t-40.5 -104h-135z" />
    <glyph glyph-name="uni0213" unicode="&#x213;" horiz-adv-x="798" 
d="M186 1060h188v-150q23 60 83.5 96.5t137.5 52.5t147 16l-6 -161q-68 0 -132.5 -14t-116.5 -38.5t-82.5 -55.5t-30.5 -64v-742h-188v1060zM161 1235q0 113 37.5 183t105.5 102.5t158 32.5t158 -32.5t105.5 -102.5t37.5 -183h-136q0 77 -40.5 126.5t-124.5 49.5
q-85 0 -125.5 -49.5t-40.5 -126.5h-135z" />
    <glyph glyph-name="uni0214" unicode="&#x214;" horiz-adv-x="1538" 
d="M779 -22q-177 0 -290.5 39t-176.5 107t-87.5 157.5t-24.5 191.5v973h202v-994q0 -133 52.5 -200t138.5 -89.5t186 -22.5q102 0 182.5 22.5t127.5 89.5t47 200v994h202v-973q0 -100 -24.5 -189.5t-85.5 -158.5t-170 -108t-279 -39zM868 1591l-129 350h198l42 -350h-111z
M587 1591l-129 350h198l42 -350h-111z" />
    <glyph glyph-name="uni0215" unicode="&#x215;" horiz-adv-x="1224" 
d="M541 -22q-130 0 -210.5 43t-117.5 114t-37 155v770h188v-771q0 -52 26 -89.5t74.5 -57.5t113.5 -20q92 0 152.5 28t90 71.5t29.5 87.5v751h188v-1060h-168l-20 133q-40 -71 -116.5 -113t-192.5 -42zM703 1235l-129 350h198l42 -350h-111zM422 1235l-129 350h198l42 -350
h-111z" />
    <glyph glyph-name="uni0216" unicode="&#x216;" horiz-adv-x="1538" 
d="M779 -22q-177 0 -290.5 39t-176.5 107t-87.5 157.5t-24.5 191.5v973h202v-994q0 -133 52.5 -200t138.5 -89.5t186 -22.5q102 0 182.5 22.5t127.5 89.5t47 200v994h202v-973q0 -100 -24.5 -189.5t-85.5 -158.5t-170 -108t-279 -39zM468 1651q0 154 82.5 226t218.5 72
q135 0 218 -72t83 -226h-136q0 65 -40.5 104t-124.5 39q-85 0 -125.5 -39t-40.5 -104h-135z" />
    <glyph glyph-name="uni0217" unicode="&#x217;" horiz-adv-x="1224" 
d="M541 -22q-130 0 -210.5 43t-117.5 114t-37 155v770h188v-771q0 -52 26 -89.5t74.5 -57.5t113.5 -20q92 0 152.5 28t90 71.5t29.5 87.5v751h188v-1060h-168l-20 133q-40 -71 -116.5 -113t-192.5 -42zM303 1235q0 113 37.5 183t105.5 102.5t158 32.5t158 -32.5
t105.5 -102.5t37.5 -183h-136q0 77 -40.5 126.5t-124.5 49.5q-85 0 -125.5 -49.5t-40.5 -126.5h-135z" />
    <glyph glyph-name="uni0218" unicode="&#x218;" horiz-adv-x="1304" 
d="M691 -22q-161 0 -297 34.5t-250 100.5l71 154q83 -49 211 -88t261 -39q118 0 180.5 31t86.5 96.5t24 169.5q0 41 -13.5 73t-51 59t-111.5 51l-349 116q-100 33 -162 77.5t-91 111t-29 164.5q0 139 63.5 222t173.5 120t248 37q185 0 300 -28.5t185 -72.5l-49 -157
q-65 35 -162.5 65.5t-238.5 30.5q-157 0 -241 -41t-84 -177q0 -66 28.5 -107.5t120.5 -73.5l364 -123q148 -50 216.5 -132t68.5 -246q0 -133 -48 -229t-152.5 -147.5t-272.5 -51.5zM649 -574l-88 37q57 55 81 109t24 124v13.5t-1 13.5l39 -81h-154v233h234v-92
q0 -114 -33 -203t-102 -154z" />
    <glyph glyph-name="uni0219" unicode="&#x219;" horiz-adv-x="992" 
d="M142 64l46 138q35 -19 121 -49.5t194 -30.5q125 0 169 46t44 113q0 62 -16.5 98t-91.5 64l-252 92q-115 42 -161 99t-46 156q0 134 74 212t270 78q112 0 205.5 -17.5t151.5 -40.5l-43 -144q-30 13 -79 26t-102 22.5t-98 9.5q-129 0 -166.5 -32.5t-37.5 -104.5
q0 -49 18.5 -72.5t72.5 -44.5l249 -97q89 -34 134.5 -72.5t61.5 -92.5t16 -137t-34.5 -152.5t-111 -111t-202.5 -41.5q-148 0 -249 33t-137 53zM502 -574l-88 37q57 55 81 109t24 124v13.5t-1 13.5l39 -81h-154v233h234v-92q0 -114 -33 -203t-102 -154z" />
    <glyph glyph-name="uni021A" unicode="&#x21a;" horiz-adv-x="1204" 
d="M501 0v1281h-417v165h1036v-165h-418v-1281h-201zM584 -574l-88 37q57 55 81 109t24 124v13.5t-1 13.5l39 -81h-154v233h234v-92q0 -114 -33 -203t-102 -154z" />
    <glyph glyph-name="uni021B" unicode="&#x21b;" horiz-adv-x="832" 
d="M257 303v615h-177v142h184l23 328h158v-328h266v-142h-266v-603q0 -105 62 -135t196 -30h21l-20 -158h-28q-145 0 -237.5 29t-137 97.5t-44.5 184.5zM458 -574l-88 37q57 55 81 109t24 124v13.5t-1 13.5l39 -81h-154v233h234v-92q0 -114 -33 -203t-102 -154z" />
    <glyph glyph-name="uni021E" unicode="&#x21e;" horiz-adv-x="1528" 
d="M212 1446h201v-639h702v639h201v-1446h-201v659h-702v-659h-201v1446zM677 1635l-255 320h138l257 -230h-104l256 230h138l-255 -320h-175z" />
    <glyph glyph-name="uni021F" unicode="&#x21f;" horiz-adv-x="1224" 
d="M186 1505h188v-545q47 54 124 87t192 33q131 0 210 -41.5t114.5 -111.5t35.5 -154v-773h-188v783q0 53 -27.5 86.5t-77 50t-115.5 16.5q-92 0 -151.5 -23.5t-88 -63.5t-28.5 -91v-758h-188v1505zM565 1621l-255 340h138l257 -250h-104l256 250h138l-255 -340h-175z" />
    <glyph glyph-name="uni0220" unicode="&#x220;" horiz-adv-x="1490" 
d="M212 1446h196v-148l-21 8q51 51 112.5 86.5t142 54.5t187.5 19q165 0 263.5 -51.5t142 -138t43.5 -190.5v-1494h-201v1487q0 109 -88 167t-217 58q-178 0 -268.5 -63.5t-90.5 -147.5v-1093h-201v1446z" />
    <glyph glyph-name="uni0222" unicode="&#x222;" horiz-adv-x="1546" 
d="M782 -22q-181 0 -297.5 36t-181.5 100t-91 149t-26 183v45q0 100 25.5 188t90.5 155.5t181.5 105.5t298.5 38q175 0 288 -40t176 -110t88.5 -160t25.5 -190v-18q0 -96 -25.5 -183t-89 -154.5t-176.5 -106t-287 -38.5zM782 140q194 0 285.5 56.5t91.5 218.5v113
q0 163 -92.5 225.5t-284.5 62.5q-190 0 -292 -62.5t-102 -225.5v-113q0 -162 101 -218.5t293 -56.5zM1159 1253v252h200v-221q0 -91 -25.5 -175t-88.5 -150t-176 -104.5t-287 -38.5q-181 0 -297.5 36t-181.5 100t-90.5 149t-25.5 183v221h201v-252q0 -162 101 -218.5
t293 -56.5q194 0 285.5 56.5t91.5 218.5z" />
    <glyph glyph-name="uni0223" unicode="&#x223;" horiz-adv-x="1174" 
d="M587 -22q-159 0 -255.5 43.5t-140 119.5t-43.5 174v273q0 147 100 232.5t339 85.5q237 0 338 -85.5t101 -232.5v-273q0 -98 -44 -174t-140.5 -119.5t-254.5 -43.5zM587 122q110 0 180.5 39.5t70.5 137.5v305q0 98 -70.5 138t-180.5 40q-112 0 -181.5 -40t-69.5 -138v-305
q0 -98 69.5 -137.5t181.5 -39.5zM838 1505h188v-386q0 -98 -44 -169t-140.5 -109.5t-254.5 -38.5q-239 0 -339 85t-100 232v386h188v-402q0 -98 69.5 -142.5t181.5 -44.5q110 0 180.5 44.5t70.5 142.5v402z" />
    <glyph glyph-name="uni0226" unicode="&#x226;" horiz-adv-x="1428" 
d="M86 0l539 1446h177l540 -1446h-205l-433 1259l30 -1l-439 -1258h-209zM306 282l48 148h723l46 -148h-817zM617 1614v208h194v-208h-194z" />
    <glyph glyph-name="uni0227" unicode="&#x227;" horiz-adv-x="1172" 
d="M465 -22q-117 0 -190.5 40.5t-108 107t-34.5 142.5q0 80 31.5 134.5t119 99t256.5 93.5q88 26 141 46t77 51t24 89q0 43 -13.5 78t-55 56t-126.5 21q-106 0 -155 -22t-62.5 -57.5t-13.5 -78.5v-47h-181v48q0 157 105 229t313 72q140 0 222.5 -44.5t118.5 -125.5t36 -190
v-452q0 -84 21.5 -108t89.5 -24l-22 -144h-38q-106 0 -153 41.5t-71 116.5q-23 -36 -63.5 -76t-105 -68t-162.5 -28zM488 118q57 0 119 24.5t110.5 65t63.5 89.5v279q-22 -22 -76.5 -57.5t-155.5 -64.5q-123 -35 -180.5 -72t-57.5 -108q0 -80 41.5 -118t135.5 -38zM480 1297
v208h194v-208h-194z" />
    <glyph glyph-name="uni0228" unicode="&#x228;" horiz-adv-x="1255" 
d="M218 1446h903v-150h-702v-476h620v-150h-620v-520h714v-150h-915v1446zM528 -465v112h188q32 0 44 13.5t12 32.5v68q0 20 -14 33t-42 13h-100v223h101v-166l-15 46q115 0 161.5 -42t46.5 -130v-30q0 -71 -46 -122t-159 -51h-177z" />
    <glyph glyph-name="uni0229" unicode="&#x229;" horiz-adv-x="1138" 
d="M148 374v369q0 150 103 243.5t331 93.5q218 0 321 -85.5t103 -236.5v-252h-670v-149q0 -129 51.5 -182t201.5 -53q89 0 140.5 6.5t76 40t32.5 113.5h166q-13 -125 -54.5 -190.5t-127.5 -89.5t-233 -24q-158 0 -255 44t-141.5 132t-44.5 220zM824 633v145q0 64 -30.5 98
t-84.5 47t-127 13q-112 0 -179 -39t-67 -137v-127h488zM447 -465v112h188q32 0 44 13.5t12 32.5v68q0 20 -14 33t-42 13h-100v223h101v-166l-15 46q115 0 161.5 -42t46.5 -130v-30q0 -71 -46 -122t-159 -51h-177z" />
    <glyph glyph-name="uni022A" unicode="&#x22a;" horiz-adv-x="1546" 
d="M782 -22q-181 0 -297.5 37t-181.5 104.5t-91 160.5t-26 206v455q0 115 25.5 211t90.5 167t181.5 110t298.5 39q175 0 288 -41t176 -114.5t88.5 -171.5t25.5 -213v-428q0 -111 -25.5 -206.5t-89 -166t-176.5 -110t-287 -39.5zM782 140q129 0 212.5 25.5t124 93.5t40.5 196
v523q0 129 -41 200t-124.5 99.5t-211.5 28.5q-127 0 -215 -28.5t-133.5 -99.5t-45.5 -200v-523q0 -128 45 -196t133 -93.5t216 -25.5zM852 1629v181h206v-181h-206zM488 1629v181h206v-181h-206zM521 1952v155h504v-155h-504z" />
    <glyph glyph-name="uni022B" unicode="&#x22b;" horiz-adv-x="1174" 
d="M587 -22q-159 0 -255.5 43.5t-140 119.5t-43.5 174v427q0 98 43.5 174.5t140 120t255.5 43.5q158 0 254.5 -43.5t140.5 -120t44 -174.5v-427q0 -98 -44 -174t-140.5 -119.5t-254.5 -43.5zM587 122q110 0 180.5 39.5t70.5 137.5v459q0 98 -70.5 138t-180.5 40
q-112 0 -181.5 -40t-69.5 -138v-459q0 -98 69.5 -137.5t181.5 -39.5zM664 1182v181h206v-181h-206zM300 1182v181h206v-181h-206zM333 1488v155h504v-155h-504z" />
    <glyph glyph-name="uni022C" unicode="&#x22c;" horiz-adv-x="1546" 
d="M782 -22q-181 0 -297.5 37t-181.5 104.5t-91 160.5t-26 206v455q0 115 25.5 211t90.5 167t181.5 110t298.5 39q175 0 288 -41t176 -114.5t88.5 -171.5t25.5 -213v-428q0 -111 -25.5 -206.5t-89 -166t-176.5 -110t-287 -39.5zM782 140q129 0 212.5 25.5t124 93.5t40.5 196
v523q0 129 -41 200t-124.5 99.5t-211.5 28.5q-127 0 -215 -28.5t-133.5 -99.5t-45.5 -200v-523q0 -128 45 -196t133 -93.5t216 -25.5zM883 1602q-51 0 -85.5 16t-59 37.5t-46.5 37.5t-49 16q-31 0 -50.5 -23t-19.5 -70h-97q0 124 48 176.5t138 52.5q51 0 85.5 -16
t59.5 -37.5t46.5 -37.5t48.5 -16q31 0 50.5 23.5t19.5 69.5h97q0 -124 -48 -176.5t-138 -52.5zM521 1977v155h504v-155h-504z" />
    <glyph glyph-name="uni022D" unicode="&#x22d;" horiz-adv-x="1174" 
d="M587 -22q-159 0 -255.5 43.5t-140 119.5t-43.5 174v427q0 98 43.5 174.5t140 120t255.5 43.5q158 0 254.5 -43.5t140.5 -120t44 -174.5v-427q0 -98 -44 -174t-140.5 -119.5t-254.5 -43.5zM587 122q110 0 180.5 39.5t70.5 137.5v459q0 98 -70.5 138t-180.5 40
q-112 0 -181.5 -40t-69.5 -138v-459q0 -98 69.5 -137.5t181.5 -39.5zM695 1223q-51 0 -85.5 16t-59 37.5t-46.5 37.5t-49 16q-31 0 -50.5 -23t-19.5 -70h-97q0 124 48 176.5t138 52.5q51 0 85.5 -16t59.5 -37.5t46.5 -37.5t48.5 -16q31 0 50.5 23.5t19.5 69.5h97
q0 -124 -48 -176.5t-138 -52.5zM333 1606v155h504v-155h-504z" />
    <glyph glyph-name="uni022E" unicode="&#x22e;" horiz-adv-x="1546" 
d="M782 -22q-181 0 -297.5 37t-181.5 104.5t-91 160.5t-26 206v455q0 115 25.5 211t90.5 167t181.5 110t298.5 39q175 0 288 -41t176 -114.5t88.5 -171.5t25.5 -213v-428q0 -111 -25.5 -206.5t-89 -166t-176.5 -110t-287 -39.5zM782 140q129 0 212.5 25.5t124 93.5t40.5 196
v523q0 129 -41 200t-124.5 99.5t-211.5 28.5q-127 0 -215 -28.5t-133.5 -99.5t-45.5 -200v-523q0 -128 45 -196t133 -93.5t216 -25.5zM676 1614v208h194v-208h-194z" />
    <glyph glyph-name="uni022F" unicode="&#x22f;" horiz-adv-x="1174" 
d="M587 -22q-159 0 -255.5 43.5t-140 119.5t-43.5 174v427q0 98 43.5 174.5t140 120t255.5 43.5q158 0 254.5 -43.5t140.5 -120t44 -174.5v-427q0 -98 -44 -174t-140.5 -119.5t-254.5 -43.5zM587 122q110 0 180.5 39.5t70.5 137.5v459q0 98 -70.5 138t-180.5 40
q-112 0 -181.5 -40t-69.5 -138v-459q0 -98 69.5 -137.5t181.5 -39.5zM488 1297v208h194v-208h-194z" />
    <glyph glyph-name="uni0230" unicode="&#x230;" horiz-adv-x="1546" 
d="M782 -22q-181 0 -297.5 37t-181.5 104.5t-91 160.5t-26 206v455q0 115 25.5 211t90.5 167t181.5 110t298.5 39q175 0 288 -41t176 -114.5t88.5 -171.5t25.5 -213v-428q0 -111 -25.5 -206.5t-89 -166t-176.5 -110t-287 -39.5zM782 140q129 0 212.5 25.5t124 93.5t40.5 196
v523q0 129 -41 200t-124.5 99.5t-211.5 28.5q-127 0 -215 -28.5t-133.5 -99.5t-45.5 -200v-523q0 -128 45 -196t133 -93.5t216 -25.5zM676 1598v208h194v-208h-194zM521 1934v155h504v-155h-504z" />
    <glyph glyph-name="uni0231" unicode="&#x231;" horiz-adv-x="1174" 
d="M587 -22q-159 0 -255.5 43.5t-140 119.5t-43.5 174v427q0 98 43.5 174.5t140 120t255.5 43.5q158 0 254.5 -43.5t140.5 -120t44 -174.5v-427q0 -98 -44 -174t-140.5 -119.5t-254.5 -43.5zM587 122q110 0 180.5 39.5t70.5 137.5v459q0 98 -70.5 138t-180.5 40
q-112 0 -181.5 -40t-69.5 -138v-459q0 -98 69.5 -137.5t181.5 -39.5zM488 1187v208h194v-208h-194zM333 1500v155h504v-155h-504z" />
    <glyph glyph-name="uni0232" unicode="&#x232;" horiz-adv-x="1318" 
d="M560 568l-512 878h213l422 -741h-44l424 741h207l-509 -878v-568h-201v568zM407 1658v155h504v-155h-504z" />
    <glyph glyph-name="uni0233" unicode="&#x233;" horiz-adv-x="1118" 
d="M198 -406v147q111 0 181 45t118 160l33 79v-69l-454 1104h194l351 -902h-40l291 902h188l-404 -1158q-54 -155 -157 -231.5t-301 -76.5zM312 1305v155h504v-155h-504z" />
    <glyph glyph-name="uni0237" unicode="&#x237;" horiz-adv-x="602" 
d="M13 -197h29q67 0 108.5 13t61.5 54t20 126v1064h188v-1053q0 -156 -37.5 -233t-109.5 -102t-175 -25h-66z" />
    <glyph glyph-name="uni023A" unicode="&#x23a;" horiz-adv-x="1428" 
d="M386 -207l678 1833l104 -38l-679 -1833zM86 0l539 1446h177l540 -1446h-205l-433 1259l30 -1l-439 -1258h-209zM306 282l48 148h723l46 -148h-817z" />
    <glyph glyph-name="uni023B" unicode="&#x23b;" horiz-adv-x="1456" 
d="M336 -157l678 1833l104 -38l-679 -1833zM761 -22q-181 0 -295 37t-175.5 104.5t-85 160.5t-23.5 206v454q0 115 22.5 211.5t84 167.5t175 110t295.5 39q164 0 270 -29.5t165 -87.5t82.5 -143.5t23.5 -197.5v-13l-191 -17v27q0 131 -33.5 195t-110.5 84t-206 20
q-127 0 -210 -28.5t-124 -100t-41 -200.5v-522q0 -128 42 -196t126.5 -93.5t212.5 -25.5q126 0 201.5 17t109 77.5t33.5 189.5v24h191v-10q0 -109 -20.5 -194.5t-76.5 -144.5t-162.5 -90t-279.5 -31z" />
    <glyph glyph-name="uni023C" unicode="&#x23c;" horiz-adv-x="1106" 
d="M241 -195l540 1446l90 -31l-538 -1446zM579 -22q-158 0 -252.5 50.5t-136.5 134t-42 181.5v404q0 150 114.5 241t311.5 91q127 0 221 -29.5t145.5 -106.5t51.5 -220l-179 -17q0 97 -22 146t-73 66t-139 17q-121 0 -182 -43.5t-61 -149.5v-415q0 -114 64.5 -160t178.5 -46
q93 0 141.5 13.5t68.5 54t27 120.5h174q-10 -122 -52 -195t-128.5 -105t-230.5 -32z" />
    <glyph glyph-name="uni023D" unicode="&#x23d;" horiz-adv-x="1145" 
d="M30 858h671v-144h-671v144zM218 1446h201v-1291h649v-155h-850v1446z" />
    <glyph glyph-name="uni023E" unicode="&#x23e;" horiz-adv-x="1204" 
d="M296 -207l678 1833l104 -38l-679 -1833zM501 0v1281h-417v165h1036v-165h-418v-1281h-201z" />
    <glyph glyph-name="uni0241" unicode="&#x241;" horiz-adv-x="1240" 
d="M530 0v461l270 304q71 80 97 155t26 163q0 60 -23.5 110.5t-83 81.5t-169.5 31q-177 0 -244 -67t-67 -167v-53h-197v32q0 152 52 243.5t163.5 132.5t292.5 41q146 0 241 -35t149 -91t76.5 -121.5t22.5 -126.5q0 -137 -62 -244.5t-179 -228.5l-207 -214l30 79v-486h-188z
" />
    <glyph glyph-name="uni0242" unicode="&#x242;" horiz-adv-x="1200" 
d="M490 0v153l270 264q77 75 100 142.5t23 155.5q0 60 -19 105.5t-68 71.5t-139 26q-108 0 -169 -26t-86.5 -73.5t-25.5 -114.5v-53h-197v32q0 114 27 190.5t84 122t148 65t219 19.5q131 0 216 -32t134 -84t69 -114.5t20 -123.5q0 -137 -56 -241t-185 -212l-207 -174l30 79
v-178h-188z" />
    <glyph glyph-name="uni0243" unicode="&#x243;" horiz-adv-x="1420" 
d="M30 498h671v-144h-671v144zM218 0v1446h524q201 0 304 -46.5t139.5 -135.5t36.5 -215q0 -103 -48 -180t-170 -106l3 16q96 -13 159 -63.5t94.5 -128.5t31.5 -176q0 -215 -121 -313t-385 -98h-568zM420 149h351q112 0 183.5 22t105.5 83t34 179q0 66 -22.5 126.5
t-81.5 98.5t-170 38h-400v-547zM420 833h371q91 0 141 26.5t69.5 74.5t19.5 113q0 105 -26.5 158t-94 71.5t-189.5 18.5h-291v-462z" />
    <glyph glyph-name="uni0244" unicode="&#x244;" horiz-adv-x="1538" 
d="M85 913h1368v-144h-1368v144zM779 -22q-177 0 -290.5 39t-176.5 107t-87.5 157.5t-24.5 191.5v973h202v-994q0 -133 52.5 -200t138.5 -89.5t186 -22.5q102 0 182.5 22.5t127.5 89.5t47 200v994h202v-973q0 -100 -24.5 -189.5t-85.5 -158.5t-170 -108t-279 -39z" />
    <glyph glyph-name="uni0245" unicode="&#x245;" horiz-adv-x="1386" 
d="M1300 0h-207l-399 1152l-399 -1152h-209l521 1446h177z" />
    <glyph glyph-name="uni0246" unicode="&#x246;" horiz-adv-x="1295" 
d="M218 1446h943v-150h-742v-476h660v-150h-660v-520h754v-150h-955v1446zM436 -188l515 1885l107 -28l-516 -1886z" />
    <glyph glyph-name="uni0247" unicode="&#x247;" horiz-adv-x="1138" 
d="M240 -195l540 1446l90 -31l-538 -1446zM148 374v369q0 150 103 243.5t331 93.5q218 0 321 -85.5t103 -236.5v-252h-670v-149q0 -129 51.5 -182t201.5 -53q89 0 140.5 6.5t76 40t32.5 113.5h166q-13 -125 -54.5 -190.5t-127.5 -89.5t-233 -24q-158 0 -255 44t-141.5 132
t-44.5 220zM824 633v145q0 64 -30.5 98t-84.5 47t-127 13q-112 0 -179 -39t-67 -137v-127h488z" />
    <glyph glyph-name="uni0248" unicode="&#x248;" horiz-adv-x="1206" 
d="M1156 838v-144h-691v144h691zM102 70l55 155q24 -11 81 -29.5t131 -33t147 -14.5q143 0 207 73.5t64 213.5v846h-553v165h754v-1015q0 -205 -111 -326.5t-355 -121.5q-84 0 -168.5 14.5t-151.5 35t-100 37.5z" />
    <glyph glyph-name="uni0249" unicode="&#x249;" horiz-adv-x="602" 
d="M82 666h488v-147h-488v147zM13 -197h29q67 0 108.5 13t61.5 54t20 126v1064h188v-1053q0 -156 -37.5 -233t-109.5 -102t-175 -25h-66zM229 1297v208h194v-208h-194z" />
    <glyph glyph-name="uni024A" unicode="&#x24a;" horiz-adv-x="1546" 
d="M721 -22q-268 0 -401.5 118t-133.5 341v558q0 145 63 252.5t186.5 166.5t305.5 59q167 0 268 -50.5t144 -111.5l-10 -25v160h192v-1523q0 -76 10.5 -114.5t41.5 -51.5t93 -13l-24 -152h-52q-143 0 -203.5 73t-60.5 218v302l73 -26q-124 -102 -239 -141.5t-253 -39.5z
M764 141q158 0 245.5 40.5t123.5 73.5v801q0 66 -35 123t-116.5 92t-220.5 35q-193 0 -283 -79t-90 -211v-597q0 -141 91.5 -209.5t284.5 -68.5z" />
    <glyph glyph-name="uni024B" unicode="&#x24b;" horiz-adv-x="1200" 
d="M1050 -408q-106 0 -165 61.5t-59 166.5v227q-49 -37 -123.5 -53t-129.5 -16q-135 0 -230 41.5t-145 117t-50 177.5v414q0 160 102.5 256t309.5 96q54 0 110 -16t98.5 -40t57.5 -49v85h188v-1192q0 -84 21.5 -108t89.5 -24l-22 -144h-53zM585 122q105 0 169.5 31.5
t71.5 47.5v609q0 44 -56.5 85t-181.5 41q-111 0 -181.5 -45t-70.5 -143v-464q0 -95 73 -128.5t176 -33.5z" />
    <glyph glyph-name="uni024C" unicode="&#x24c;" horiz-adv-x="1464" 
d="M30 747h671v-144h-671v144zM218 0v1446h645q122 0 212.5 -39.5t141 -133t50.5 -255.5q0 -117 -26 -192t-71.5 -119.5t-106.5 -70.5l307 -636h-207l-287 600h-456v-600h-202zM420 752h426q88 0 135 33t65.5 89.5t18.5 125.5q0 70 -11.5 137t-52.5 111.5t-132 44.5h-449
v-541z" />
    <glyph glyph-name="uni024D" unicode="&#x24d;" horiz-adv-x="798" 
d="M30 545h661v-144h-661v144zM186 1060h188v-150q23 60 83.5 96.5t137.5 52.5t147 16l-6 -161q-68 0 -132.5 -14t-116.5 -38.5t-82.5 -55.5t-30.5 -64v-742h-188v1060z" />
    <glyph glyph-name="uni024E" unicode="&#x24e;" horiz-adv-x="1318" 
d="M30 1222h1258v-144h-1258v144zM560 568l-512 878h213l422 -741h-44l424 741h207l-509 -878v-568h-201v568z" />
    <glyph glyph-name="uni024F" unicode="&#x24f;" horiz-adv-x="1104" 
d="M30 789h1063v-144h-1063v144zM198 -406v147q111 0 181 45t118 160l33 79v-69l-454 1104h194l351 -902h-40l291 902h188l-404 -1158q-54 -155 -157 -231.5t-301 -76.5z" />
    <glyph glyph-name="uni0251" unicode="&#x251;" horiz-adv-x="1213" 
d="M550 -22q-203 0 -302.5 87t-99.5 252v411q0 160 97.5 256t304.5 96q65 0 132 -21.5t116 -58.5t58 -84l-34 -31v175h188v-792q0 -84 21.5 -108t89.5 -24l-22 -144h-38q-106 0 -153 41.5t-71 116.5l83 -16q-91 -92 -177 -124t-193 -32zM579 122q105 0 163 31t80 49v588
q0 69 -59.5 107.5t-184.5 38.5q-111 0 -176.5 -45t-65.5 -143v-460q0 -95 70 -130.5t173 -35.5z" />
    <glyph glyph-name="uni0253" unicode="&#x253;" horiz-adv-x="1204" 
d="M626 -22q-94 0 -164.5 33.5t-112.5 59.5l-24 -71h-139v1145q0 201 73 280.5t239 79.5h56l13 -142h-33q-51 0 -87 -14t-54.5 -56t-18.5 -127v-156q51 29 126.5 49.5t149.5 20.5q136 0 226 -43.5t135 -121t45 -179.5v-384q0 -106 -50 -191t-146 -134t-234 -49zM598 126
q111 0 190.5 54.5t79.5 151.5v418q0 95 -61.5 140.5t-165.5 45.5q-66 0 -140 -21t-127 -45v-682q41 -23 99 -42.5t125 -19.5z" />
    <glyph glyph-name="uni0254" unicode="&#x254;" horiz-adv-x="1106" 
d="M527 -22q-144 0 -230.5 32t-128 105t-52.5 195h174q7 -80 27 -120.5t68.5 -54t141.5 -13.5q114 0 178.5 46t64.5 160v415q0 106 -60.5 149.5t-182.5 43.5q-88 0 -139 -17t-73 -66t-22 -146l-179 17q0 143 51.5 220t145.5 106.5t221 29.5q197 0 311.5 -91t114.5 -241v-404
q0 -98 -42 -181.5t-136.5 -134t-252.5 -50.5z" />
    <glyph glyph-name="uni0256" unicode="&#x256;" horiz-adv-x="1200" 
d="M1050 -408q-106 0 -165 61.5t-59 166.5v291l46 -17q-42 -47 -128 -81.5t-176 -34.5q-152 0 -244.5 47t-134 127.5t-41.5 182.5v400q0 160 106 252.5t337 92.5q50 0 118 -11t117 -29v465h188v-1637q0 -84 21.5 -108t89.5 -24l-22 -144h-53zM580 126q80 0 147 22t99 41v703
q-42 20 -104.5 32t-128.5 12q-111 0 -184 -41t-73 -139v-435q0 -99 70.5 -147t173.5 -48z" />
    <glyph glyph-name="uni0257" unicode="&#x257;" horiz-adv-x="1200" 
d="M568 -22q-152 0 -244.5 47t-134 127.5t-41.5 182.5v400q0 160 106 252.5t337 92.5q50 0 118 -11t117 -29v125q0 186 70.5 263t221.5 77h56l13 -142h-33q-75 0 -107.5 -42t-32.5 -155v-1166h-128l-31 70q-46 -36 -125.5 -64t-161.5 -28zM580 126q80 0 147 22t99 41v703
q-42 20 -104.5 32t-128.5 12q-111 0 -184 -41t-73 -139v-435q0 -99 70.5 -147t173.5 -48z" />
    <glyph glyph-name="uni0259" unicode="&#x259;" horiz-adv-x="1138" 
d="M556 -20q-218 0 -321 85.5t-103 236.5v252h670v149q0 129 -51.5 182t-201.5 53q-88 0 -140 -6.5t-76.5 -40t-32.5 -113.5h-166q13 125 54.5 190.5t127.5 89.5t233 24q158 0 255 -44t141.5 -132t44.5 -220v-369q0 -150 -103 -243.5t-331 -93.5zM556 124q113 0 179.5 39
t66.5 137v127h-488v-145q0 -64 30.5 -98t85 -47t126.5 -13z" />
    <glyph glyph-name="uni025B" unicode="&#x25b;" horiz-adv-x="1092" 
d="M540 -22q-132 0 -225 35t-142 104t-49 171q0 97 33 159t96 91.5t152 29.5v-9q-92 0 -148 28.5t-81 83t-25 130.5q0 146 109.5 212.5t283.5 66.5q120 0 216 -25t152.5 -95.5t56.5 -207.5l-180 -17q0 71 -19 115.5t-71.5 65t-155.5 20.5q-112 0 -159.5 -40t-47.5 -97
q0 -65 22 -101t84.5 -50t183.5 -14v-129q-130 0 -197.5 -18.5t-92 -59.5t-24.5 -109q0 -97 57.5 -146.5t170.5 -49.5q93 0 146.5 15.5t79 56.5t32.5 118h180q-15 -125 -61 -198.5t-136.5 -104.5t-240.5 -31z" />
    <glyph glyph-name="uni0260" unicode="&#x260;" horiz-adv-x="1182" 
d="M573 -424q-107 0 -184 9t-136 31l42 141q43 -16 119 -27t150 -11q137 0 197.5 58t60.5 176v147q-30 -28 -80.5 -44.5t-102.5 -24t-89 -7.5q-203 0 -302.5 87t-99.5 252v365q0 107 43 186t132 122.5t227 43.5q69 0 139.5 -23.5t118 -62t47.5 -83.5l-33 -26v280
q0 186 70.5 263t221.5 77h56l13 -142h-33q-75 0 -107.5 -42t-32.5 -155v-1157q0 -124 -40.5 -222t-136 -154.5t-260.5 -56.5zM579 168q105 0 163 31t80 49v542q0 69 -59.5 107.5t-184.5 38.5q-111 0 -176.5 -45t-65.5 -143v-414q0 -95 70 -130.5t173 -35.5z" />
    <glyph glyph-name="uni0263" unicode="&#x263;" horiz-adv-x="1064" 
d="M532 -418q-157 0 -230.5 78.5t-73.5 217.5q0 93 42.5 194.5t107.5 216.5l438 771h204l-498 -858q-61 -105 -83.5 -177.5t-22.5 -146.5q0 -73 26.5 -106t89.5 -33t89.5 33t26.5 106q0 74 -22.5 146.5t-83.5 177.5l-498 858h204l438 -771q65 -115 107.5 -216.5t42.5 -194.5
q0 -139 -73.5 -217.5t-230.5 -78.5z" />
    <glyph glyph-name="uni0265" unicode="&#x265;" horiz-adv-x="1224" 
d="M850 -408v508q-46 -54 -123 -87t-193 -33q-130 0 -209.5 42t-115 111.5t-35.5 153.5v773h188v-783q0 -52 27.5 -86t77.5 -50.5t115 -16.5q92 0 151.5 23t88 63.5t28.5 91.5v758h188v-1468h-188z" />
    <glyph glyph-name="uni0266" unicode="&#x266;" horiz-adv-x="1224" 
d="M186 0v1145q0 201 73 280.5t239 79.5h56l13 -142h-33q-51 0 -87 -14t-54.5 -56t-18.5 -127v-206q47 54 124 87t192 33q131 0 210 -41.5t114.5 -111.5t35.5 -154v-773h-188v783q0 53 -27.5 86.5t-77 50t-115.5 16.5q-92 0 -151.5 -23.5t-88 -63.5t-28.5 -91v-758h-188z
" />
    <glyph glyph-name="uni0268" unicode="&#x268;" horiz-adv-x="560" 
d="M36 666h488v-147h-488v147zM186 1060h188v-1060h-188v1060zM183 1297v208h194v-208h-194z" />
    <glyph glyph-name="uni0269" unicode="&#x269;" horiz-adv-x="570" 
d="M196 1060h188v-784q0 -84 21.5 -108t89.5 -24l-22 -144h-53q-106 0 -165 61.5t-59 166.5v832z" />
    <glyph glyph-name="uni026A" unicode="&#x26a;" horiz-adv-x="798" 
d="M305 918h-217v142h622v-142h-217v-776h217v-142h-622v142h217v776z" />
    <glyph glyph-name="uni026B" unicode="&#x26b;" horiz-adv-x="696" 
d="M190 358v1147h188v-1149q0 -86 16 -130.5t58 -60t121 -15.5h33l-22 -158h-54q-116 0 -191.5 27t-112 106t-36.5 233zM395 661q-51 0 -85.5 16t-59.5 37.5t-47 37.5t-49 16q-31 0 -50.5 -23t-19.5 -70h-97q0 124 48 176.5t138 52.5q51 0 85.5 -16t59.5 -37.5t47 -37.5
t49 -16q31 0 50.5 23.5t19.5 69.5h97q0 -124 -48 -176.5t-138 -52.5z" />
    <glyph glyph-name="uni026C" unicode="&#x26c;" horiz-adv-x="794" 
d="M410 777h-118q0 133 -106 133q-56 0 -81.5 -22.5t-25.5 -73.5q0 -48 22.5 -77.5t92.5 -29.5h502l12 -133h-510q-144 0 -206 70.5t-62 174.5t63.5 166t179.5 62q114 0 175.5 -69.5t61.5 -200.5zM292 358v1147h188v-1149q0 -86 16 -130.5t58.5 -60t120.5 -15.5h33l-22 -158
h-54q-116 0 -191.5 27t-112 106t-36.5 233z" />
    <glyph glyph-name="uni026F" unicode="&#x26f;" horiz-adv-x="1860" 
d="M524 -20q-130 0 -206.5 42.5t-109 113t-32.5 154.5v770h188v-781q0 -79 55 -117t153 -38q92 0 148.5 24t82 65t25.5 92v755h188v-781q0 -79 58 -117t156 -38q92 0 148.5 24t82 65t25.5 92v755h188v-1060h-188v103q-31 -36 -72.5 -64t-98 -43.5t-133.5 -15.5
q-123 0 -198 38.5t-113 100.5q-69 -67 -150 -103t-197 -36z" />
    <glyph glyph-name="uni0272" unicode="&#x272;" horiz-adv-x="1224" 
d="M5 -316l-28 141q78 0 121 17t61.5 59.5t22.5 118t4 192.5v848h188v-103q31 36 75 64t103 43.5t136 15.5q131 0 210.5 -42.5t115.5 -113t36 -154.5v-770h-188v781q0 53 -28 87t-78 51t-116 17q-92 0 -151 -24t-87 -65t-28 -92v-536q0 -190 -28.5 -308t-108 -172.5
t-232.5 -54.5z" />
    <glyph glyph-name="uni0275" unicode="&#x275;" horiz-adv-x="1174" 
d="M270 611h671v-144h-671v144zM587 -22q-159 0 -255.5 43.5t-140 119.5t-43.5 174v427q0 98 43.5 174.5t140 120t255.5 43.5q158 0 254.5 -43.5t140.5 -120t44 -174.5v-427q0 -98 -44 -174t-140.5 -119.5t-254.5 -43.5zM587 122q110 0 180.5 39.5t70.5 137.5v459
q0 98 -70.5 138t-180.5 40q-112 0 -181.5 -40t-69.5 -138v-459q0 -98 69.5 -137.5t181.5 -39.5z" />
    <glyph glyph-name="uni027D" unicode="&#x27d;" horiz-adv-x="798" 
d="M410 -408q-106 0 -165 61.5t-59 166.5v1240h188v-170q26 69 86.5 109.5t136 58t145.5 17.5l-6 -161q-68 0 -132.5 -15t-116.5 -41.5t-82.5 -61t-30.5 -74.5v-854q0 -84 21.5 -108t89.5 -24l-22 -144h-53z" />
    <glyph glyph-name="uni027E" unicode="&#x27e;" horiz-adv-x="722" 
d="M160 0v696q0 179 87.5 271.5t288.5 92.5h129l-5 -153h-119q-101 0 -147 -50.5t-46 -152.5v-704h-188z" />
    <glyph glyph-name="uni0283" unicode="&#x283;" horiz-adv-x="746" 
d="M22 -408l-12 133h116q86 0 119.5 38t33.5 95v1363q0 149 81.5 216.5t244.5 67.5h119l12 -133h-116q-86 0 -119.5 -38t-33.5 -95v-1363q0 -148 -81 -216t-245 -68h-119z" />
    <glyph glyph-name="uni0288" unicode="&#x288;" horiz-adv-x="809" 
d="M481 -408q-106 0 -165 61.5t-59 166.5v1098h-177v142h184l23 328h158v-328h266v-142h-266v-1050q0 -84 21.5 -108t89.5 -24l-22 -144h-53z" />
    <glyph glyph-name="uni0289" unicode="&#x289;" horiz-adv-x="1222" 
d="M30 679h1150v-144h-1150v144zM541 -22q-130 0 -210.5 43t-117.5 114t-37 155v770h188v-771q0 -52 26 -89.5t74.5 -57.5t113.5 -20q92 0 152.5 28t90 71.5t29.5 87.5v751h188v-1060h-168l-20 133q-40 -71 -116.5 -113t-192.5 -42z" />
    <glyph glyph-name="uni028A" unicode="&#x28a;" horiz-adv-x="1174" 
d="M588 -22q-155 0 -252.5 46t-142.5 153.5t-45 290.5q0 212 69.5 335t184.5 164l-16 -49h-223v142h355v-113q-61 -30 -101.5 -84.5t-60.5 -145.5t-20 -233q0 -162 23.5 -239t78.5 -100t150 -23t150 23t78.5 100t23.5 239q0 142 -20 233t-60 145.5t-102 84.5v113h355v-142
h-223l-16 49q116 -41 185 -164t69 -335q0 -183 -45 -290.5t-142 -153.5t-253 -46z" />
    <glyph glyph-name="uni028B" unicode="&#x28b;" horiz-adv-x="1174" 
d="M552 -22q-154 0 -242.5 37t-125 109.5t-36.5 180.5v755h188v-771q0 -91 48 -129t168 -38q125 0 205.5 55.5t80.5 191.5v389q0 98 -48 138t-143 40v144q207 0 293 -90.5t86 -237.5v-367q0 -184 -114.5 -295.5t-359.5 -111.5z" />
    <glyph glyph-name="uni028C" unicode="&#x28c;" horiz-adv-x="1104" 
d="M1040 0h-189l-313 902l30 1l-320 -903h-184l397 1060h190z" />
    <glyph glyph-name="uni0292" unicode="&#x292;" horiz-adv-x="1090" 
d="M531 -406q-154 0 -247 42.5t-140 141.5t-64 269h184q8 -121 37 -183.5t87 -85t153 -22.5q125 0 180 68.5t55 210.5q0 155 -61.5 223.5t-227.5 68.5h-64v148l319 487l20 -38h-642v136h801v-125l-341 -520l-23 60q130 0 219 -47t135.5 -144.5t46.5 -249.5
q0 -148 -50.5 -245.5t-145.5 -146t-231 -48.5z" />
    <glyph glyph-name="uni0294" unicode="&#x294;" horiz-adv-x="1240" 
d="M490 0v461l270 324q69 83 96 156.5t27 161.5q0 60 -19 105.5t-68 71.5t-139 26q-108 0 -169 -26t-86.5 -73.5t-25.5 -114.5v-53h-197v32q0 114 27 190.5t84 122t148 65t219 19.5q131 0 216 -32t134 -84t69 -114.5t20 -123.5q0 -91 -29 -167t-83 -149t-129 -157l-207 -234
l30 79v-486h-188z" />
    <glyph glyph-name="uni0295" unicode="&#x295;" horiz-adv-x="1240" 
d="M750 0h-188v486l30 -79l-207 234q-74 84 -128.5 157t-83.5 149t-29 167q0 61 20 123.5t69 114.5t134.5 84t215.5 32q128 0 219 -19.5t148 -65t84 -122t27 -190.5v-32h-197v53q0 67 -25 114.5t-86.5 73.5t-169.5 26q-89 0 -138.5 -26t-68.5 -71.5t-19 -105.5
q0 -88 27 -161.5t96 -156.5l270 -324v-461z" />
    <glyph glyph-name="uni0298" unicode="&#x298;" horiz-adv-x="1526" 
d="M772 -22q-172 0 -283.5 37t-174.5 104.5t-88.5 160.5t-25.5 206v455q0 115 25 211t88 167t174.5 110t284.5 39q167 0 275 -41t169 -114.5t86 -171.5t25 -213v-428q0 -111 -25 -206.5t-86.5 -166t-169.5 -110t-274 -39.5zM772 129q124 0 205.5 28t121.5 99t40 199v523
q0 193 -91 266t-276 73q-122 0 -208 -31t-131 -105t-45 -203v-523q0 -128 44.5 -199t130.5 -99t209 -28zM661 620v206h205v-206h-205z" />
    <glyph glyph-name="uni029D" unicode="&#x29d;" horiz-adv-x="717" 
d="M258 -353q-146 0 -209.5 74.5t-63.5 193.5t67 192t211 73h368l12 -133h-384q-70 0 -97.5 -32.5t-27.5 -97.5q0 -66 25.5 -89.5t81.5 -23.5q106 0 106 134v1122h188v-1081q0 -108 -29 -182t-90.5 -112t-157.5 -38zM344 1298v208h194v-208h-194z" />
    <glyph glyph-name="uni02B0" unicode="&#x2b0;" horiz-adv-x="857" 
d="M130 640v1053h142v-426l-25 26q31 45 88 74t148 29q137 0 194.5 -63t57.5 -152v-541h-142v538q0 55 -37.5 81t-106.5 26q-96 0 -136.5 -35.5t-40.5 -89.5v-520h-142z" />
    <glyph glyph-name="uni02B7" unicode="&#x2b7;" horiz-adv-x="1130" 
d="M250 644l-214 742h131l173 -613h-38l188 613h147l196 -613h-39l168 613h131l-217 -742h-122l-200 621h20l-199 -621h-125z" />
    <glyph glyph-name="uni02B9" unicode="&#x2b9;" horiz-adv-x="609" 
d="M130 1035l135 470h225l-232 -470h-128z" />
    <glyph glyph-name="uni02BA" unicode="&#x2ba;" horiz-adv-x="919" 
d="M440 1035l135 470h225l-232 -470h-128zM130 1035l135 470h225l-232 -470h-128z" />
    <glyph glyph-name="uni02BB" unicode="&#x2bb;" horiz-adv-x="337" 
d="M40 1213v163q0 143 42.5 228t123.5 143l87 -47q-67 -56 -102 -113t-35 -141h141v-233h-257z" />
    <glyph glyph-name="uni02BC" unicode="&#x2bc;" horiz-adv-x="337" 
d="M131 912l-87 47q67 56 102 113t35 141h-141v233h257v-163q0 -143 -42.5 -227.5t-123.5 -143.5z" />
    <glyph glyph-name="uni02BE" unicode="&#x2be;" horiz-adv-x="358" 
d="M62 1132v103q44 0 79.5 25.5t35.5 98.5q0 71 -35 96.5t-79 25.5l-1 101q107 0 170.5 -58t63.5 -166q0 -109 -63.5 -167.5t-170.5 -58.5z" />
    <glyph glyph-name="uni02BF" unicode="&#x2bf;" horiz-adv-x="358" 
d="M296 1132q-106 0 -170 58.5t-64 167.5q0 108 64 166t170 58l-1 -101q-43 0 -78.5 -25.5t-35.5 -96.5q0 -73 35.5 -98.5t79.5 -25.5v-103z" />
    <glyph glyph-name="uni02C0" unicode="&#x2c0;" horiz-adv-x="789" 
d="M303 664v264l154 186q40 48 55.5 90.5t15.5 92.5q0 40 -24.5 66t-90.5 26t-96 -26.5t-30 -72.5v-31h-138v19q0 87 27.5 139t88 75t158.5 23q100 0 154.5 -33.5t76 -82.5t21.5 -96q0 -79 -37 -139t-101 -132l-119 -134l18 44v-278h-133z" />
    <glyph glyph-name="circumflex" unicode="&#x2c6;" horiz-adv-x="805" 
d="M60 1235l255 340h175l255 -340h-138l-256 250h104l-257 -250h-138z" />
    <glyph glyph-name="caron" unicode="&#x2c7;" horiz-adv-x="805" 
d="M315 1235l-255 340h138l257 -250h-104l256 250h138l-255 -340h-175z" />
    <glyph glyph-name="uni02C8" unicode="&#x2c8;" horiz-adv-x="510" 
d="M170 954v551h170v-551h-170z" />
    <glyph glyph-name="uni02C9" unicode="&#x2c9;" horiz-adv-x="624" 
d="M60 1255v155h504v-155h-504z" />
    <glyph glyph-name="uni02CA" unicode="&#x2ca;" horiz-adv-x="483" 
d="M60 1124l138 381h225l-235 -381h-128z" />
    <glyph glyph-name="uni02CB" unicode="&#x2cb;" horiz-adv-x="483" 
d="M295 1124l-235 381h225l138 -381h-128z" />
    <glyph glyph-name="uni02CC" unicode="&#x2cc;" horiz-adv-x="510" 
d="M170 -408v551h170v-551h-170z" />
    <glyph glyph-name="uni02D7" unicode="&#x2d7;" horiz-adv-x="824" 
d="M162 494v148h500v-148h-500z" />
    <glyph glyph-name="breve" unicode="&#x2d8;" horiz-adv-x="722" 
d="M361 1235q-90 0 -158 32.5t-105.5 103t-37.5 182.5h135q0 -76 40.5 -126t125.5 -50q84 0 124.5 50t40.5 126h136q0 -112 -37.5 -182.5t-105.5 -103t-158 -32.5z" />
    <glyph glyph-name="dotaccent" unicode="&#x2d9;" horiz-adv-x="314" 
d="M60 1297v208h194v-208h-194z" />
    <glyph glyph-name="ring" unicode="&#x2da;" horiz-adv-x="588" 
d="M294 1172q-106 0 -170 58.5t-64 167.5q0 108 64 166t170 58t170 -58t64 -166q0 -109 -63.5 -167.5t-170.5 -58.5zM294 1275q42 0 78.5 25t36.5 97q0 71 -36.5 97.5t-79.5 26.5t-78.5 -25.5t-35.5 -96.5q0 -73 35.5 -98.5t79.5 -25.5z" />
    <glyph glyph-name="ogonek" unicode="&#x2db;" horiz-adv-x="441" 
d="M293 -454q-111 0 -172 49.5t-61 144.5q0 65 51.5 143t133.5 127l113 -10q-60 -51 -99 -105t-39 -106q0 -47 24.5 -74.5t76.5 -27.5h60l-12 -141h-76z" />
    <glyph glyph-name="tilde" unicode="&#x2dc;" horiz-adv-x="713" 
d="M467 1253q-51 0 -85.5 16t-59 37.5t-46.5 37.5t-49 16q-31 0 -50.5 -23t-19.5 -70h-97q0 124 48 176.5t138 52.5q51 0 85.5 -16t59.5 -37.5t46.5 -37.5t48.5 -16q31 0 50.5 23.5t19.5 69.5h97q0 -124 -48 -176.5t-138 -52.5z" />
    <glyph glyph-name="hungarumlaut" unicode="&#x2dd;" horiz-adv-x="695" 
d="M350 1235l65 350h220l-162 -350h-123zM60 1235l65 350h220l-162 -350h-123z" />
    <glyph glyph-name="uni02EE" unicode="&#x2ee;" horiz-adv-x="737" 
d="M131 912l-87 47q67 56 102 113t35 141h-141v233h257v-163q0 -143 -42.5 -227.5t-123.5 -143.5zM531 912l-87 47q67 56 102 113t35 141h-141v233h257v-163q0 -143 -42.5 -227.5t-123.5 -143.5z" />
    <glyph glyph-name="gravecomb" unicode="&#x300;" 
d="M-8 1235l-232 350h225l135 -350h-128z" />
    <glyph glyph-name="acutecomb" unicode="&#x301;" 
d="M-120 1235l135 350h225l-232 -350h-128z" />
    <glyph glyph-name="uni0302" unicode="&#x302;" 
d="M-343 1235l255 340h175l255 -340h-138l-256 250h104l-257 -250h-138z" />
    <glyph glyph-name="tildecomb" unicode="&#x303;" 
d="M114 1253q-51 0 -85.5 16t-59 37.5t-46.5 37.5t-49 16q-31 0 -50.5 -23t-19.5 -70h-97q0 124 48 176.5t138 52.5q51 0 85.5 -16t59.5 -37.5t46.5 -37.5t48.5 -16q31 0 50.5 23.5t19.5 69.5h97q0 -124 -48 -176.5t-138 -52.5z" />
    <glyph glyph-name="uni0304" unicode="&#x304;" 
d="M-252 1305v155h504v-155h-504z" />
    <glyph glyph-name="uni0306" unicode="&#x306;" 
d="M0 1235q-90 0 -158 32.5t-105.5 103t-37.5 182.5h135q0 -76 40.5 -126t125.5 -50q84 0 124.5 50t40.5 126h136q0 -112 -37.5 -182.5t-105.5 -103t-158 -32.5z" />
    <glyph glyph-name="uni0307" unicode="&#x307;" 
d="M-97 1297v208h194v-208h-194z" />
    <glyph glyph-name="uni0308" unicode="&#x308;" 
d="M79 1262v181h206v-181h-206zM-285 1262v181h206v-181h-206z" />
    <glyph glyph-name="hookabovecomb" unicode="&#x309;" 
d="M-10 1208l-55 111q74 24 98 55.5t24 68.5q0 38 -22.5 59t-63.5 21q-42 0 -69 -20t-34 -50l-128 50q24 74 85.5 112t146.5 38q105 0 166 -60t61 -148q0 -95 -52.5 -148t-156.5 -89z" />
    <glyph glyph-name="uni030A" unicode="&#x30a;" 
d="M0 1172q-106 0 -170 58.5t-64 167.5q0 108 64 166t170 58t170 -58t64 -166q0 -109 -63.5 -167.5t-170.5 -58.5zM0 1275q42 0 78.5 25t36.5 97q0 71 -36.5 97.5t-79.5 26.5t-78.5 -25.5t-35.5 -96.5q0 -73 35.5 -98.5t79.5 -25.5z" />
    <glyph glyph-name="uni030B" unicode="&#x30b;" 
d="M70 1235l65 350h220l-162 -350h-123zM-220 1235l65 350h220l-162 -350h-123z" />
    <glyph glyph-name="uni030C" unicode="&#x30c;" 
d="M-88 1235l-255 340h138l257 -250h-104l256 250h138l-255 -340h-175z" />
    <glyph glyph-name="uni030D" unicode="&#x30d;" 
d="M-85 1207v511h170v-511h-170z" />
    <glyph glyph-name="uni030F" unicode="&#x30f;" 
d="M99 1235l-129 350h198l42 -350h-111zM-182 1235l-129 350h198l42 -350h-111z" />
    <glyph glyph-name="uni0310" unicode="&#x310;" 
d="M0 1170q-90 0 -163 29.5t-115.5 95.5t-42.5 173h135q0 -82 50.5 -119t135.5 -37q84 0 134.5 37t50.5 119h136q0 -107 -42.5 -173t-115.5 -95.5t-163 -29.5zM-97 1455v208h194v-208h-194z" />
    <glyph glyph-name="uni0311" unicode="&#x311;" 
d="M-301 1235q0 113 37.5 183t105.5 102.5t158 32.5t158 -32.5t105.5 -102.5t37.5 -183h-136q0 77 -40.5 126.5t-124.5 49.5q-85 0 -125.5 -49.5t-40.5 -126.5h-135z" />
    <glyph glyph-name="uni0312" unicode="&#x312;" 
d="M-126 1233v163q0 71 27 135.5t66.5 115t78.5 77.5l81 -44q-59 -49 -98 -108t-39 -106h131v-233h-247z" />
    <glyph glyph-name="uni0313" unicode="&#x313;" 
d="M-126 1153v163q0 81 27 152.5t66.5 125t78.5 80.5l81 -44q-59 -49 -98 -115.5t-39 -128.5h131v-233h-247z" />
    <glyph glyph-name="uni031B" unicode="&#x31b;" 
d="M-10 930v144h60q50 0 83 33.5t33 94.5v141h188v-124q0 -92 -36.5 -156.5t-104.5 -98.5t-163 -34h-60z" />
    <glyph glyph-name="dotbelowcomb" unicode="&#x323;" 
d="M-97 -343v208h194v-208h-194z" />
    <glyph glyph-name="uni0324" unicode="&#x324;" 
d="M79 -346v181h206v-181h-206zM-285 -346v181h206v-181h-206z" />
    <glyph glyph-name="uni0325" unicode="&#x325;" 
d="M0 -515q-106 0 -170 58.5t-64 167.5q0 108 64 166t170 58t170 -58t64 -166q0 -109 -63.5 -167.5t-170.5 -58.5zM0 -412q42 0 78.5 25t36.5 97q0 71 -36.5 97.5t-79.5 26.5t-78.5 -25.5t-35.5 -96.5q0 -73 35.5 -98.5t79.5 -25.5z" />
    <glyph glyph-name="uni0326" unicode="&#x326;" 
d="M-21 -574l-88 37q57 55 81 109t24 124v13.5t-1 13.5l39 -81h-154v233h234v-92q0 -114 -33 -203t-102 -154z" />
    <glyph glyph-name="uni0327" unicode="&#x327;" 
d="M-141 -465v112h188q32 0 44 13.5t12 32.5v68q0 20 -14 33t-42 13h-100v223h101v-166l-15 46q115 0 161.5 -42t46.5 -130v-30q0 -71 -46 -122t-159 -51h-177z" />
    <glyph glyph-name="uni0328" unicode="&#x328;" 
d="M-65 -454q-111 0 -172 49.5t-61 144.5q0 65 51.5 143t133.5 127l113 -10q-60 -51 -99 -105t-39 -106q0 -47 24.5 -74.5t76.5 -27.5h60l-12 -141h-76z" />
    <glyph glyph-name="uni0329" unicode="&#x329;" 
d="M-85 -408v521h170v-521h-170z" />
    <glyph glyph-name="uni032D" unicode="&#x32d;" 
d="M-333 -435l245 310h175l245 -310h-138l-246 220h104l-247 -220h-138z" />
    <glyph glyph-name="uni032E" unicode="&#x32e;" 
d="M0 -390q-90 0 -158 28.5t-105.5 91.5t-37.5 165h135q0 -61 40.5 -102t125.5 -41q84 0 124.5 41t40.5 102h136q0 -102 -37.5 -165t-105.5 -91.5t-158 -28.5z" />
    <glyph glyph-name="uni032F" unicode="&#x32f;" 
d="M-301 -390q0 103 37.5 165.5t105.5 91t158 28.5t158 -28.5t105.5 -91t37.5 -165.5h-136q0 62 -40.5 102.5t-124.5 40.5q-85 0 -125.5 -40.5t-40.5 -102.5h-135z" />
    <glyph glyph-name="uni0330" unicode="&#x330;" 
d="M110 -359q-51 0 -85.5 16t-59 37.5t-46.5 37.5t-49 16q-31 0 -50.5 -23t-19.5 -70h-97q0 124 48 176.5t138 52.5q51 0 85.5 -16t59.5 -37.5t46.5 -37.5t48.5 -16q31 0 50.5 23.5t19.5 69.5h97q0 -124 -48 -176.5t-138 -52.5z" />
    <glyph glyph-name="uni0331" unicode="&#x331;" 
d="M-252 -316v155h504v-155h-504z" />
    <glyph glyph-name="uni0332" unicode="&#x332;" 
d="M0 -237v143h790v-143h-790z" />
    <glyph glyph-name="uni0334" unicode="&#x334;" 
d="M111 661q-51 0 -85.5 16t-59.5 37.5t-47 37.5t-49 16q-31 0 -50.5 -23t-19.5 -70h-97q0 124 48 176.5t138 52.5q51 0 85.5 -16t59.5 -37.5t47 -37.5t49 -16q31 0 50.5 23.5t19.5 69.5h97q0 -124 -48 -176.5t-138 -52.5z" />
    <glyph glyph-name="uni0335" unicode="&#x335;" 
d="M-579 465v144h1158v-144h-1158z" />
    <glyph glyph-name="uni0358" unicode="&#x358;" 
d="M181 1327v208h193v-208h-193z" />
    <glyph glyph-name="uni0394" unicode="&#x394;" horiz-adv-x="1481" 
d="M655 1446h177l458 -1446h-1099zM1066 143l-317 1053l-327 -1053h644z" />
    <glyph glyph-name="Sigma" unicode="&#x3a3;" horiz-adv-x="1156" 
d="M112 0v155l485 607l-485 536v148h964v-160h-759l460 -479v-69l-456 -576h755v-162h-964z" />
    <glyph glyph-name="uni03A9" unicode="&#x3a9;" horiz-adv-x="1586" 
d="M207 0v141h245q-77 39 -137.5 106.5t-94.5 180.5t-34 288q0 197 28.5 331t82 217.5t128.5 127.5t168 60t200 16q134 0 245.5 -26.5t192.5 -103.5t125 -226.5t44 -395.5q0 -175 -34 -288t-94 -180.5t-138 -106.5h245v-141h-490v141q115 42 183 109t98 182.5t30 303.5
q0 192 -27 306t-79 170t-127.5 74t-173.5 18q-97 0 -173 -18t-128 -74t-79 -170t-27 -306q0 -188 30 -303.5t98.5 -182.5t182.5 -109v-141h-490z" />
    <glyph glyph-name="uni03BC" unicode="&#x3bc;" horiz-adv-x="1224" 
d="M174 -383v1443h188v-771q0 -52 26 -89.5t74.5 -57.5t113.5 -20q92 0 152.5 28t90 71.5t29.5 87.5v751h188v-1060h-168l-20 133q-40 -71 -116.5 -113t-192.5 -42q-52 0 -96.5 9t-80.5 24v-394h-188z" />
    <glyph glyph-name="pi" unicode="&#x3c0;" horiz-adv-x="1180" 
d="M1044 -22q-102 1 -168.5 24t-98.5 85t-32 180v651h-306v-918h-188v918q-56 0 -106.5 -15t-82 -30l-31.5 -15v142l21.5 15t63.5 30t102 15h897v-142h-182v-585q0 -83 11.5 -122t45.5 -55.5t102 -31.5z" />
    <glyph glyph-name="uni1D7D" unicode="&#x1d7d;" horiz-adv-x="1208" 
d="M30 609h1158v-144h-1158v144zM186 -408v1468h148l22 -80q42 38 121.5 69t170.5 31q203 0 302.5 -99t99.5 -252v-385q0 -106 -49 -189t-144 -130t-233 -47q-89 0 -150.5 18.5t-99.5 37.5v-442h-188zM612 122q111 0 180.5 52.5t69.5 149.5v420q0 95 -69.5 143.5
t-173.5 48.5q-66 0 -118.5 -22.5t-85 -49.5t-41.5 -40v-645q36 -20 96 -38.5t142 -18.5z" />
    <glyph glyph-name="uni1DBB" unicode="&#x1dbb;" horiz-adv-x="671" 
d="M98 732l362 585l20 -41h-369v110h481v-88l-367 -588l-20 43h393v-109h-500v88z" />
    <glyph glyph-name="uni1DC4" unicode="&#x1dc4;" 
d="M-135 1202l352 303h148l-255 -303h-245zM-360 1202v155h463l-66 -155h-397z" />
    <glyph glyph-name="uni1DC5" unicode="&#x1dc5;" 
d="M-105 1202l-255 303h148l352 -303h-245zM-32 1202l-66 155h463v-155h-397z" />
    <glyph glyph-name="uni1DC6" unicode="&#x1dc6;" 
d="M217 1202l-352 303h245l255 -303h-148zM-360 1350v155h397l66 -155h-463z" />
    <glyph glyph-name="uni1DC7" unicode="&#x1dc7;" 
d="M-360 1202l255 303h245l-352 -303h-148zM-98 1350l66 155h397v-155h-463z" />
    <glyph glyph-name="uni1DCA" unicode="&#x1dca;" 
d="M-189 -770v669h132v-110q18 45 60.5 71t95 37.5t101.5 11.5l-4 -105q-63 0 -121 -17t-95 -45t-37 -63v-449h-132z" />
    <glyph glyph-name="uni1E00" unicode="&#x1e00;" horiz-adv-x="1428" 
d="M86 0l539 1446h177l540 -1446h-205l-433 1259l30 -1l-439 -1258h-209zM306 282l48 148h723l46 -148h-817zM714 -515q-106 0 -170 58.5t-64 167.5q0 108 64 166t170 58t170 -58t64 -166q0 -109 -63.5 -167.5t-170.5 -58.5zM714 -412q42 0 78.5 25t36.5 97q0 71 -36.5 97.5
t-79.5 26.5t-78.5 -25.5t-35.5 -96.5q0 -73 35.5 -98.5t79.5 -25.5z" />
    <glyph glyph-name="uni1E01" unicode="&#x1e01;" horiz-adv-x="1172" 
d="M465 -22q-117 0 -190.5 40.5t-108 107t-34.5 142.5q0 80 31.5 134.5t119 99t256.5 93.5q88 26 141 46t77 51t24 89q0 43 -13.5 78t-55 56t-126.5 21q-106 0 -155 -22t-62.5 -57.5t-13.5 -78.5v-47h-181v48q0 157 105 229t313 72q140 0 222.5 -44.5t118.5 -125.5t36 -190
v-452q0 -84 21.5 -108t89.5 -24l-22 -144h-38q-106 0 -153 41.5t-71 116.5q-23 -36 -63.5 -76t-105 -68t-162.5 -28zM488 118q57 0 119 24.5t110.5 65t63.5 89.5v279q-22 -22 -76.5 -57.5t-155.5 -64.5q-123 -35 -180.5 -72t-57.5 -108q0 -80 41.5 -118t135.5 -38zM586 -515
q-106 0 -170 58.5t-64 167.5q0 108 64 166t170 58t170 -58t64 -166q0 -109 -63.5 -167.5t-170.5 -58.5zM586 -412q42 0 78.5 25t36.5 97q0 71 -36.5 97.5t-79.5 26.5t-78.5 -25.5t-35.5 -96.5q0 -73 35.5 -98.5t79.5 -25.5z" />
    <glyph glyph-name="uni1E02" unicode="&#x1e02;" horiz-adv-x="1420" 
d="M218 0v1446h524q201 0 304 -46.5t139.5 -135.5t36.5 -215q0 -103 -48 -180t-170 -106l3 16q96 -13 159 -63.5t94.5 -128.5t31.5 -176q0 -215 -121 -313t-385 -98h-568zM420 149h351q112 0 183.5 22t105.5 83t34 179q0 66 -22.5 126.5t-81.5 98.5t-170 38h-400v-547z
M420 833h371q91 0 141 26.5t69.5 74.5t19.5 113q0 105 -26.5 158t-94 71.5t-189.5 18.5h-291v-462zM613 1614v208h194v-208h-194z" />
    <glyph glyph-name="uni1E03" unicode="&#x1e03;" horiz-adv-x="1204" 
d="M626 -22q-94 0 -164.5 33.5t-112.5 59.5l-24 -71h-139v1505h188v-495q51 29 128 49.5t162 20.5q131 0 218 -44.5t130.5 -122t43.5 -177.5v-384q0 -106 -50 -191t-146 -134t-234 -49zM598 126q111 0 190.5 54.5t79.5 151.5v418q0 95 -61.5 140.5t-165.5 45.5
q-66 0 -140 -21t-127 -45v-682q41 -23 99 -42.5t125 -19.5zM567 1615v208h194v-208h-194z" />
    <glyph glyph-name="uni1E04" unicode="&#x1e04;" horiz-adv-x="1420" 
d="M218 0v1446h524q201 0 304 -46.5t139.5 -135.5t36.5 -215q0 -103 -48 -180t-170 -106l3 16q96 -13 159 -63.5t94.5 -128.5t31.5 -176q0 -215 -121 -313t-385 -98h-568zM420 149h351q112 0 183.5 22t105.5 83t34 179q0 66 -22.5 126.5t-81.5 98.5t-170 38h-400v-547z
M420 833h371q91 0 141 26.5t69.5 74.5t19.5 113q0 105 -26.5 158t-94 71.5t-189.5 18.5h-291v-462zM613 -343v208h194v-208h-194z" />
    <glyph glyph-name="uni1E05" unicode="&#x1e05;" horiz-adv-x="1204" 
d="M626 -22q-94 0 -164.5 33.5t-112.5 59.5l-24 -71h-139v1505h188v-495q51 29 128 49.5t162 20.5q131 0 218 -44.5t130.5 -122t43.5 -177.5v-384q0 -106 -50 -191t-146 -134t-234 -49zM598 126q111 0 190.5 54.5t79.5 151.5v418q0 95 -61.5 140.5t-165.5 45.5
q-66 0 -140 -21t-127 -45v-682q41 -23 99 -42.5t125 -19.5zM536 -343v208h194v-208h-194z" />
    <glyph glyph-name="uni1E06" unicode="&#x1e06;" horiz-adv-x="1420" 
d="M218 0v1446h524q201 0 304 -46.5t139.5 -135.5t36.5 -215q0 -103 -48 -180t-170 -106l3 16q96 -13 159 -63.5t94.5 -128.5t31.5 -176q0 -215 -121 -313t-385 -98h-568zM420 149h351q112 0 183.5 22t105.5 83t34 179q0 66 -22.5 126.5t-81.5 98.5t-170 38h-400v-547z
M420 833h371q91 0 141 26.5t69.5 74.5t19.5 113q0 105 -26.5 158t-94 71.5t-189.5 18.5h-291v-462zM458 -316v155h504v-155h-504z" />
    <glyph glyph-name="uni1E07" unicode="&#x1e07;" horiz-adv-x="1204" 
d="M626 -22q-94 0 -164.5 33.5t-112.5 59.5l-24 -71h-139v1505h188v-495q51 29 128 49.5t162 20.5q131 0 218 -44.5t130.5 -122t43.5 -177.5v-384q0 -106 -50 -191t-146 -134t-234 -49zM598 126q111 0 190.5 54.5t79.5 151.5v418q0 95 -61.5 140.5t-165.5 45.5
q-66 0 -140 -21t-127 -45v-682q41 -23 99 -42.5t125 -19.5zM381 -316v155h504v-155h-504z" />
    <glyph glyph-name="uni1E08" unicode="&#x1e08;" horiz-adv-x="1456" 
d="M761 -22q-181 0 -295 37t-175.5 104.5t-85 160.5t-23.5 206v454q0 115 22.5 211.5t84 167.5t175 110t295.5 39q164 0 270 -29.5t165 -87.5t82.5 -143.5t23.5 -197.5v-13l-191 -17v27q0 131 -33.5 195t-110.5 84t-206 20q-127 0 -210 -28.5t-124 -100t-41 -200.5v-522
q0 -128 42 -196t126.5 -93.5t212.5 -25.5q126 0 201.5 17t109 77.5t33.5 189.5v24h191v-10q0 -109 -20.5 -194.5t-76.5 -144.5t-162.5 -90t-279.5 -31zM623 -465v112h188q32 0 44 13.5t12 32.5v68q0 20 -14 33t-42 13h-100v223h101v-166l-15 46q115 0 161.5 -42t46.5 -130
v-30q0 -71 -46 -122t-159 -51h-177zM635 1632l165 350h225l-262 -350h-128z" />
    <glyph glyph-name="uni1E09" unicode="&#x1e09;" horiz-adv-x="1106" 
d="M579 -22q-158 0 -252.5 50.5t-136.5 134t-42 181.5v404q0 150 114.5 241t311.5 91q127 0 221 -29.5t145.5 -106.5t51.5 -220l-179 -17q0 97 -22 146t-73 66t-139 17q-121 0 -182 -43.5t-61 -149.5v-415q0 -114 64.5 -160t178.5 -46q93 0 141.5 13.5t68.5 54t27 120.5h174
q-10 -122 -52 -195t-128.5 -105t-230.5 -32zM431 -465v112h188q32 0 44 13.5t12 32.5v68q0 20 -14 33t-42 13h-100v223h101v-166l-15 46q115 0 161.5 -42t46.5 -130v-30q0 -71 -46 -122t-159 -51h-177zM453 1235l135 350h225l-232 -350h-128z" />
    <glyph glyph-name="uni1E0A" unicode="&#x1e0a;" horiz-adv-x="1522" 
d="M218 0v1446h574q201 0 321 -64.5t173.5 -174.5t53.5 -248v-477q0 -156 -60 -263.5t-181 -163t-305 -55.5h-576zM420 150h354q104 0 186.5 22.5t130.5 89.5t48 200v509q0 134 -48.5 203.5t-131 95t-185.5 25.5h-354v-1145zM664 1614v208h194v-208h-194z" />
    <glyph glyph-name="uni1E0B" unicode="&#x1e0b;" horiz-adv-x="1200" 
d="M148 335v400q0 160 106 252.5t337 92.5q50 0 118 -11t117 -29v465h188v-1505h-128l-31 70q-46 -36 -125.5 -64t-161.5 -28q-152 0 -244.5 47t-134 127.5t-41.5 182.5zM826 189v703q-42 20 -104.5 32t-128.5 12q-111 0 -184 -41t-73 -139v-435q0 -99 70.5 -147t173.5 -48
q80 0 147 22t99 41zM507 1615v208h194v-208h-194z" />
    <glyph glyph-name="uni1E0C" unicode="&#x1e0c;" horiz-adv-x="1522" 
d="M218 0v1446h574q201 0 321 -64.5t173.5 -174.5t53.5 -248v-477q0 -156 -60 -263.5t-181 -163t-305 -55.5h-576zM420 150h354q104 0 186.5 22.5t130.5 89.5t48 200v509q0 134 -48.5 203.5t-131 95t-185.5 25.5h-354v-1145zM664 -343v208h194v-208h-194z" />
    <glyph glyph-name="uni1E0D" unicode="&#x1e0d;" horiz-adv-x="1200" 
d="M148 335v400q0 160 106 252.5t337 92.5q50 0 118 -11t117 -29v465h188v-1505h-128l-31 70q-46 -36 -125.5 -64t-161.5 -28q-152 0 -244.5 47t-134 127.5t-41.5 182.5zM826 189v703q-42 20 -104.5 32t-128.5 12q-111 0 -184 -41t-73 -139v-435q0 -99 70.5 -147t173.5 -48
q80 0 147 22t99 41zM503 -343v208h194v-208h-194z" />
    <glyph glyph-name="uni1E0E" unicode="&#x1e0e;" horiz-adv-x="1522" 
d="M218 0v1446h574q201 0 321 -64.5t173.5 -174.5t53.5 -248v-477q0 -156 -60 -263.5t-181 -163t-305 -55.5h-576zM420 150h354q104 0 186.5 22.5t130.5 89.5t48 200v509q0 134 -48.5 203.5t-131 95t-185.5 25.5h-354v-1145zM509 -316v155h504v-155h-504z" />
    </font>
</defs>
</svg>
