<?xml version="1.0" standalone="no"?>
<!DOCTYPE svg PUBLIC "-//W3C//DTD SVG 1.1//EN" "http://www.w3.org/Graphics/SVG/1.1/DTD/svg11.dtd" >
<svg xmlns="http://www.w3.org/2000/svg" xmlns:xlink="http://www.w3.org/1999/xlink" version="1.1">
<metadata>
Created by FontForge 20201107 at Fri Apr 12 13:35:01 2024
 By 
Copyright 2021 The Monda Project Authors (https://github.com/googlefonts/mondaFont)
</metadata>
<defs>
<font id="Monda-SemiBold" horiz-adv-x="0" >
  <font-face 
    font-family="Monda SemiBold"
    font-weight="600"
    font-stretch="normal"
    units-per-em="2048"
    panose-1="0 0 0 0 0 0 0 0 0 0"
    ascent="1638"
    descent="-410"
    x-height="1069"
    cap-height="1466"
    bbox="-587 -771 2641 2441"
    underline-thickness="50"
    underline-position="-125"
    unicode-range="U+000D-FB02"
  />
<missing-glyph horiz-adv-x="740" 
d="M642 0h-544v1365h544v-1365zM193 1270v-1175h354v1175h-354z" />
    <glyph glyph-name="fi" unicode="fi" horiz-adv-x="1301" 
d="M248 0v907h-154v162h154v88q0 177 84.5 266t265.5 89h124l13 -170h-99q-87 0 -115.5 -36.5t-28.5 -101.5v-135h473v-162h-473v-907h-244zM900 0v1069h244v-1069h-244zM898 1266v246h248v-246h-248z" />
    <glyph glyph-name="fl" unicode="fl" horiz-adv-x="1433" 
d="M248 907h-154v162h154v88q0 177 84.5 266t265.5 89h394v-170h-356q-87 0 -115.5 -36.5t-28.5 -101.5v-135h229v-162h-229v-907h-244v907zM902 355v1157h244v-1155q0 -68 17 -107.5t59 -56t117 -16.5h33l-21 -188h-94q-118 0 -197 32.5t-118.5 112t-39.5 221.5z" />
    <glyph glyph-name="f_f" unicode="ff" horiz-adv-x="1442" 
d="M248 907h-154v162h154v65q0 177 84.5 266t265.5 89h124l13 -170h-99q-87 0 -115.5 -38t-28.5 -93v-119h372v-162h-372v-907h-244v907zM910 907h-225v162h225v88q0 177 84 266t266 89h123l13 -170h-99q-87 0 -115 -36.5t-28 -101.5v-135h228v-162h-228v-907h-244v907z" />
    <glyph glyph-name="f_f_i" unicode="ffi" horiz-adv-x="1957" 
d="M910 0v907h-225v162h225v88q0 177 84 266t266 89h124l12 -170h-99q-87 0 -115 -36.5t-28 -101.5v-135h479v-162h-479v-907h-244zM248 0v907h-154v162h154v65q0 177 84.5 266t265.5 89h125l12 -170h-99q-87 0 -115.5 -38t-28.5 -93v-119h372v-162h-372v-907h-244zM1563 0
v1069h244v-1069h-244zM1561 1266v246h248v-246h-248z" />
    <glyph glyph-name="f_f_l" unicode="ffl" horiz-adv-x="2094" 
d="M910 0v907h-231v162h231v88q0 177 84 266t266 89h393v-170h-356q-87 0 -115 -36.5t-28 -101.5v-135h228v-162h-228v-907h-244zM248 0v907h-154v162h154v65q0 177 84.5 266t265.5 89h124l13 -170h-99q-87 0 -115.5 -38t-28.5 -93v-119h379v-162h-379v-907h-244zM1918 -11
q-118 0 -197 32.5t-118.5 112t-39.5 221.5v1157h244v-1155q0 -68 17 -107.5t59 -56t117 -16.5h34l-22 -188h-94z" />
    <glyph glyph-name=".notdef" horiz-adv-x="740" 
d="M642 0h-544v1365h544v-1365zM193 1270v-1175h354v1175h-354z" />
    <glyph glyph-name=".null" 
 />
    <glyph glyph-name="nonmarkingreturn" horiz-adv-x="682" 
 />
    <glyph glyph-name="CR" unicode="&#xd;" horiz-adv-x="600" 
 />
    <glyph glyph-name="space" unicode=" " horiz-adv-x="515" 
 />
    <glyph glyph-name="exclam" unicode="!" horiz-adv-x="688" 
d="M304 397q-16 181 -30 352.5t-24.5 317t-16.5 250t-6 150.5h240q0 -45 -7 -147t-19.5 -246t-29.5 -317t-37 -360h-70zM206 0v256h265v-256h-265z" />
    <glyph glyph-name="quotedbl" unicode="&#x22;" horiz-adv-x="979" 
d="M604 891l-53 622h238l-68 -622h-117zM258 891l-67 622h237l-53 -622h-117z" />
    <glyph glyph-name="numbersign" unicode="#" horiz-adv-x="1343" 
d="M209 0l86 477h-197v133h221l52 291h-249v133h273l78 433h188l-75 -433h273l78 433h189l-76 -433h195v-133h-218l-51 -291h245v-133h-269l-82 -477h-197l86 477h-270l-84 -477h-196zM512 610h271l52 291h-273z" />
    <glyph glyph-name="dollar" unicode="$" horiz-adv-x="1289" 
d="M612 -218v1901h102v-1901h-102zM689 -25q-154 0 -301.5 35.5t-259.5 99.5l92 196q84 -47 205.5 -84t257.5 -37q100 0 152 27.5t71 80.5t19 127q0 41 -14 75t-55.5 62.5t-125.5 53.5l-284 88q-114 35 -179 90.5t-92 131.5t-27 171q0 139 66 226.5t180.5 129.5t256.5 42
q159 0 279.5 -28t211.5 -82l-72 -192q-76 38 -173.5 65.5t-216.5 27.5q-127 0 -200 -37t-73 -145q0 -73 36 -114t141 -75l289 -91q149 -46 221.5 -139t72.5 -263q0 -128 -49 -227.5t-154.5 -157t-274.5 -57.5z" />
    <glyph glyph-name="percent" unicode="%" horiz-adv-x="1829" 
d="M439 669q-115 0 -180 47.5t-92 132.5t-27 199v53q0 175 63 273t236 98t238.5 -97.5t65.5 -272.5v-54q0 -114 -28 -199.5t-94 -132.5t-182 -47zM439 794q66 0 97 31t40.5 85.5t9.5 122.5v89q0 67 -8 117.5t-39 78.5t-100 28q-67 0 -98 -28t-39 -78t-8 -116v-91
q0 -68 9 -122.5t40 -85.5t96 -31zM557 0l543 1446h165l-538 -1446h-170zM1386 -19q-115 0 -180.5 47t-92.5 132.5t-27 199.5v53q0 175 63.5 273t236.5 98t238 -97.5t65 -272.5v-54q0 -114 -27.5 -199.5t-94 -132.5t-181.5 -47zM1386 106q65 0 96 31t40.5 85.5t9.5 122.5v89
q0 67 -8 117.5t-39 79t-99 28.5t-98.5 -28t-39 -78.5t-8.5 -116.5v-91q0 -68 9 -122.5t40.5 -85.5t96.5 -31z" />
    <glyph glyph-name="ampersand" unicode="&#x26;" horiz-adv-x="1517" 
d="M157 453q0 151 66 238.5t211 130.5q-79 73 -127 146.5t-48 188.5q0 107 44.5 183.5t148 117t278.5 40.5q165 0 268.5 -26t152.5 -91.5t49 -183.5v-89h-214v48q0 69 -22 102.5t-75.5 44.5t-147.5 11q-103 0 -155 -22t-69.5 -60.5t-17.5 -90.5q0 -39 10 -67.5t35.5 -60
t72.5 -77.5l480 -466q1 11 1 17.5v18.5v301h215v-274q0 -65 -5 -129t-19 -111l171 -162l-141 -153l-133 129q-56 -64 -161.5 -98.5t-295.5 -34.5q-166 0 -276.5 30.5t-175.5 90.5t-92.5 150t-27.5 208zM1016 263l-464 447q-70 -19 -100.5 -54.5t-38 -85.5t-7.5 -111
q0 -103 27.5 -166t97.5 -92t198 -29q68 0 125.5 5t99.5 24t62 62z" />
    <glyph glyph-name="quotesingle" unicode="'" horiz-adv-x="618" 
d="M191 1513h237l-53 -622h-117z" />
    <glyph glyph-name="parenleft" unicode="(" horiz-adv-x="887" 
d="M736 -157q-190 0 -309.5 59.5t-175 184t-55.5 320.5v590q0 185 50 313.5t167.5 195.5t322.5 67v-195q-106 0 -169.5 -30t-92 -104.5t-28.5 -211.5v-656q0 -135 28 -208t91.5 -102t170.5 -29v-194z" />
    <glyph glyph-name="parenright" unicode=")" horiz-adv-x="887" 
d="M161 -157v195q112 0 175.5 31.5t89 106.5t25.5 204v655q0 131 -26 205.5t-88.5 106t-175.5 31.5v195q191 0 309.5 -59.5t174.5 -185.5t56 -324v-591q0 -198 -56 -324t-175 -186t-309 -60z" />
    <glyph glyph-name="asterisk" unicode="*" horiz-adv-x="1007" 
d="M414 619l29 325l-273 -174l-80 161l290 117l-280 142l95 153l247 -190l-28 313h178l-30 -325l273 174l81 -161l-291 -117l280 -142l-95 -153l-247 190l29 -313h-178z" />
    <glyph glyph-name="plus" unicode="+" horiz-adv-x="985" 
d="M413 489h-271v158h271v321h160v-321h270v-158h-270v-333h-160v333z" />
    <glyph glyph-name="comma" unicode="," horiz-adv-x="726" 
d="M227 -327q25 29 58.5 80t59 115t25.5 132h-157v262h300v-210q0 -98 -34.5 -184.5t-79 -149t-74.5 -90.5z" />
    <glyph glyph-name="hyphen" unicode="-" horiz-adv-x="880" 
d="M145 482v173h590v-173h-590z" />
    <glyph glyph-name="period" unicode="." horiz-adv-x="721" 
d="M219 270h284v-270h-284v270z" />
    <glyph glyph-name="slash" unicode="/" horiz-adv-x="939" 
d="M624 1513h223l-531 -1513h-224z" />
    <glyph glyph-name="zero" unicode="0" horiz-adv-x="1363" 
d="M688 -25q-129 0 -222 32t-156 88t-100 129t-53 155t-16 165v367q0 85 15.5 168.5t52.5 157.5t99.5 131.5t156 90t223.5 32.5q128 0 220 -32.5t153 -90.5t96.5 -132.5t50 -158.5t14.5 -169v-361q0 -83 -15.5 -165.5t-51.5 -155.5t-97 -129.5t-152 -89t-218 -32.5zM688 179
q89 0 143 31t83 82.5t39 115t10 127.5v390q0 64 -10 128.5t-38 117t-82.5 84.5t-144.5 32t-146 -32t-84.5 -84.5t-39 -117t-10.5 -128.5v-390q0 -64 11 -127.5t40.5 -115t84.5 -82.5t144 -31z" />
    <glyph glyph-name="one" unicode="1" horiz-adv-x="1363" 
d="M204 198h422v1100l45 -46l-443 -55l-24 204l495 65h192v-1268h370v-198h-1057v198z" />
    <glyph glyph-name="two" unicode="2" horiz-adv-x="1363" 
d="M240 0l-30 203l528 506q76 73 119.5 128t62 107.5t18.5 117.5q0 115 -54.5 170.5t-180.5 55.5q-99 0 -158 -25t-85.5 -87t-26.5 -173h-270q0 255 127 371.5t399 116.5q179 0 290 -57t163 -153.5t52 -216.5q0 -104 -31.5 -186.5t-94.5 -160.5t-161 -167l-414 -384l-14 37
h695v-203h-934z" />
    <glyph glyph-name="three" unicode="3" horiz-adv-x="1363" 
d="M706 -25q-179 0 -290.5 51t-165.5 153t-59 255h242q3 -101 32 -156.5t89.5 -77t157.5 -21.5q133 0 192.5 63t59.5 184q0 98 -26.5 153.5t-98 79t-207.5 23.5v183q110 0 174.5 13.5t95 41t39.5 69.5t9 98q0 96 -53.5 148.5t-193.5 52.5q-96 0 -153.5 -21.5t-83.5 -77
t-26 -159.5h-242q0 180 63.5 280.5t177 140.5t262.5 40q147 0 258.5 -44.5t174.5 -132t63 -216.5q0 -83 -22 -153.5t-79.5 -116.5t-165.5 -58l6 13q100 -17 161.5 -65t89.5 -123.5t28 -177.5q0 -132 -53.5 -231.5t-166 -155t-289.5 -55.5z" />
    <glyph glyph-name="four" unicode="4" horiz-adv-x="1363" 
d="M820 0v305h-659v218l476 943h273l-478 -986l-25 41h413v333h214v-333h231v-216h-231v-305h-214z" />
    <glyph glyph-name="five" unicode="5" horiz-adv-x="1363" 
d="M695 -23q-99 0 -193.5 19t-175 51t-138.5 70l70 184q69 -42 135.5 -69t137.5 -40t150 -13q136 0 216 66t80 202q0 97 -33 157.5t-91.5 88.5t-136.5 28q-85 0 -154 -28t-128 -78l-191 92l71 759h807v-219h-604l-41 -439l-38 13q59 59 137 87.5t187 28.5q141 0 245.5 -56
t162.5 -164.5t58 -266.5q0 -145 -66 -251.5t-185.5 -164t-281.5 -57.5z" />
    <glyph glyph-name="six" unicode="6" horiz-adv-x="1363" 
d="M721 -25q-190 0 -304 63.5t-164.5 170.5t-50.5 238q0 100 19.5 189.5t60 184t105.5 206.5l250 440h280l-378 -662l-33 45q56 33 116.5 47.5t139.5 14.5q165 0 268 -60.5t151 -165t48 -236.5q0 -128 -47.5 -236t-159 -173.5t-301.5 -65.5zM720 175q106 0 162.5 38.5
t78 101t21.5 130.5q0 69 -20.5 131.5t-77.5 102t-166 39.5q-108 0 -166 -39.5t-80 -102t-22 -131.5q0 -68 23.5 -130.5t82.5 -101t164 -38.5z" />
    <glyph glyph-name="seven" unicode="7" horiz-adv-x="1363" 
d="M359 0l547 1301l28 -54h-721v219h959v-190l-533 -1276h-280z" />
    <glyph glyph-name="eight" unicode="8" horiz-adv-x="1363" 
d="M679 -22q-193 0 -308 54t-166.5 147t-51.5 207q0 139 94.5 241.5t249.5 158.5l-1 -27q-83 37 -154.5 85t-115 116.5t-43.5 165.5q0 94 50 177t159.5 134.5t286.5 51.5q193 0 302 -53t153.5 -134.5t44.5 -167.5t-41.5 -156.5t-111 -123.5t-154.5 -84l-10 25
q92 -41 171 -95t127.5 -129.5t48.5 -183.5q0 -114 -52 -207t-168.5 -147.5t-309.5 -54.5zM687 171q113 0 172.5 30t81 82.5t21.5 117.5q0 72 -47.5 125t-124 94t-164.5 76l73 -10q-149 -52 -224 -124t-75 -161q0 -65 24 -117.5t87 -82.5t176 -30zM660 861q63 21 125.5 57
t103.5 86t41 110q0 45 -15.5 87.5t-67.5 70t-161 27.5q-97 0 -153 -25.5t-79.5 -66.5t-23.5 -87q0 -65 43 -111.5t112.5 -82t149.5 -68.5z" />
    <glyph glyph-name="nine" unicode="9" horiz-adv-x="1363" 
d="M483 0l378 661l33 -44q-55 -33 -116 -47.5t-140 -14.5q-165 0 -268 60.5t-151.5 165.5t-48.5 236q0 129 48 236.5t159.5 173t301.5 65.5t304 -64t164.5 -171t50.5 -237q0 -99 -19.5 -189t-60 -184t-105.5 -208l-250 -439h-280zM682 748q108 0 166 40t80 102.5t22 130.5
q0 70 -23.5 131.5t-82.5 100.5t-164 39q-106 0 -162.5 -39t-78.5 -100.5t-22 -131.5q0 -68 21 -130.5t78.5 -102.5t165.5 -40z" />
    <glyph glyph-name="colon" unicode=":" horiz-adv-x="769" 
d="M246 270h284v-270h-284v270zM246 948h284v-270h-284v270z" />
    <glyph glyph-name="semicolon" unicode=";" horiz-adv-x="769" 
d="M260 -326q25 29 58.5 80t59 115t25.5 132h-157v262h300v-210q0 -98 -34.5 -184.5t-79 -149t-74.5 -90.5zM244 948h284v-270h-284v270z" />
    <glyph glyph-name="less" unicode="&#x3c;" horiz-adv-x="985" 
d="M843 129l-701 350v168l701 350v-170l-594 -288v48l594 -288v-170z" />
    <glyph glyph-name="equal" unicode="=" horiz-adv-x="985" 
d="M142 666v157h701v-157h-701zM142 319v158h701v-158h-701z" />
    <glyph glyph-name="greater" unicode="&#x3e;" horiz-adv-x="985" 
d="M142 129v170l594 288v-48l-594 288v170l701 -350v-168z" />
    <glyph glyph-name="question" unicode="?" horiz-adv-x="1243" 
d="M709 758q69 89 102.5 156.5t33.5 157.5q0 56 -15 105.5t-60.5 80t-137.5 30.5q-104 0 -154.5 -27.5t-66.5 -78t-16 -120.5v-74h-249v60q0 106 20 188.5t72 139t147.5 85.5t246.5 29t245 -34.5t145 -93t70 -131.5t19 -148q0 -99 -29.5 -178t-88 -150.5t-144.5 -149.5
l-191 -174h-206zM417 0v256h265v-256h-265z" />
    <glyph glyph-name="at" unicode="@" horiz-adv-x="1551" 
d="M815 -340q-349 0 -516 151.5t-167 431.5v384q0 249 155 377.5t465 128.5q300 0 440 -97t140 -298v-374q0 -72 26.5 -96t102.5 -24l-22 -183h-101q-108 0 -162 45.5t-54 127.5l53 -3q-50 -93 -140 -140.5t-224 -47.5q-103 0 -174 39.5t-107 105.5t-36 143
q0 126 72.5 207.5t227.5 117.5l316 75q0 73 -29 120.5t-106 71.5t-223 24q-211 0 -303 -78.5t-92 -234.5v-399q0 -198 119.5 -289t338.5 -91q123 0 248 30.5t228 78.5l56 -189q-109 -49 -251.5 -82t-280.5 -33zM871 227q81 0 146.5 30.5t92.5 82.5v239l-241 -62
q-84 -21 -114 -61.5t-30 -97.5q0 -60 38.5 -95.5t107.5 -35.5z" />
    <glyph glyph-name="A" unicode="A" horiz-adv-x="1484" 
d="M75 0l504 1466h322l508 -1466h-279l-397 1285h27l-408 -1285h-277zM336 281l55 203h704l53 -203h-812z" />
    <glyph glyph-name="B" unicode="B" horiz-adv-x="1444" 
d="M199 0v1466h554q205 0 315 -43.5t151.5 -130t41.5 -217.5q0 -115 -45 -189.5t-179 -100.5l1 13q111 -9 174 -57t89 -126t26 -179q0 -227 -120 -331.5t-392 -104.5h-616zM465 188h309q114 0 177 20t87.5 76t24.5 164q0 71 -17 128t-71 91t-165 34h-345v-513zM465 866h328
q88 0 130.5 24t55.5 70.5t13 111.5q0 87 -20.5 132t-77 60.5t-164.5 15.5h-265v-414z" />
    <glyph glyph-name="C" unicode="C" horiz-adv-x="1479" 
d="M774 -25q-192 0 -311.5 38t-183.5 106.5t-88 161.5t-24 204v480q0 113 23.5 208.5t87 166.5t183 110.5t312.5 39.5q181 0 293 -35.5t172 -101.5t81.5 -157.5t21.5 -203.5v-16l-257 -29v59q0 113 -28.5 172t-96.5 81t-186 22q-116 0 -191 -24t-112 -85t-37 -172v-546
q0 -110 37 -168t113 -79.5t193 -21.5t184 18.5t95.5 75t28.5 169.5v39h257v-21q0 -109 -20 -199t-78 -155t-171 -101t-298 -36z" />
    <glyph glyph-name="D" unicode="D" horiz-adv-x="1530" 
d="M199 0v1466h618q210 0 328.5 -67t168 -181.5t49.5 -257.5v-461q0 -150 -53 -262.5t-172 -174.5t-319 -62h-620zM465 204h330q104 0 171 24.5t99.5 82t32.5 156.5v523q0 98 -33 157.5t-100 87t-170 27.5h-330v-1058z" />
    <glyph glyph-name="E" unicode="E" horiz-adv-x="1281" 
d="M199 1466h946v-199h-681v-420h603v-193h-603v-455h692v-199h-957v1466z" />
    <glyph glyph-name="F" unicode="F" horiz-adv-x="1168" 
d="M199 1466h869v-201h-604v-429h565v-192h-565v-644h-265v1466z" />
    <glyph glyph-name="G" unicode="G" horiz-adv-x="1590" 
d="M805 -25q-192 0 -316 38t-194 106.5t-98 161.5t-28 204v480q0 113 27.5 208.5t97.5 166.5t194 110.5t317 39.5q186 0 302 -35.5t178 -99.5t85 -150.5t23 -187.5v-23l-256 -19v46q0 104 -31.5 160t-104 78t-196.5 22q-116 0 -199 -24t-127 -85t-44 -172v-546
q0 -110 43.5 -168t126.5 -79.5t200 -21.5q118 0 195.5 21.5t115 79.5t37.5 168v117h-313v179h559v-750h-141l-40 195q-7 -31 -29.5 -69t-68.5 -72t-123 -56.5t-192 -22.5z" />
    <glyph glyph-name="H" unicode="H" horiz-adv-x="1592" 
d="M197 1466h266v-632h666v632h266v-1466h-266v630h-666v-630h-266v1466z" />
    <glyph glyph-name="I" unicode="I" horiz-adv-x="1143" 
d="M169 198h271v1071h-271v197h805v-197h-270v-1071h270v-198h-805v198z" />
    <glyph glyph-name="J" unicode="J" horiz-adv-x="1217" 
d="M81 68l64 198q41 -18 100 -36t125 -29.5t125 -11.5q141 0 200.5 69.5t59.5 180.5v821h-523v206h788v-1041q0 -210 -131.5 -328.5t-378.5 -118.5q-76 0 -154.5 11.5t-149.5 32t-125 46.5z" />
    <glyph glyph-name="K" unicode="K" horiz-adv-x="1438" 
d="M744 710l-57 -1l-223 -269v-440h-265v1466h265v-740l611 740h291zM610 712l187 151l604 -863h-298z" />
    <glyph glyph-name="L" unicode="L" horiz-adv-x="1163" 
d="M199 1466h265v-1260h628v-206h-893v1466z" />
    <glyph glyph-name="M" unicode="M" horiz-adv-x="1842" 
d="M199 0v1466h280l465 -785h-46l463 785h282v-1466h-249v1146l22 -6l-403 -701h-182l-413 697l31 6v-1142h-250z" />
    <glyph glyph-name="N" unicode="N" horiz-adv-x="1621" 
d="M199 1466h200l814 -1096l-27 -9v1105h235v-1466h-208l-803 1068l26 9v-1077h-237v1466z" />
    <glyph glyph-name="O" unicode="O" horiz-adv-x="1586" 
d="M803 -25q-193 0 -317 40t-193 110.5t-96.5 165.5t-27.5 205v460q0 113 27 210t96 170t193 113.5t318 40.5q186 0 306 -43t187.5 -118.5t94 -175t26.5 -212.5v-430q0 -109 -27 -206t-94.5 -171t-187 -116.5t-305.5 -42.5zM803 185q118 0 195 23.5t115.5 84.5t38.5 171v531
q0 109 -38.5 171t-116 88.5t-194.5 26.5q-115 0 -198 -25.5t-126.5 -88t-43.5 -172.5v-531q0 -110 43 -171t126 -84.5t199 -23.5z" />
    <glyph glyph-name="P" unicode="P" horiz-adv-x="1333" 
d="M199 1466h579q223 0 339 -108.5t116 -357.5q0 -171 -48 -278t-153 -156.5t-274 -49.5h-293v-516h-266v1466zM790 711q80 0 120.5 33.5t55 95.5t14.5 146q0 75 -13.5 141t-52 106.5t-115.5 40.5h-334v-563h325z" />
    <glyph glyph-name="Q" unicode="Q" horiz-adv-x="1585" 
d="M988 -484l-291 463q-213 15 -327 86t-157.5 183t-43.5 248v460q0 113 27 210t96 170t193 113.5t318 40.5q186 0 306 -43t187.5 -118.5t94 -175t26.5 -212.5v-430q0 -131 -40.5 -244t-145 -189t-297.5 -96l232 -363zM803 185q118 0 195 23.5t115.5 84.5t38.5 171v531
q0 109 -38.5 171t-116 88.5t-194.5 26.5q-115 0 -198 -25.5t-126.5 -88t-43.5 -172.5v-531q0 -110 43 -171t126 -84.5t199 -23.5z" />
    <glyph glyph-name="R" unicode="R" horiz-adv-x="1477" 
d="M199 0v1466h640q171 0 272.5 -50t146 -147t44.5 -240q0 -99 -19.5 -177t-66 -133.5t-126.5 -89.5l292 -629h-274l-269 589h-374v-589h-266zM465 781h385q80 0 122 31t58 84.5t16 118.5q0 63 -12.5 122.5t-50.5 98t-117 38.5h-401v-493z" />
    <glyph glyph-name="S" unicode="S" horiz-adv-x="1289" 
d="M689 -25q-154 0 -301.5 35.5t-259.5 99.5l92 196q84 -47 205.5 -84t257.5 -37q100 0 152 27.5t71 80.5t19 127q0 41 -14 75t-55.5 62.5t-125.5 53.5l-284 88q-114 35 -179 90.5t-92 131.5t-27 171q0 139 66 226.5t180.5 129.5t256.5 42q159 0 279.5 -28t211.5 -82
l-72 -192q-76 38 -173.5 65.5t-216.5 27.5q-127 0 -200 -37t-73 -145q0 -73 36 -114t141 -75l289 -91q149 -46 221.5 -139t72.5 -263q0 -128 -49 -227.5t-154.5 -157t-274.5 -57.5z" />
    <glyph glyph-name="T" unicode="T" horiz-adv-x="1197" 
d="M466 0v1260h-413v206h1091v-206h-413v-1260h-265z" />
    <glyph glyph-name="U" unicode="U" horiz-adv-x="1562" 
d="M790 -25q-185 0 -303.5 38t-184.5 105t-92 157t-26 195v997h265v-1013q0 -109 43 -167.5t120 -80t178 -21.5q104 0 175.5 22t109.5 80.5t38 166.5v1013h265v-989q0 -104 -25 -195t-88 -160.5t-178 -108.5t-297 -39z" />
    <glyph glyph-name="V" unicode="V" horiz-adv-x="1451" 
d="M55 1466h281l393 -1179l385 1179h282l-520 -1466h-299z" />
    <glyph glyph-name="W" unicode="W" horiz-adv-x="1985" 
d="M64 1466h253l273 -1047l277 1047h239l307 -1040l257 1040h251l-386 -1466h-216l-325 1113l-310 -1113h-228z" />
    <glyph glyph-name="X" unicode="X" horiz-adv-x="1347" 
d="M72 1466h286l932 -1466h-287zM796 723l-137 208l333 535h284zM541 785l137 -208l-343 -577h-284z" />
    <glyph glyph-name="Y" unicode="Y" horiz-adv-x="1309" 
d="M526 567l-510 899h280l386 -696h-44l386 696h269l-503 -899v-567h-264v567z" />
    <glyph glyph-name="Z" unicode="Z" horiz-adv-x="1203" 
d="M144 168l641 1098h-612v200h915v-170l-639 -1101h651v-195h-956v168z" />
    <glyph glyph-name="bracketleft" unicode="[" horiz-adv-x="817" 
d="M227 1571h447v-152h-203v-1352h203v-152h-447v1656z" />
    <glyph glyph-name="backslash" unicode="\" horiz-adv-x="939" 
d="M92 1513h224l531 -1513h-223z" />
    <glyph glyph-name="bracketright" unicode="]" horiz-adv-x="817" 
d="M162 67h204v1352h-204v152h448v-1656h-448v152z" />
    <glyph glyph-name="asciicircum" unicode="^" horiz-adv-x="1257" 
d="M503 1283h247l394 -734h-215l-317 619h40l-317 -619h-222z" />
    <glyph glyph-name="underscore" unicode="_" horiz-adv-x="846" 
d="M0 -267v173h846v-173h-846z" />
    <glyph glyph-name="grave" unicode="`" horiz-adv-x="500" 
d="M298 1249l-238 360h253l127 -360h-142z" />
    <glyph glyph-name="a" unicode="a" horiz-adv-x="1173" 
d="M437 -23q-100 0 -171.5 37.5t-109 104t-37.5 150.5q0 78 31 135.5t115 106t242 96.5q85 27 139 49t79 50t25 72q0 43 -15.5 74t-54 48t-107.5 17q-81 0 -121.5 -19.5t-54 -52.5t-13.5 -76v-43h-230v37q0 156 104.5 242t320.5 86q154 0 244 -44.5t129.5 -126t39.5 -191.5
v-434q0 -77 19.5 -100t75.5 -23l-15 -180h-51q-110 0 -167 34.5t-84 102.5q-27 -37 -73 -72t-110.5 -57.5t-149.5 -22.5zM505 145q41 0 90 16.5t91.5 46.5t63.5 72v275q-25 -22 -82.5 -51.5t-136.5 -56.5q-100 -33 -138 -72t-38 -94q0 -70 39 -103t111 -33z" />
    <glyph glyph-name="b" unicode="b" horiz-adv-x="1205" 
d="M645 -23q-90 0 -160.5 29.5t-118.5 60.5l-26 -67h-171v1512h244v-482q49 27 112 44t137 17q148 0 238.5 -46.5t131.5 -125t41 -172.5v-410q0 -106 -51.5 -187t-147 -127t-229.5 -46zM606 154q96 0 159.5 43t63.5 129v429q0 85 -52.5 123.5t-147.5 38.5q-71 0 -129.5 -21
t-86.5 -35v-654q34 -23 84 -38t109 -15z" />
    <glyph glyph-name="c" unicode="c" horiz-adv-x="1109" 
d="M575 -23q-175 0 -271 49.5t-134 130.5t-38 176v421q0 157 116 247t323 90q139 0 235 -33.5t146.5 -116.5t50.5 -234l-230 -19q0 98 -17 146.5t-59 65.5t-118 17q-98 0 -150.5 -37.5t-52.5 -127.5v-428q0 -95 51.5 -133t151.5 -38q78 0 119.5 14.5t57.5 58t19 131.5h227
q-3 -140 -42 -223t-131 -120t-254 -37z" />
    <glyph glyph-name="d" unicode="d" horiz-adv-x="1199" 
d="M132 328v419q0 153 105.5 248.5t339.5 95.5q47 0 105.5 -10.5t106.5 -27.5v459h244v-1512h-166l-29 65q-50 -36 -124.5 -62t-156.5 -26q-148 0 -242 44t-138.5 122.5t-44.5 184.5zM789 204v673q-32 16 -84 28t-112 12q-99 0 -158 -36t-59 -123v-438q0 -87 56 -126.5
t150 -39.5q64 0 119.5 15.5t87.5 34.5z" />
    <glyph glyph-name="e" unicode="e" horiz-adv-x="1145" 
d="M132 349v402q0 159 117.5 249.5t332.5 90.5q238 0 342 -91.5t104 -250.5v-257h-652v-166q0 -107 50 -141t164 -34q82 0 127 11.5t64.5 46t21.5 105.5h224q-5 -130 -51.5 -203.5t-142.5 -103.5t-246 -30q-140 0 -242.5 36.5t-157.5 118t-55 217.5zM796 645v132
q0 62 -27 91.5t-74 39t-108 9.5q-92 0 -151.5 -29.5t-59.5 -119.5v-123h420z" />
    <glyph glyph-name="f" unicode="f" horiz-adv-x="777" 
d="M248 907h-154v162h154v88q0 177 84.5 266t265.5 89h124l9 -170h-95q-87 0 -115.5 -41.5t-28.5 -96.5v-135h229v-162h-229v-907h-244v907z" />
    <glyph glyph-name="g" unicode="g" horiz-adv-x="1201" 
d="M574 -430q-103 0 -195 12.5t-149 38.5l52 170q65 -19 140.5 -30t141.5 -11q124 0 179.5 53t55.5 167v127q-32 -22 -76.5 -35.5t-91 -20t-86.5 -6.5q-197 0 -305 87.5t-108 247.5v373q0 97 40.5 176t130 125.5t236.5 46.5q57 0 114 -14t103.5 -37t73.5 -50l15 80h198
v-1070q0 -129 -46.5 -226t-149.5 -150.5t-273 -53.5zM585 203q81 0 134.5 20t79.5 39v556q0 37 -55.5 68t-158.5 31q-99 0 -154 -38t-55 -125v-400q0 -86 59 -118.5t150 -32.5z" />
    <glyph glyph-name="h" unicode="h" horiz-adv-x="1244" 
d="M170 1512h244v-545q39 55 127.5 89.5t201.5 34.5t189 -39t114.5 -107.5t38.5 -156.5v-788h-244v765q0 56 -28 86.5t-72.5 43.5t-95.5 13q-63 0 -115.5 -19.5t-84 -56t-31.5 -87.5v-745h-244v1512z" />
    <glyph glyph-name="i" unicode="i" horiz-adv-x="545" 
d="M152 1069h243v-1069h-243v1069zM149 1266v246h248v-246h-248z" />
    <glyph glyph-name="j" unicode="j" horiz-adv-x="634" 
d="M-8 -178h40q69 0 107.5 23t54 64t15.5 96v1064h245v-1069q0 -122 -38 -202t-116.5 -118.5t-202.5 -38.5h-89zM207 1266v246h248v-246h-248z" />
    <glyph glyph-name="k" unicode="k" horiz-adv-x="1181" 
d="M170 1512h244v-936l452 493h276l-413 -464l439 -605h-270l-351 495l-133 -134v-361h-244v1512z" />
    <glyph glyph-name="l" unicode="l" horiz-adv-x="704" 
d="M173 355v1157h244v-1155q0 -68 17 -107.5t59 -56t117 -16.5h33l-21 -188h-94q-118 0 -197 32.5t-118.5 112t-39.5 221.5z" />
    <glyph glyph-name="m" unicode="m" horiz-adv-x="1883" 
d="M169 1069h244v-98q21 23 61.5 51t103 48.5t147.5 20.5q111 0 186 -34t115 -101q62 62 146 98.5t207 36.5q113 0 189 -39.5t115.5 -108t39.5 -157.5v-786h-244v768q0 83 -48.5 112.5t-123.5 29.5q-62 0 -115.5 -19t-86 -54.5t-35.5 -84.5v-752h-244v768q0 83 -51.5 112.5
t-126.5 29.5q-63 0 -116.5 -19.5t-86 -56.5t-32.5 -90v-744h-244v1069z" />
    <glyph glyph-name="n" unicode="n" horiz-adv-x="1245" 
d="M169 1069h244v-97q57 53 132 86.5t192 33.5q124 0 200.5 -44t112 -116.5t35.5 -161.5v-770h-244v764q0 55 -29 86.5t-75 44.5t-96 13q-64 0 -115.5 -20t-82 -57t-30.5 -89v-742h-244v1069z" />
    <glyph glyph-name="o" unicode="o" horiz-adv-x="1178" 
d="M589 -23q-166 0 -266.5 43t-145.5 120.5t-45 181.5v424q0 106 51 183.5t153 119.5t253 42t252.5 -42t153 -119.5t51.5 -183.5v-424q0 -104 -44 -181.5t-144 -120.5t-269 -43zM589 151q95 0 154 35t59 122v451q0 88 -57.5 123t-155.5 35q-96 0 -154.5 -35t-58.5 -123v-451
q0 -87 56.5 -122t156.5 -35z" />
    <glyph glyph-name="p" unicode="p" horiz-adv-x="1201" 
d="M169 -409v1478h176l25 -73q49 39 126.5 67t170.5 28q194 0 298 -96.5t104 -250.5v-412q0 -97 -48 -177.5t-144.5 -129t-243.5 -48.5q-73 0 -127.5 14t-92.5 32v-432h-244zM613 151q99 0 155.5 41.5t56.5 128.5v430q0 86 -55.5 126t-147.5 40q-51 0 -94 -14.5t-72.5 -33.5
t-42.5 -34v-633q28 -18 78.5 -34.5t121.5 -16.5z" />
    <glyph glyph-name="q" unicode="q" horiz-adv-x="1196" 
d="M789 38q-49 -31 -114.5 -46t-125.5 -15q-146 0 -238 45.5t-135.5 122.5t-43.5 171v427q0 158 108.5 253t308.5 95q55 0 108.5 -13.5t96.5 -35t68 -47.5l13 74h198v-1478h-244v447zM587 151q92 0 145 27t57 36v615q-13 34 -62 61t-139 27q-95 0 -153.5 -38t-58.5 -126
v-453q0 -86 58 -117.5t153 -31.5z" />
    <glyph glyph-name="r" unicode="r" horiz-adv-x="820" 
d="M169 1069h244v-135q23 48 83.5 82t138.5 51.5t153 17.5l-6 -208q-57 -2 -119.5 -13t-117.5 -30.5t-91 -46.5t-41 -60v-727h-244v1069z" />
    <glyph glyph-name="s" unicode="s" horiz-adv-x="993" 
d="M119 62l52 169q69 -31 161 -55.5t180 -24.5q91 0 130 39t39 103q0 52 -19.5 81.5t-77.5 49.5l-241 80q-123 41 -170 112t-47 176q0 147 97 223t275 76q129 0 224 -25t153 -55l-57 -160q-30 15 -80.5 30t-106.5 25.5t-105 10.5q-100 0 -134 -31t-34 -90q0 -39 17 -64
t62 -41l231 -79q90 -30 140.5 -71.5t71 -101t20.5 -143.5q0 -87 -40 -159.5t-122.5 -116t-210.5 -43.5q-140 0 -240 25t-168 60z" />
    <glyph glyph-name="t" unicode="t" horiz-adv-x="819" 
d="M223 332v575h-154v162h162l24 340h212v-340h259v-162h-259v-557q0 -102 49.5 -137.5t176.5 -35.5h42l-14 -188h-58q-157 0 -253.5 31t-141.5 106.5t-45 205.5z" />
    <glyph glyph-name="u" unicode="u" horiz-adv-x="1242" 
d="M504 -23q-112 0 -188.5 42t-116 113t-39.5 159v778h244v-749q0 -55 27.5 -90t71.5 -51.5t94 -16.5q64 0 116.5 20.5t84 60t31.5 93.5v733h244v-1069h-226l-12 123q-35 -68 -126.5 -107t-204.5 -39z" />
    <glyph glyph-name="v" unicode="v" horiz-adv-x="1103" 
d="M44 1069h244l291 -868h-28l276 868h232l-367 -1069h-256z" />
    <glyph glyph-name="w" unicode="w" horiz-adv-x="1637" 
d="M48 1069h227l217 -834l-24 1l248 833h208l256 -839l-24 -1l206 840h227l-294 -1069h-236l-250 819h26l-256 -819h-231z" />
    <glyph glyph-name="x" unicode="x" horiz-adv-x="1073" 
d="M770 0l-310 467l-411 602h261l294 -441l427 -628h-261zM40 0l379 564l122 -180l-242 -384h-259zM654 507l-126 180l244 382h256z" />
    <glyph glyph-name="y" unicode="y" horiz-adv-x="1108" 
d="M165 -459l-14 199q105 10 177 65.5t119 174.5l27 68l17 -90l-443 1111h245l337 -898h-90l283 898h243l-382 -1094q-76 -217 -200 -317.5t-319 -116.5z" />
    <glyph glyph-name="z" unicode="z" horiz-adv-x="924" 
d="M116 153l472 786l21 -32h-480v162h698v-151l-472 -786l-21 32h493v-164h-711v153z" />
    <glyph glyph-name="braceleft" unicode="{" horiz-adv-x="979" 
d="M853 -154q-154 0 -247.5 25.5t-142 80.5t-65.5 141t-17 206v72q0 72 -7 115.5t-25 65.5t-52.5 29t-88.5 7h-30v209h30q55 0 89 8.5t52.5 33t25 69.5t6.5 118v82q0 131 18.5 215t68.5 131.5t143 66t242 18.5v-166q-80 0 -125 -9.5t-65.5 -32.5t-26 -64.5t-5.5 -105.5v-107
q0 -135 -33 -232t-108 -124q78 -30 110 -120t32 -233v-99q0 -67 5.5 -112t26.5 -72t65.5 -38.5t123.5 -11.5v-166z" />
    <glyph glyph-name="bar" unicode="|" horiz-adv-x="681" 
d="M229 1590h222v-1730h-222v1730z" />
    <glyph glyph-name="braceright" unicode="}" horiz-adv-x="978" 
d="M159 -154v166q78 0 123 11.5t65.5 38.5t26 72t5.5 112v106q0 143 32.5 233t109.5 120q-75 27 -108 124t-33 232v100q0 64 -5.5 105.5t-26 64.5t-65.5 32.5t-124 9.5v166q148 0 241 -18.5t143 -66t68.5 -131.5t18.5 -215v-75q0 -73 6.5 -117.5t25 -69t52.5 -33.5t88 -9h31
v-209h-31q-54 0 -88 -7t-52 -29t-25 -65t-7 -116v-79q0 -120 -17 -206t-65.5 -141t-142 -80.5t-246.5 -25.5z" />
    <glyph glyph-name="asciitilde" unicode="~" horiz-adv-x="1010" 
d="M693 1135q-57 0 -109 19.5t-100 45t-91 44.5t-83 19q-59 0 -81.5 -26.5t-22.5 -70.5h-123q0 131 70 195t163 64q59 0 110 -19t97 -44.5t87.5 -44.5t78.5 -19q63 0 89 26t26 70h123q0 -130 -70 -194.5t-164 -64.5z" />
    <glyph glyph-name="uni00A0" unicode="&#xa0;" horiz-adv-x="515" 
 />
    <glyph glyph-name="exclamdown" unicode="&#xa1;" horiz-adv-x="688" 
d="M384 672q16 -180 30 -352t24.5 -317.5t16.5 -250t6 -149.5h-240q0 45 7 146.5t19.5 246t29.5 317t37 359.5h70zM482 1069v-256h-265v256h265z" />
    <glyph glyph-name="cent" unicode="&#xa2;" horiz-adv-x="1109" 
d="M529 -218v1504h95v-1504h-95zM575 -23q-175 0 -271 49.5t-134 130.5t-38 176v421q0 157 116 247t323 90q139 0 235 -33.5t146.5 -116.5t50.5 -234l-230 -19q0 98 -17 146.5t-59 65.5t-118 17q-98 0 -150.5 -37.5t-52.5 -127.5v-428q0 -95 51.5 -133t151.5 -38
q78 0 119.5 14.5t57.5 58t19 131.5h227q-3 -140 -42 -223t-131 -120t-254 -37z" />
    <glyph glyph-name="sterling" unicode="&#xa3;" horiz-adv-x="1283" 
d="M219 0l99 1082q11 127 59.5 222t143.5 148t244 53q95 0 187 -27t162 -69l-65 -180q-42 19 -87 34t-89 24t-85 9q-104 0 -151.5 -60.5t-57.5 -171.5l-79 -859h596v-205h-877zM148 651v148h857v-148h-857z" />
    <glyph glyph-name="currency" unicode="&#xa4;" horiz-adv-x="1134" 
d="M561 374q-78 0 -140.5 27.5t-106.5 74.5l-139 -101l-49 84l135 97q-35 71 -35 156q0 91 42 170l-147 102l54 81l149 -107q43 43 103 67t134 24q76 0 135.5 -25t102.5 -70l160 116l48 -82l-153 -111q20 -37 30 -79.5t10 -85.5q0 -39 -7.5 -76t-23.5 -70l149 -104l-52 -81
l-147 104q-43 -50 -107 -80.5t-145 -30.5zM562 500q97 0 148.5 64t51.5 148q0 85 -51.5 148.5t-148.5 63.5q-98 0 -150.5 -63.5t-52.5 -148.5q0 -84 52.5 -148t150.5 -64z" />
    <glyph glyph-name="yen" unicode="&#xa5;" horiz-adv-x="1309" 
d="M491 960l49 -128h-439v128h390zM101 532v128h1114v-128h-1114zM785 832l55 128h375v-128h-430zM526 567l-510 899h280l386 -696h-44l386 696h269l-503 -899v-567h-264v567z" />
    <glyph glyph-name="brokenbar" unicode="&#xa6;" horiz-adv-x="677" 
d="M229 560h219v-700h-219v700zM229 1590h219v-686h-219v686z" />
    <glyph glyph-name="section" unicode="&#xa7;" horiz-adv-x="1004" 
d="M773 434l-112 136q30 19 44.5 45t14.5 64q0 52 -20 83t-80 51l-272 89q-123 40 -170 110.5t-47 175.5q0 147 97 223t275 76q135 0 229.5 -29t155.5 -61l-57 -160q-33 17 -83 34.5t-107 29.5t-109 12q-101 0 -134.5 -31t-33.5 -90q0 -39 16.5 -64t62.5 -41l234 -79
q92 -30 143 -72.5t71.5 -102.5t20.5 -144q0 -78 -34 -146t-105 -109zM527 -16q-134 0 -229 27t-155 63l57 154q33 -16 83 -32.5t107 -26.5t109 -10q100 0 134 30.5t34 90.5q0 39 -17 64t-62 40l-235 79q-91 31 -142 73t-72 102.5t-21 143.5q0 79 34.5 147t104.5 108
l113 -136q-31 -18 -45 -44t-14 -65q0 -51 19.5 -82.5t79.5 -50.5l272 -89q123 -41 170 -111.5t47 -175.5q0 -147 -96.5 -223t-275.5 -76z" />
    <glyph glyph-name="dieresis" unicode="&#xa8;" horiz-adv-x="759" 
d="M454 1295v215h246v-215h-246zM60 1295v215h245v-215h-245z" />
    <glyph glyph-name="copyright" unicode="&#xa9;" horiz-adv-x="1779" 
d="M889 -14q-155 0 -288.5 55.5t-234 155.5t-157 234t-56.5 291q0 156 56.5 290t157 233.5t234 155t288.5 55.5q156 0 290 -55.5t234 -155t156 -233.5t56 -290q0 -157 -56 -291t-156 -234t-234 -155.5t-290 -55.5zM891 82q183 0 325 84t222.5 229t80.5 327t-80.5 326.5
t-222.5 228.5t-325 84q-182 0 -324 -84t-223.5 -228.5t-81.5 -326.5t81.5 -327t223.5 -229t324 -84zM900 287q-143 0 -219.5 38.5t-104.5 107t-28 157.5v278q0 91 28 162t103.5 111.5t219.5 40.5q139 0 208.5 -42.5t93.5 -115t24 -163.5v-25l-116 -10v64q0 114 -48 157.5
t-162 43.5q-113 0 -172 -43.5t-59 -157.5v-319q0 -114 59 -154.5t173 -40.5q115 0 162 40.5t47 154.5v61h116v-34q0 -88 -24 -158.5t-93.5 -111.5t-207.5 -41z" />
    <glyph glyph-name="ordfeminine" unicode="&#xaa;" horiz-adv-x="999" 
d="M387 519q-128 0 -193 70t-65 183q0 64 20 109t83 83t190 78q88 28 134.5 48t63.5 46.5t17 71.5q0 56 -29 87.5t-112 31.5q-65 0 -98 -17t-44 -45.5t-11 -64.5v-37h-185v31q0 135 84 208.5t259 73.5q186 0 260 -84.5t74 -226.5v-366q0 -66 17 -89t70 -23l-18 -154h-67
q-88 0 -124.5 35t-58.5 93q-22 -31 -58.5 -64.5t-88 -55.5t-120.5 -22zM441 671q33 0 72 12.5t72.5 36.5t51.5 60v234q-20 -19 -66.5 -43t-109.5 -44q-80 -24 -112 -57.5t-32 -81.5q0 -57 30 -87t94 -30z" />
    <glyph glyph-name="guillemotleft" unicode="&#xab;" horiz-adv-x="1034" 
d="M77 530l273 450l147 -70l-229 -420v80l229 -420l-140 -70zM491 530l273 450l145 -70l-226 -420v80l226 -420l-138 -70z" />
    <glyph glyph-name="logicalnot" unicode="&#xac;" horiz-adv-x="985" 
d="M684 489h-542v158h702v-391h-160v233z" />
    <glyph glyph-name="registered" unicode="&#xae;" horiz-adv-x="1779" 
d="M892 -14q-155 0 -288.5 55.5t-234 155.5t-157 234t-56.5 291q0 156 56.5 290t157 233.5t234 155t288.5 55.5q156 0 290 -55.5t234 -155t156 -233.5t56 -290q0 -157 -56 -291t-156 -234t-234 -155.5t-290 -55.5zM894 82q183 0 325 84t222.5 229t80.5 327t-80.5 326.5
t-222.5 228.5t-325 84q-182 0 -324 -84t-223.5 -228.5t-81.5 -326.5t81.5 -327t223.5 -229t324 -84zM585 319v834h423q125 0 184 -61t59 -184v-14q0 -108 -41.5 -158.5t-110.5 -69.5l184 -347h-128l-180 333h-259v-333h-131zM716 742h267q72 0 104 39t32 106v24
q0 39 -7 73.5t-34 56t-86 21.5h-276v-320z" />
    <glyph glyph-name="macron" unicode="&#xaf;" horiz-adv-x="677" 
d="M60 1326v163h558v-163h-558z" />
    <glyph glyph-name="degree" unicode="&#xb0;" horiz-adv-x="836" 
d="M418 850q-169 0 -256.5 91.5t-87.5 231.5t87.5 232t256.5 92t256.5 -92t87.5 -232t-87.5 -231.5t-256.5 -91.5zM418 1010q83 0 124.5 44t41.5 120q0 77 -41.5 120.5t-124.5 43.5t-124.5 -43.5t-41.5 -120.5q0 -76 41.5 -120t124.5 -44z" />
    <glyph glyph-name="plusminus" unicode="&#xb1;" horiz-adv-x="985" 
d="M413 589h-271v158h271v221h160v-221h270v-158h-270v-233h-160v233zM142 90v158h701v-158h-701z" />
    <glyph glyph-name="uni00B2" unicode="&#xb2;" horiz-adv-x="794" 
d="M134 886l-19 122l298 302q66 68 91.5 110.5t25.5 95.5q0 52 -31.5 82.5t-102.5 30.5q-77 0 -110.5 -33t-33.5 -108h-165q0 149 78.5 223t236.5 74q161 0 232.5 -76t71.5 -184q0 -58 -19 -105.5t-56.5 -95t-96.5 -108.5l-226 -230l-31 39h420v-139h-563z" />
    <glyph glyph-name="uni00B3" unicode="&#xb3;" horiz-adv-x="788" 
d="M396 871q-158 0 -231 69.5t-78 206.5h164q3 -66 38.5 -93t103.5 -27q66 0 99.5 27.5t33.5 97.5q0 50 -14.5 79t-52.5 41.5t-108 12.5v132q97 0 130.5 26.5t33.5 79.5q0 48 -28.5 75t-96.5 27q-70 0 -102.5 -28t-32.5 -92h-164q0 149 79 212t223 63q132 0 214.5 -59.5
t82.5 -175.5q0 -49 -13 -92t-47 -72.5t-99 -41.5l3 27q90 -23 129 -80t39 -149q0 -119 -73.5 -192.5t-232.5 -73.5z" />
    <glyph glyph-name="acute" unicode="&#xb4;" horiz-adv-x="500" 
d="M60 1248l127 360h253l-238 -360h-142z" />
    <glyph glyph-name="uni00B5" unicode="&#xb5;" horiz-adv-x="1239" 
d="M157 -285v1354h244v-767q0 -55 27 -88t71.5 -48t93.5 -15q64 0 117 21t84.5 57.5t31.5 84.5v755h245v-1069h-234l-11 134q-32 -70 -101 -112t-171 -42q-44 0 -85.5 6.5t-81.5 18.5v-290h-230z" />
    <glyph glyph-name="paragraph" unicode="&#xb6;" horiz-adv-x="1208" 
d="M471 0v862q-166 0 -259 75.5t-93 232.5t95 226.5t272 69.5h518v-1466h-195v1277h-142v-1277h-196z" />
    <glyph glyph-name="periodcentered" unicode="&#xb7;" horiz-adv-x="434" 
d="M100 853h234v-232h-234v232z" />
    <glyph glyph-name="cedilla" unicode="&#xb8;" horiz-adv-x="509" 
d="M60 -478v118h181q32 0 44 13.5t12 32.5v62q0 20 -14 33t-42 13h-93v236h121v-166l-49 46q122 0 175 -42t53 -130v-43q0 -71 -46 -122t-159 -51h-183z" />
    <glyph glyph-name="uni00B9" unicode="&#xb9;" horiz-adv-x="755" 
d="M90 1025h223v640l47 -47l-255 -33l-18 142l287 39h115v-741h209v-139h-608v139z" />
    <glyph glyph-name="ordmasculine" unicode="&#xba;" horiz-adv-x="1000" 
d="M500 518q-201 0 -285 81t-84 215v365q0 136 92.5 216.5t276.5 80.5q182 0 275.5 -80.5t93.5 -216.5v-365q0 -134 -82 -215t-287 -81zM499 668q83 0 127.5 32t44.5 103v389q0 75 -46 105t-125 30q-77 0 -124.5 -30t-47.5 -105v-389q0 -75 45.5 -105t125.5 -30z" />
    <glyph glyph-name="guillemotright" unicode="&#xbb;" horiz-adv-x="1034" 
d="M145 150l226 420v-80l-226 420l138 70l280 -450l-273 -450zM557 150l229 420v-80l-229 420l140 70l280 -450l-273 -450z" />
    <glyph glyph-name="onequarter" unicode="&#xbc;" horiz-adv-x="1838" 
d="M90 725h223v640l47 -47l-255 -33l-18 142l287 39h115v-741h209v-139h-608v139zM1210 1485h158l-653 -1485h-160zM1507 0v184h-382v130l272 566h186l-285 -591l-26 34h235v198h175v-198h106v-139h-106v-184h-175z" />
    <glyph glyph-name="onehalf" unicode="&#xbd;" horiz-adv-x="1865" 
d="M90 725h223v640l47 -47l-255 -33l-18 142l287 39h115v-741h209v-139h-608v139zM1210 1485h158l-653 -1485h-160zM1205 0l-19 122l298 302q66 68 91.5 110.5t25.5 95.5q0 52 -31.5 82.5t-102.5 30.5q-77 0 -110.5 -33t-33.5 -108h-165q0 149 78.5 223t236.5 74
q161 0 232.5 -76t71.5 -184q0 -58 -19 -105.5t-56.5 -95t-96.5 -108.5l-226 -230l-31 39h420v-139h-563z" />
    <glyph glyph-name="threequarters" unicode="&#xbe;" horiz-adv-x="1872" 
d="M396 571q-158 0 -231 69.5t-78 206.5h164q3 -66 38.5 -93t103.5 -27q66 0 99.5 27.5t33.5 97.5q0 50 -14.5 79t-52.5 41.5t-108 12.5v132q97 0 130.5 26.5t33.5 79.5q0 48 -28.5 75t-96.5 27q-70 0 -102.5 -28t-32.5 -92h-164q0 149 79 212t223 63q132 0 214.5 -59.5
t82.5 -175.5q0 -49 -13 -92t-47 -72.5t-99 -41.5l3 27q90 -23 129 -80t39 -149q0 -119 -73.5 -192.5t-232.5 -73.5zM1243 1485h158l-653 -1485h-160zM1541 0v184h-382v130l272 566h186l-285 -591l-26 34h235v198h175v-198h106v-139h-106v-184h-175z" />
    <glyph glyph-name="questiondown" unicode="&#xbf;" horiz-adv-x="1243" 
d="M538 311q-70 -88 -103.5 -156t-33.5 -157q0 -57 15 -106t61 -80t138 -31q103 0 154 28t67 79t16 119v75h248v-60q0 -106 -20 -188.5t-72 -139t-147.5 -86t-245.5 -29.5t-244.5 35t-145.5 93t-70 131t-19 149q0 99 29 177.5t87.5 150.5t145.5 150l190 173h206zM829 1069
v-256h-264v256h264z" />
    <glyph glyph-name="Agrave" unicode="&#xc0;" horiz-adv-x="1484" 
d="M75 0l504 1466h322l508 -1466h-279l-397 1285h27l-408 -1285h-277zM336 281l55 203h704l53 -203h-812zM717 1649l-275 360h287l163 -360h-175z" />
    <glyph glyph-name="Aacute" unicode="&#xc1;" horiz-adv-x="1484" 
d="M75 0l504 1466h322l508 -1466h-279l-397 1285h27l-408 -1285h-277zM336 281l55 203h704l53 -203h-812zM592 1649l163 360h287l-275 -360h-175z" />
    <glyph glyph-name="Acircumflex" unicode="&#xc2;" horiz-adv-x="1484" 
d="M75 0l504 1466h322l508 -1466h-279l-397 1285h27l-408 -1285h-277zM336 281l55 203h704l53 -203h-812zM377 1637l270 343h190l270 -343h-166l-238 213h79l-240 -213h-165z" />
    <glyph glyph-name="Atilde" unicode="&#xc3;" horiz-adv-x="1484" 
d="M75 0l504 1466h322l508 -1466h-279l-397 1285h27l-408 -1285h-277zM336 281l55 203h704l53 -203h-812zM863 1633q-60 0 -99.5 15.5t-66 36.5t-49.5 36.5t-52 15.5t-47.5 -21.5t-18.5 -67.5h-122q0 135 57.5 192.5t155.5 57.5q61 0 99.5 -16t64.5 -36.5t48 -36t50 -15.5
q31 0 51.5 21t20.5 67h121q0 -134 -57.5 -191.5t-155.5 -57.5z" />
    <glyph glyph-name="Adieresis" unicode="&#xc4;" horiz-adv-x="1484" 
d="M75 0l504 1466h322l508 -1466h-279l-397 1285h27l-408 -1285h-277zM336 281l55 203h704l53 -203h-812zM816 1672v215h246v-215h-246zM422 1672v215h245v-215h-245z" />
    <glyph glyph-name="Aring" unicode="&#xc5;" horiz-adv-x="1484" 
d="M75 0l504 1466h322l508 -1466h-279l-397 1285h27l-408 -1285h-277zM336 281l55 203h704l53 -203h-812zM742 1541q-119 0 -188.5 62.5t-69.5 179.5q0 115 69.5 177.5t188.5 62.5t188.5 -62.5t69.5 -177.5q0 -117 -69 -179.5t-189 -62.5zM742 1681q39 0 67.5 20.5
t28.5 80.5q0 59 -28.5 80.5t-68.5 21.5q-39 0 -67 -20.5t-28 -79.5q0 -61 28 -82t68 -21z" />
    <glyph glyph-name="AE" unicode="&#xc6;" horiz-adv-x="1785" 
d="M364 443l48 203h475v619h-172l-352 -1265l-275 1l435 1466h1127v-202h-513v-422h446v-192h-446v-450h523v-201h-773v443h-523z" />
    <glyph glyph-name="Ccedilla" unicode="&#xc7;" horiz-adv-x="1479" 
d="M774 -25q-192 0 -311.5 38t-183.5 106.5t-88 161.5t-24 204v480q0 113 23.5 208.5t87 166.5t183 110.5t312.5 39.5q181 0 293 -35.5t172 -101.5t81.5 -157.5t21.5 -203.5v-16l-257 -29v59q0 113 -28.5 172t-96.5 81t-186 22q-116 0 -191 -24t-112 -85t-37 -172v-546
q0 -110 37 -168t113 -79.5t193 -21.5t184 18.5t95.5 75t28.5 169.5v39h257v-21q0 -109 -20 -199t-78 -155t-171 -101t-298 -36zM623 -478v118h181q32 0 44 13.5t12 32.5v62q0 20 -14 33t-42 13h-93v236h121v-166l-49 46q122 0 175 -42t53 -130v-43q0 -71 -46 -122t-159 -51
h-183z" />
    <glyph glyph-name="Egrave" unicode="&#xc8;" horiz-adv-x="1281" 
d="M199 1466h946v-199h-681v-420h603v-193h-603v-455h692v-199h-957v1466zM648 1649l-275 360h287l163 -360h-175z" />
    <glyph glyph-name="Eacute" unicode="&#xc9;" horiz-adv-x="1281" 
d="M199 1466h946v-199h-681v-420h603v-193h-603v-455h692v-199h-957v1466zM523 1649l163 360h287l-275 -360h-175z" />
    <glyph glyph-name="Ecircumflex" unicode="&#xca;" horiz-adv-x="1281" 
d="M199 1466h946v-199h-681v-420h603v-193h-603v-455h692v-199h-957v1466zM309 1637l270 343h190l270 -343h-166l-238 213h79l-240 -213h-165z" />
    <glyph glyph-name="Edieresis" unicode="&#xcb;" horiz-adv-x="1281" 
d="M199 1466h946v-199h-681v-420h603v-193h-603v-455h692v-199h-957v1466zM747 1672v215h246v-215h-246zM353 1672v215h245v-215h-245z" />
    <glyph glyph-name="Igrave" unicode="&#xcc;" horiz-adv-x="1143" 
d="M169 198h271v1071h-271v197h805v-197h-270v-1071h270v-198h-805v198zM546 1649l-275 360h287l163 -360h-175z" />
    <glyph glyph-name="Iacute" unicode="&#xcd;" horiz-adv-x="1143" 
d="M169 198h271v1071h-271v197h805v-197h-270v-1071h270v-198h-805v198zM421 1649l163 360h287l-275 -360h-175z" />
    <glyph glyph-name="Icircumflex" unicode="&#xce;" horiz-adv-x="1143" 
d="M169 198h271v1071h-271v197h805v-197h-270v-1071h270v-198h-805v198zM207 1637l270 343h190l270 -343h-166l-238 213h79l-240 -213h-165z" />
    <glyph glyph-name="Idieresis" unicode="&#xcf;" horiz-adv-x="1143" 
d="M169 198h271v1071h-271v197h805v-197h-270v-1071h270v-198h-805v198zM645 1672v215h246v-215h-246zM251 1672v215h245v-215h-245z" />
    <glyph glyph-name="Eth" unicode="&#xd0;" horiz-adv-x="1530" 
d="M199 0v1466h618q210 0 328.5 -67t168 -181.5t49.5 -257.5v-461q0 -150 -53 -262.5t-172 -174.5t-319 -62h-620zM465 204h330q104 0 171 24.5t99.5 82t32.5 156.5v523q0 98 -33 157.5t-100 87t-170 27.5h-330v-1058zM13 702v146h689v-146h-689z" />
    <glyph glyph-name="Ntilde" unicode="&#xd1;" horiz-adv-x="1621" 
d="M199 1466h200l814 -1096l-27 -9v1105h235v-1466h-208l-803 1068l26 9v-1077h-237v1466zM931 1633q-60 0 -99.5 15.5t-66 36.5t-49.5 36.5t-52 15.5t-47.5 -21.5t-18.5 -67.5h-122q0 135 57.5 192.5t155.5 57.5q61 0 99.5 -16t64.5 -36.5t48 -36t50 -15.5q31 0 51.5 21
t20.5 67h121q0 -134 -57.5 -191.5t-155.5 -57.5z" />
    <glyph glyph-name="Ograve" unicode="&#xd2;" horiz-adv-x="1586" 
d="M803 -25q-193 0 -317 40t-193 110.5t-96.5 165.5t-27.5 205v460q0 113 27 210t96 170t193 113.5t318 40.5q186 0 306 -43t187.5 -118.5t94 -175t26.5 -212.5v-430q0 -109 -27 -206t-94.5 -171t-187 -116.5t-305.5 -42.5zM803 185q118 0 195 23.5t115.5 84.5t38.5 171v531
q0 109 -38.5 171t-116 88.5t-194.5 26.5q-115 0 -198 -25.5t-126.5 -88t-43.5 -172.5v-531q0 -110 43 -171t126 -84.5t199 -23.5zM768 1649l-275 360h287l163 -360h-175z" />
    <glyph glyph-name="Oacute" unicode="&#xd3;" horiz-adv-x="1586" 
d="M803 -25q-193 0 -317 40t-193 110.5t-96.5 165.5t-27.5 205v460q0 113 27 210t96 170t193 113.5t318 40.5q186 0 306 -43t187.5 -118.5t94 -175t26.5 -212.5v-430q0 -109 -27 -206t-94.5 -171t-187 -116.5t-305.5 -42.5zM803 185q118 0 195 23.5t115.5 84.5t38.5 171v531
q0 109 -38.5 171t-116 88.5t-194.5 26.5q-115 0 -198 -25.5t-126.5 -88t-43.5 -172.5v-531q0 -110 43 -171t126 -84.5t199 -23.5zM643 1649l163 360h287l-275 -360h-175z" />
    <glyph glyph-name="Ocircumflex" unicode="&#xd4;" horiz-adv-x="1586" 
d="M803 -25q-193 0 -317 40t-193 110.5t-96.5 165.5t-27.5 205v460q0 113 27 210t96 170t193 113.5t318 40.5q186 0 306 -43t187.5 -118.5t94 -175t26.5 -212.5v-430q0 -109 -27 -206t-94.5 -171t-187 -116.5t-305.5 -42.5zM803 185q118 0 195 23.5t115.5 84.5t38.5 171v531
q0 109 -38.5 171t-116 88.5t-194.5 26.5q-115 0 -198 -25.5t-126.5 -88t-43.5 -172.5v-531q0 -110 43 -171t126 -84.5t199 -23.5zM428 1637l270 343h190l270 -343h-166l-238 213h79l-240 -213h-165z" />
    <glyph glyph-name="Otilde" unicode="&#xd5;" horiz-adv-x="1586" 
d="M803 -25q-193 0 -317 40t-193 110.5t-96.5 165.5t-27.5 205v460q0 113 27 210t96 170t193 113.5t318 40.5q186 0 306 -43t187.5 -118.5t94 -175t26.5 -212.5v-430q0 -109 -27 -206t-94.5 -171t-187 -116.5t-305.5 -42.5zM803 185q118 0 195 23.5t115.5 84.5t38.5 171v531
q0 109 -38.5 171t-116 88.5t-194.5 26.5q-115 0 -198 -25.5t-126.5 -88t-43.5 -172.5v-531q0 -110 43 -171t126 -84.5t199 -23.5zM914 1633q-60 0 -99.5 15.5t-66 36.5t-49.5 36.5t-52 15.5t-47.5 -21.5t-18.5 -67.5h-122q0 135 57.5 192.5t155.5 57.5q61 0 99.5 -16
t64.5 -36.5t48 -36t50 -15.5q31 0 51.5 21t20.5 67h121q0 -134 -57.5 -191.5t-155.5 -57.5z" />
    <glyph glyph-name="Odieresis" unicode="&#xd6;" horiz-adv-x="1586" 
d="M803 -25q-193 0 -317 40t-193 110.5t-96.5 165.5t-27.5 205v460q0 113 27 210t96 170t193 113.5t318 40.5q186 0 306 -43t187.5 -118.5t94 -175t26.5 -212.5v-430q0 -109 -27 -206t-94.5 -171t-187 -116.5t-305.5 -42.5zM803 185q118 0 195 23.5t115.5 84.5t38.5 171v531
q0 109 -38.5 171t-116 88.5t-194.5 26.5q-115 0 -198 -25.5t-126.5 -88t-43.5 -172.5v-531q0 -110 43 -171t126 -84.5t199 -23.5zM867 1672v215h246v-215h-246zM473 1672v215h245v-215h-245z" />
    <glyph glyph-name="multiply" unicode="&#xd7;" horiz-adv-x="985" 
d="M135 344l238 232l-238 230l111 131l248 -243l248 243l109 -131l-236 -230l236 -232l-109 -128l-248 242l-248 -242z" />
    <glyph glyph-name="Oslash" unicode="&#xd8;" horiz-adv-x="1586" 
d="M409 -157l691 1833l104 -38l-692 -1833zM803 -25q-193 0 -317 40t-193 110.5t-96.5 165.5t-27.5 205v460q0 113 27 210t96 170t193 113.5t318 40.5q186 0 306 -43t187.5 -118.5t94 -175t26.5 -212.5v-430q0 -109 -27 -206t-94.5 -171t-187 -116.5t-305.5 -42.5zM803 185
q118 0 195 23.5t115.5 84.5t38.5 171v531q0 109 -38.5 171t-116 88.5t-194.5 26.5q-115 0 -198 -25.5t-126.5 -88t-43.5 -172.5v-531q0 -110 43 -171t126 -84.5t199 -23.5z" />
    <glyph glyph-name="Ugrave" unicode="&#xd9;" horiz-adv-x="1562" 
d="M790 -25q-185 0 -303.5 38t-184.5 105t-92 157t-26 195v997h265v-1013q0 -109 43 -167.5t120 -80t178 -21.5q104 0 175.5 22t109.5 80.5t38 166.5v1013h265v-989q0 -104 -25 -195t-88 -160.5t-178 -108.5t-297 -39zM756 1649l-275 360h287l163 -360h-175z" />
    <glyph glyph-name="Uacute" unicode="&#xda;" horiz-adv-x="1562" 
d="M790 -25q-185 0 -303.5 38t-184.5 105t-92 157t-26 195v997h265v-1013q0 -109 43 -167.5t120 -80t178 -21.5q104 0 175.5 22t109.5 80.5t38 166.5v1013h265v-989q0 -104 -25 -195t-88 -160.5t-178 -108.5t-297 -39zM631 1649l163 360h287l-275 -360h-175z" />
    <glyph glyph-name="Ucircumflex" unicode="&#xdb;" horiz-adv-x="1562" 
d="M790 -25q-185 0 -303.5 38t-184.5 105t-92 157t-26 195v997h265v-1013q0 -109 43 -167.5t120 -80t178 -21.5q104 0 175.5 22t109.5 80.5t38 166.5v1013h265v-989q0 -104 -25 -195t-88 -160.5t-178 -108.5t-297 -39zM416 1637l270 343h190l270 -343h-166l-238 213h79
l-240 -213h-165z" />
    <glyph glyph-name="Udieresis" unicode="&#xdc;" horiz-adv-x="1562" 
d="M790 -25q-185 0 -303.5 38t-184.5 105t-92 157t-26 195v997h265v-1013q0 -109 43 -167.5t120 -80t178 -21.5q104 0 175.5 22t109.5 80.5t38 166.5v1013h265v-989q0 -104 -25 -195t-88 -160.5t-178 -108.5t-297 -39zM855 1672v215h246v-215h-246zM461 1672v215h245v-215
h-245z" />
    <glyph glyph-name="Yacute" unicode="&#xdd;" horiz-adv-x="1309" 
d="M526 567l-510 899h280l386 -696h-44l386 696h269l-503 -899v-567h-264v567zM504 1649l163 360h287l-275 -360h-175z" />
    <glyph glyph-name="Thorn" unicode="&#xde;" horiz-adv-x="1348" 
d="M215 1466h265v-237h320q150 0 248.5 -38.5t147.5 -132.5t49 -260q0 -171 -45 -269.5t-147 -139.5t-272 -41h-301v-348h-265v1466zM814 539q79 0 118.5 26.5t53 80.5t13.5 138q0 75 -12.5 133t-50.5 90.5t-115 32.5h-341v-501h334z" />
    <glyph glyph-name="germandbls" unicode="&#xdf;" horiz-adv-x="1284" 
d="M157 0v1112q0 150 65 233t177 116t253 33q228 0 335.5 -95t107.5 -255q0 -129 -50.5 -201.5t-158.5 -91.5v42q50 -5 104.5 -27t101 -68.5t76 -123.5t29.5 -192q0 -183 -63 -290t-197.5 -153t-350.5 -46l-22 183q89 2 160 15t120 44.5t75 89t26 147.5q0 119 -38.5 177.5
t-113 77t-181.5 18.5v174q91 0 142 21t72.5 66.5t21.5 119.5q0 75 -24.5 116.5t-70 58t-109.5 16.5q-66 0 -115 -17t-76 -57.5t-27 -109.5v-1133h-269z" />
    <glyph glyph-name="agrave" unicode="&#xe0;" horiz-adv-x="1173" 
d="M437 -23q-100 0 -171.5 37.5t-109 104t-37.5 150.5q0 78 31 135.5t115 106t242 96.5q85 27 139 49t79 50t25 72q0 43 -15.5 74t-54 48t-107.5 17q-81 0 -121.5 -19.5t-54 -52.5t-13.5 -76v-43h-230v37q0 156 104.5 242t320.5 86q154 0 244 -44.5t129.5 -126t39.5 -191.5
v-434q0 -77 19.5 -100t75.5 -23l-15 -180h-51q-110 0 -167 34.5t-84 102.5q-27 -37 -73 -72t-110.5 -57.5t-149.5 -22.5zM505 145q41 0 90 16.5t91.5 46.5t63.5 72v275q-25 -22 -82.5 -51.5t-136.5 -56.5q-100 -33 -138 -72t-38 -94q0 -70 39 -103t111 -33zM559 1249
l-238 360h253l127 -360h-142z" />
    <glyph glyph-name="aacute" unicode="&#xe1;" horiz-adv-x="1173" 
d="M437 -23q-100 0 -171.5 37.5t-109 104t-37.5 150.5q0 78 31 135.5t115 106t242 96.5q85 27 139 49t79 50t25 72q0 43 -15.5 74t-54 48t-107.5 17q-81 0 -121.5 -19.5t-54 -52.5t-13.5 -76v-43h-230v37q0 156 104.5 242t320.5 86q154 0 244 -44.5t129.5 -126t39.5 -191.5
v-434q0 -77 19.5 -100t75.5 -23l-15 -180h-51q-110 0 -167 34.5t-84 102.5q-27 -37 -73 -72t-110.5 -57.5t-149.5 -22.5zM505 145q41 0 90 16.5t91.5 46.5t63.5 72v275q-25 -22 -82.5 -51.5t-136.5 -56.5q-100 -33 -138 -72t-38 -94q0 -70 39 -103t111 -33zM447 1248
l127 360h253l-238 -360h-142z" />
    <glyph glyph-name="acircumflex" unicode="&#xe2;" horiz-adv-x="1173" 
d="M437 -23q-100 0 -171.5 37.5t-109 104t-37.5 150.5q0 78 31 135.5t115 106t242 96.5q85 27 139 49t79 50t25 72q0 43 -15.5 74t-54 48t-107.5 17q-81 0 -121.5 -19.5t-54 -52.5t-13.5 -76v-43h-230v37q0 156 104.5 242t320.5 86q154 0 244 -44.5t129.5 -126t39.5 -191.5
v-434q0 -77 19.5 -100t75.5 -23l-15 -180h-51q-110 0 -167 34.5t-84 102.5q-27 -37 -73 -72t-110.5 -57.5t-149.5 -22.5zM505 145q41 0 90 16.5t91.5 46.5t63.5 72v275q-25 -22 -82.5 -51.5t-136.5 -56.5q-100 -33 -138 -72t-38 -94q0 -70 39 -103t111 -33zM210 1249
l270 357h190l270 -357h-166l-238 227h79l-240 -227h-165z" />
    <glyph glyph-name="atilde" unicode="&#xe3;" horiz-adv-x="1173" 
d="M437 -23q-100 0 -171.5 37.5t-109 104t-37.5 150.5q0 78 31 135.5t115 106t242 96.5q85 27 139 49t79 50t25 72q0 43 -15.5 74t-54 48t-107.5 17q-81 0 -121.5 -19.5t-54 -52.5t-13.5 -76v-43h-230v37q0 156 104.5 242t320.5 86q154 0 244 -44.5t129.5 -126t39.5 -191.5
v-434q0 -77 19.5 -100t75.5 -23l-15 -180h-51q-110 0 -167 34.5t-84 102.5q-27 -37 -73 -72t-110.5 -57.5t-149.5 -22.5zM505 145q41 0 90 16.5t91.5 46.5t63.5 72v275q-25 -22 -82.5 -51.5t-136.5 -56.5q-100 -33 -138 -72t-38 -94q0 -70 39 -103t111 -33zM694 1285
q-60 0 -99.5 15.5t-66 36.5t-49.5 36.5t-52 15.5t-47.5 -21t-18.5 -68h-122q0 135 57.5 192.5t155.5 57.5q61 0 99.5 -15.5t64.5 -36t48 -36.5t50 -16q31 0 51.5 21t20.5 68h121q0 -135 -57.5 -192.5t-155.5 -57.5z" />
    <glyph glyph-name="adieresis" unicode="&#xe4;" horiz-adv-x="1173" 
d="M437 -23q-100 0 -171.5 37.5t-109 104t-37.5 150.5q0 78 31 135.5t115 106t242 96.5q85 27 139 49t79 50t25 72q0 43 -15.5 74t-54 48t-107.5 17q-81 0 -121.5 -19.5t-54 -52.5t-13.5 -76v-43h-230v37q0 156 104.5 242t320.5 86q154 0 244 -44.5t129.5 -126t39.5 -191.5
v-434q0 -77 19.5 -100t75.5 -23l-15 -180h-51q-110 0 -167 34.5t-84 102.5q-27 -37 -73 -72t-110.5 -57.5t-149.5 -22.5zM505 145q41 0 90 16.5t91.5 46.5t63.5 72v275q-25 -22 -82.5 -51.5t-136.5 -56.5q-100 -33 -138 -72t-38 -94q0 -70 39 -103t111 -33zM648 1295v215
h246v-215h-246zM254 1295v215h245v-215h-245z" />
    <glyph glyph-name="aring" unicode="&#xe5;" horiz-adv-x="1173" 
d="M437 -23q-100 0 -171.5 37.5t-109 104t-37.5 150.5q0 78 31 135.5t115 106t242 96.5q85 27 139 49t79 50t25 72q0 43 -15.5 74t-54 48t-107.5 17q-81 0 -121.5 -19.5t-54 -52.5t-13.5 -76v-43h-230v37q0 156 104.5 242t320.5 86q154 0 244 -44.5t129.5 -126t39.5 -191.5
v-434q0 -77 19.5 -100t75.5 -23l-15 -180h-51q-110 0 -167 34.5t-84 102.5q-27 -37 -73 -72t-110.5 -57.5t-149.5 -22.5zM505 145q41 0 90 16.5t91.5 46.5t63.5 72v275q-25 -22 -82.5 -51.5t-136.5 -56.5q-100 -33 -138 -72t-38 -94q0 -70 39 -103t111 -33zM574 1189
q-119 0 -188.5 63t-69.5 179t69.5 178t188.5 62t188.5 -62t69.5 -178t-69 -179t-189 -63zM574 1330q39 0 67.5 20.5t28.5 80.5q0 58 -28.5 80t-68.5 22q-39 0 -67 -21t-28 -80q0 -60 28 -81t68 -21z" />
    <glyph glyph-name="ae" unicode="&#xe6;" horiz-adv-x="1736" 
d="M436 -22q-98 0 -169 37.5t-109 104.5t-40 153q-1 56 9.5 102.5t46 86.5t108.5 72.5t196 59.5q108 24 168 38.5t84 42.5t24 92q0 66 -38 109t-142 43q-80 0 -121.5 -24t-55 -62t-13.5 -82v-32h-231v26q0 158 104.5 252t321.5 94q102 0 185.5 -32.5t116.5 -100.5
q52 68 130 100.5t179 32.5q155 0 249 -41.5t137 -118t43 -182.5v-236h-620v-190q0 -94 48.5 -133t142.5 -39q69 0 112 11.5t64.5 52t24.5 126.5h225q-6 -147 -52.5 -225.5t-139 -108t-237.5 -29.5q-142 0 -225 50t-117 142l38 -3q-55 -58 -116 -100t-140 -65.5t-191 -23.5z
M511 142q41 0 89.5 13t90.5 40.5t63 68.5v269q-8 -10 -35.5 -22t-74.5 -25t-115 -28q-108 -23 -142.5 -69.5t-33.5 -100.5q1 -72 43.5 -109t114.5 -37zM999 648h394v121q0 92 -54 120t-145 28q-92 0 -143.5 -33.5t-51.5 -123.5v-112z" />
    <glyph glyph-name="ccedilla" unicode="&#xe7;" horiz-adv-x="1109" 
d="M575 -23q-175 0 -271 49.5t-134 130.5t-38 176v421q0 157 116 247t323 90q139 0 235 -33.5t146.5 -116.5t50.5 -234l-230 -19q0 98 -17 146.5t-59 65.5t-118 17q-98 0 -150.5 -37.5t-52.5 -127.5v-428q0 -95 51.5 -133t151.5 -38q78 0 119.5 14.5t57.5 58t19 131.5h227
q-3 -140 -42 -223t-131 -120t-254 -37zM423 -478v118h181q32 0 44 13.5t12 32.5v62q0 20 -14 33t-42 13h-93v236h121v-166l-49 46q122 0 175 -42t53 -130v-43q0 -71 -46 -122t-159 -51h-183z" />
    <glyph glyph-name="egrave" unicode="&#xe8;" horiz-adv-x="1145" 
d="M132 349v402q0 159 117.5 249.5t332.5 90.5q238 0 342 -91.5t104 -250.5v-257h-652v-166q0 -107 50 -141t164 -34q82 0 127 11.5t64.5 46t21.5 105.5h224q-5 -130 -51.5 -203.5t-142.5 -103.5t-246 -30q-140 0 -242.5 36.5t-157.5 118t-55 217.5zM796 645v132
q0 62 -27 91.5t-74 39t-108 9.5q-92 0 -151.5 -29.5t-59.5 -119.5v-123h420zM574 1249l-238 360h253l127 -360h-142z" />
    <glyph glyph-name="eacute" unicode="&#xe9;" horiz-adv-x="1145" 
d="M132 349v402q0 159 117.5 249.5t332.5 90.5q238 0 342 -91.5t104 -250.5v-257h-652v-166q0 -107 50 -141t164 -34q82 0 127 11.5t64.5 46t21.5 105.5h224q-5 -130 -51.5 -203.5t-142.5 -103.5t-246 -30q-140 0 -242.5 36.5t-157.5 118t-55 217.5zM796 645v132
q0 62 -27 91.5t-74 39t-108 9.5q-92 0 -151.5 -29.5t-59.5 -119.5v-123h420zM462 1248l127 360h253l-238 -360h-142z" />
    <glyph glyph-name="ecircumflex" unicode="&#xea;" horiz-adv-x="1145" 
d="M132 349v402q0 159 117.5 249.5t332.5 90.5q238 0 342 -91.5t104 -250.5v-257h-652v-166q0 -107 50 -141t164 -34q82 0 127 11.5t64.5 46t21.5 105.5h224q-5 -130 -51.5 -203.5t-142.5 -103.5t-246 -30q-140 0 -242.5 36.5t-157.5 118t-55 217.5zM796 645v132
q0 62 -27 91.5t-74 39t-108 9.5q-92 0 -151.5 -29.5t-59.5 -119.5v-123h420zM225 1249l270 357h190l270 -357h-166l-238 227h79l-240 -227h-165z" />
    <glyph glyph-name="edieresis" unicode="&#xeb;" horiz-adv-x="1145" 
d="M132 349v402q0 159 117.5 249.5t332.5 90.5q238 0 342 -91.5t104 -250.5v-257h-652v-166q0 -107 50 -141t164 -34q82 0 127 11.5t64.5 46t21.5 105.5h224q-5 -130 -51.5 -203.5t-142.5 -103.5t-246 -30q-140 0 -242.5 36.5t-157.5 118t-55 217.5zM796 645v132
q0 62 -27 91.5t-74 39t-108 9.5q-92 0 -151.5 -29.5t-59.5 -119.5v-123h420zM663 1295v215h246v-215h-246zM269 1295v215h245v-215h-245z" />
    <glyph glyph-name="igrave" unicode="&#xec;" horiz-adv-x="533" 
d="M145 1069h243v-1069h-243v1069zM251 1249l-238 360h253l127 -360h-142z" />
    <glyph glyph-name="iacute" unicode="&#xed;" horiz-adv-x="533" 
d="M145 1069h243v-1069h-243v1069zM139 1248l127 360h253l-238 -360h-142z" />
    <glyph glyph-name="icircumflex" unicode="&#xee;" horiz-adv-x="513" 
d="M-55 1242l230 356h190l230 -356h-165l-199 226h79l-199 -226h-166zM145 1069h243v-1069h-243v1069z" />
    <glyph glyph-name="idieresis" unicode="&#xef;" horiz-adv-x="533" 
d="M145 1069h243v-1069h-243v1069zM340 1295v215h246v-215h-246zM-54 1295v215h245v-215h-245z" />
    <glyph glyph-name="eth" unicode="&#xf0;" horiz-adv-x="1223" 
d="M623 -22q-236 0 -349 97t-113 258v321q0 109 54.5 187t150 119.5t216.5 41.5q87 0 147.5 -19.5t83.5 -38.5q-12 139 -67 226.5t-145 120.5l-106 -184l-111 55l95 164q-67 15 -128 20t-126 5l26 154q84 0 153 -6t158 -22l92 165l111 -55l-82 -146q122 -43 212.5 -148.5
t140.5 -264t50 -359.5v-241q0 -90 -20.5 -171.5t-72 -144t-141.5 -98.5t-229 -36zM623 159q93 0 140.5 25t64 79.5t16.5 141.5q0 47 -1.5 109.5t-5 131t-8.5 132.5q-22 15 -56.5 27.5t-73.5 20t-76 7.5q-94 0 -156.5 -41.5t-62.5 -139.5v-327q0 -92 57 -129t162 -37z" />
    <glyph glyph-name="ntilde" unicode="&#xf1;" horiz-adv-x="1245" 
d="M169 1069h244v-97q57 53 132 86.5t192 33.5q124 0 200.5 -44t112 -116.5t35.5 -161.5v-770h-244v764q0 55 -29 86.5t-75 44.5t-96 13q-64 0 -115.5 -20t-82 -57t-30.5 -89v-742h-244v1069zM764 1285q-60 0 -99.5 15.5t-66 36.5t-49.5 36.5t-52 15.5t-47.5 -21t-18.5 -68
h-122q0 135 57.5 192.5t155.5 57.5q61 0 99.5 -15.5t64.5 -36t48 -36.5t50 -16q31 0 51.5 21t20.5 68h121q0 -135 -57.5 -192.5t-155.5 -57.5z" />
    <glyph glyph-name="ograve" unicode="&#xf2;" horiz-adv-x="1178" 
d="M589 -23q-166 0 -266.5 43t-145.5 120.5t-45 181.5v424q0 106 51 183.5t153 119.5t253 42t252.5 -42t153 -119.5t51.5 -183.5v-424q0 -104 -44 -181.5t-144 -120.5t-269 -43zM589 151q95 0 154 35t59 122v451q0 88 -57.5 123t-155.5 35q-96 0 -154.5 -35t-58.5 -123v-451
q0 -87 56.5 -122t156.5 -35zM575 1249l-238 360h253l127 -360h-142z" />
    <glyph glyph-name="oacute" unicode="&#xf3;" horiz-adv-x="1178" 
d="M589 -23q-166 0 -266.5 43t-145.5 120.5t-45 181.5v424q0 106 51 183.5t153 119.5t253 42t252.5 -42t153 -119.5t51.5 -183.5v-424q0 -104 -44 -181.5t-144 -120.5t-269 -43zM589 151q95 0 154 35t59 122v451q0 88 -57.5 123t-155.5 35q-96 0 -154.5 -35t-58.5 -123v-451
q0 -87 56.5 -122t156.5 -35zM463 1248l127 360h253l-238 -360h-142z" />
    <glyph glyph-name="ocircumflex" unicode="&#xf4;" horiz-adv-x="1178" 
d="M589 -23q-166 0 -266.5 43t-145.5 120.5t-45 181.5v424q0 106 51 183.5t153 119.5t253 42t252.5 -42t153 -119.5t51.5 -183.5v-424q0 -104 -44 -181.5t-144 -120.5t-269 -43zM589 151q95 0 154 35t59 122v451q0 88 -57.5 123t-155.5 35q-96 0 -154.5 -35t-58.5 -123v-451
q0 -87 56.5 -122t156.5 -35zM226 1249l270 357h190l270 -357h-166l-238 227h79l-240 -227h-165z" />
    <glyph glyph-name="otilde" unicode="&#xf5;" horiz-adv-x="1178" 
d="M589 -23q-166 0 -266.5 43t-145.5 120.5t-45 181.5v424q0 106 51 183.5t153 119.5t253 42t252.5 -42t153 -119.5t51.5 -183.5v-424q0 -104 -44 -181.5t-144 -120.5t-269 -43zM589 151q95 0 154 35t59 122v451q0 88 -57.5 123t-155.5 35q-96 0 -154.5 -35t-58.5 -123v-451
q0 -87 56.5 -122t156.5 -35zM710 1285q-60 0 -99.5 15.5t-66 36.5t-49.5 36.5t-52 15.5t-47.5 -21t-18.5 -68h-122q0 135 57.5 192.5t155.5 57.5q61 0 99.5 -15.5t64.5 -36t48 -36.5t50 -16q31 0 51.5 21t20.5 68h121q0 -135 -57.5 -192.5t-155.5 -57.5z" />
    <glyph glyph-name="odieresis" unicode="&#xf6;" horiz-adv-x="1178" 
d="M589 -23q-166 0 -266.5 43t-145.5 120.5t-45 181.5v424q0 106 51 183.5t153 119.5t253 42t252.5 -42t153 -119.5t51.5 -183.5v-424q0 -104 -44 -181.5t-144 -120.5t-269 -43zM589 151q95 0 154 35t59 122v451q0 88 -57.5 123t-155.5 35q-96 0 -154.5 -35t-58.5 -123v-451
q0 -87 56.5 -122t156.5 -35zM664 1295v215h246v-215h-246zM270 1295v215h245v-215h-245z" />
    <glyph glyph-name="divide" unicode="&#xf7;" horiz-adv-x="985" 
d="M142 489v158h701v-158h-701zM383 108v222h220v-222h-220zM383 806v222h220v-222h-220z" />
    <glyph glyph-name="oslash" unicode="&#xf8;" horiz-adv-x="1178" 
d="M276 -190l534 1465l91 -28l-532 -1465zM589 -23q-166 0 -266.5 43t-145.5 120.5t-45 181.5v424q0 106 51 183.5t153 119.5t253 42t252.5 -42t153 -119.5t51.5 -183.5v-424q0 -104 -44 -181.5t-144 -120.5t-269 -43zM589 151q95 0 154 35t59 122v451q0 88 -57.5 123
t-155.5 35q-96 0 -154.5 -35t-58.5 -123v-451q0 -87 56.5 -122t156.5 -35z" />
    <glyph glyph-name="ugrave" unicode="&#xf9;" horiz-adv-x="1242" 
d="M504 -23q-112 0 -188.5 42t-116 113t-39.5 159v778h244v-749q0 -55 27.5 -90t71.5 -51.5t94 -16.5q64 0 116.5 20.5t84 60t31.5 93.5v733h244v-1069h-226l-12 123q-35 -68 -126.5 -107t-204.5 -39zM608 1249l-238 360h253l127 -360h-142z" />
    <glyph glyph-name="uacute" unicode="&#xfa;" horiz-adv-x="1242" 
d="M504 -23q-112 0 -188.5 42t-116 113t-39.5 159v778h244v-749q0 -55 27.5 -90t71.5 -51.5t94 -16.5q64 0 116.5 20.5t84 60t31.5 93.5v733h244v-1069h-226l-12 123q-35 -68 -126.5 -107t-204.5 -39zM496 1248l127 360h253l-238 -360h-142z" />
    <glyph glyph-name="ucircumflex" unicode="&#xfb;" horiz-adv-x="1242" 
d="M504 -23q-112 0 -188.5 42t-116 113t-39.5 159v778h244v-749q0 -55 27.5 -90t71.5 -51.5t94 -16.5q64 0 116.5 20.5t84 60t31.5 93.5v733h244v-1069h-226l-12 123q-35 -68 -126.5 -107t-204.5 -39zM259 1249l270 357h190l270 -357h-166l-238 227h79l-240 -227h-165z" />
    <glyph glyph-name="udieresis" unicode="&#xfc;" horiz-adv-x="1242" 
d="M504 -23q-112 0 -188.5 42t-116 113t-39.5 159v778h244v-749q0 -55 27.5 -90t71.5 -51.5t94 -16.5q64 0 116.5 20.5t84 60t31.5 93.5v733h244v-1069h-226l-12 123q-35 -68 -126.5 -107t-204.5 -39zM697 1295v215h246v-215h-246zM303 1295v215h245v-215h-245z" />
    <glyph glyph-name="yacute" unicode="&#xfd;" horiz-adv-x="1108" 
d="M165 -459l-14 199q105 10 177 65.5t119 174.5l27 68l17 -90l-443 1111h245l337 -898h-90l283 898h243l-382 -1094q-76 -217 -200 -317.5t-319 -116.5zM429 1248l127 360h253l-238 -360h-142z" />
    <glyph glyph-name="thorn" unicode="&#xfe;" horiz-adv-x="1202" 
d="M167 1513h244v-491q47 29 112 48t138 19q197 0 303 -95.5t106 -249.5v-412q0 -97 -48.5 -178t-145.5 -129.5t-245 -48.5q-72 0 -126 14.5t-94 32.5v-432h-244v1922zM613 149q98 0 155.5 42.5t57.5 129.5v430q0 85 -57 124.5t-148 39.5q-51 0 -93.5 -14t-72.5 -32.5
t-44 -33.5v-633q32 -20 79.5 -36.5t122.5 -16.5z" />
    <glyph glyph-name="ydieresis" unicode="&#xff;" horiz-adv-x="1108" 
d="M165 -459l-14 199q105 10 177 65.5t119 174.5l27 68l17 -90l-443 1111h245l337 -898h-90l283 898h243l-382 -1094q-76 -217 -200 -317.5t-319 -116.5zM630 1295v215h246v-215h-246zM236 1295v215h245v-215h-245z" />
    <glyph glyph-name="Amacron" unicode="&#x100;" horiz-adv-x="1484" 
d="M75 0l504 1466h322l508 -1466h-279l-397 1285h27l-408 -1285h-277zM336 281l55 203h704l53 -203h-812zM430 1711v163h624v-163h-624z" />
    <glyph glyph-name="amacron" unicode="&#x101;" horiz-adv-x="1173" 
d="M437 -23q-100 0 -171.5 37.5t-109 104t-37.5 150.5q0 78 31 135.5t115 106t242 96.5q85 27 139 49t79 50t25 72q0 43 -15.5 74t-54 48t-107.5 17q-81 0 -121.5 -19.5t-54 -52.5t-13.5 -76v-43h-230v37q0 156 104.5 242t320.5 86q154 0 244 -44.5t129.5 -126t39.5 -191.5
v-434q0 -77 19.5 -100t75.5 -23l-15 -180h-51q-110 0 -167 34.5t-84 102.5q-27 -37 -73 -72t-110.5 -57.5t-149.5 -22.5zM505 145q41 0 90 16.5t91.5 46.5t63.5 72v275q-25 -22 -82.5 -51.5t-136.5 -56.5q-100 -33 -138 -72t-38 -94q0 -70 39 -103t111 -33zM295 1326v163
h558v-163h-558z" />
    <glyph glyph-name="Abreve" unicode="&#x102;" horiz-adv-x="1484" 
d="M75 0l504 1466h322l508 -1466h-279l-397 1285h27l-408 -1285h-277zM336 281l55 203h704l53 -203h-812zM742 1644q-150 0 -238 81.5t-88 242.5h178q0 -65 35 -100.5t113 -35.5t113 35.5t35 100.5h178q0 -161 -88 -242.5t-238 -81.5z" />
    <glyph glyph-name="abreve" unicode="&#x103;" horiz-adv-x="1173" 
d="M437 -23q-100 0 -171.5 37.5t-109 104t-37.5 150.5q0 78 31 135.5t115 106t242 96.5q85 27 139 49t79 50t25 72q0 43 -15.5 74t-54 48t-107.5 17q-81 0 -121.5 -19.5t-54 -52.5t-13.5 -76v-43h-230v37q0 156 104.5 242t320.5 86q154 0 244 -44.5t129.5 -126t39.5 -191.5
v-434q0 -77 19.5 -100t75.5 -23l-15 -180h-51q-110 0 -167 34.5t-84 102.5q-27 -37 -73 -72t-110.5 -57.5t-149.5 -22.5zM505 145q41 0 90 16.5t91.5 46.5t63.5 72v275q-25 -22 -82.5 -51.5t-136.5 -56.5q-100 -33 -138 -72t-38 -94q0 -70 39 -103t111 -33zM574 1251
q-93 0 -167 35t-116.5 110.5t-42.5 195.5h159q0 -78 42.5 -127.5t124.5 -49.5t124 49.5t42 127.5h160q0 -120 -42.5 -195.5t-116.5 -110.5t-167 -35z" />
    <glyph glyph-name="Aogonek" unicode="&#x104;" horiz-adv-x="1484" 
d="M75 0l504 1466h322l508 -1466h-279l-397 1285h27l-408 -1285h-277zM336 281l55 203h704l53 -203h-812zM1364 -474q-136 0 -201 52.5t-65 154.5q0 70 53.5 149t135.5 128l122 -10q-60 -51 -97.5 -106t-37.5 -112q0 -52 29.5 -80t91.5 -28h44l-13 -148h-62z" />
    <glyph glyph-name="aogonek" unicode="&#x105;" horiz-adv-x="1173" 
d="M437 -23q-100 0 -171.5 37.5t-109 104t-37.5 150.5q0 78 31 135.5t115 106t242 96.5q85 27 139 49t79 50t25 72q0 43 -15.5 74t-54 48t-107.5 17q-81 0 -121.5 -19.5t-54 -52.5t-13.5 -76v-43h-230v37q0 156 104.5 242t320.5 86q154 0 244 -44.5t129.5 -126t39.5 -191.5
v-434q0 -77 19.5 -100t75.5 -23l-15 -180h-51q-110 0 -167 34.5t-84 102.5q-27 -37 -73 -72t-110.5 -57.5t-149.5 -22.5zM505 145q41 0 90 16.5t91.5 46.5t63.5 72v275q-25 -22 -82.5 -51.5t-136.5 -56.5q-100 -33 -138 -72t-38 -94q0 -70 39 -103t111 -33zM1027 -482
q-136 0 -201 52.5t-65 154.5q0 70 53.5 149t135.5 128l122 -10q-60 -51 -97.5 -106t-37.5 -112q0 -52 29.5 -80t91.5 -28h44l-13 -148h-62z" />
    <glyph glyph-name="Cacute" unicode="&#x106;" horiz-adv-x="1479" 
d="M774 -25q-192 0 -311.5 38t-183.5 106.5t-88 161.5t-24 204v480q0 113 23.5 208.5t87 166.5t183 110.5t312.5 39.5q181 0 293 -35.5t172 -101.5t81.5 -157.5t21.5 -203.5v-16l-257 -29v59q0 113 -28.5 172t-96.5 81t-186 22q-116 0 -191 -24t-112 -85t-37 -172v-546
q0 -110 37 -168t113 -79.5t193 -21.5t184 18.5t95.5 75t28.5 169.5v39h257v-21q0 -109 -20 -199t-78 -155t-171 -101t-298 -36zM625 1649l163 360h287l-275 -360h-175z" />
    <glyph glyph-name="cacute" unicode="&#x107;" horiz-adv-x="1109" 
d="M575 -23q-175 0 -271 49.5t-134 130.5t-38 176v421q0 157 116 247t323 90q139 0 235 -33.5t146.5 -116.5t50.5 -234l-230 -19q0 98 -17 146.5t-59 65.5t-118 17q-98 0 -150.5 -37.5t-52.5 -127.5v-428q0 -95 51.5 -133t151.5 -38q78 0 119.5 14.5t57.5 58t19 131.5h227
q-3 -140 -42 -223t-131 -120t-254 -37zM447 1248l127 360h253l-238 -360h-142z" />
    <glyph glyph-name="Ccircumflex" unicode="&#x108;" horiz-adv-x="1479" 
d="M774 -25q-192 0 -311.5 38t-183.5 106.5t-88 161.5t-24 204v480q0 113 23.5 208.5t87 166.5t183 110.5t312.5 39.5q181 0 293 -35.5t172 -101.5t81.5 -157.5t21.5 -203.5v-16l-257 -29v59q0 113 -28.5 172t-96.5 81t-186 22q-116 0 -191 -24t-112 -85t-37 -172v-546
q0 -110 37 -168t113 -79.5t193 -21.5t184 18.5t95.5 75t28.5 169.5v39h257v-21q0 -109 -20 -199t-78 -155t-171 -101t-298 -36zM410 1637l270 343h190l270 -343h-166l-238 213h79l-240 -213h-165z" />
    <glyph glyph-name="ccircumflex" unicode="&#x109;" horiz-adv-x="1109" 
d="M575 -23q-175 0 -271 49.5t-134 130.5t-38 176v421q0 157 116 247t323 90q139 0 235 -33.5t146.5 -116.5t50.5 -234l-230 -19q0 98 -17 146.5t-59 65.5t-118 17q-98 0 -150.5 -37.5t-52.5 -127.5v-428q0 -95 51.5 -133t151.5 -38q78 0 119.5 14.5t57.5 58t19 131.5h227
q-3 -140 -42 -223t-131 -120t-254 -37zM210 1249l270 357h190l270 -357h-166l-238 227h79l-240 -227h-165z" />
    <glyph glyph-name="Cdotaccent" unicode="&#x10a;" horiz-adv-x="1479" 
d="M774 -25q-192 0 -311.5 38t-183.5 106.5t-88 161.5t-24 204v480q0 113 23.5 208.5t87 166.5t183 110.5t312.5 39.5q181 0 293 -35.5t172 -101.5t81.5 -157.5t21.5 -203.5v-16l-257 -29v59q0 113 -28.5 172t-96.5 81t-186 22q-116 0 -191 -24t-112 -85t-37 -172v-546
q0 -110 37 -168t113 -79.5t193 -21.5t184 18.5t95.5 75t28.5 169.5v39h257v-21q0 -109 -20 -199t-78 -155t-171 -101t-298 -36zM658 1650v246h234v-246h-234z" />
    <glyph glyph-name="cdotaccent" unicode="&#x10b;" horiz-adv-x="1109" 
d="M575 -23q-175 0 -271 49.5t-134 130.5t-38 176v421q0 157 116 247t323 90q139 0 235 -33.5t146.5 -116.5t50.5 -234l-230 -19q0 98 -17 146.5t-59 65.5t-118 17q-98 0 -150.5 -37.5t-52.5 -127.5v-428q0 -95 51.5 -133t151.5 -38q78 0 119.5 14.5t57.5 58t19 131.5h227
q-3 -140 -42 -223t-131 -120t-254 -37zM450 1266v246h248v-246h-248z" />
    <glyph glyph-name="Ccaron" unicode="&#x10c;" horiz-adv-x="1479" 
d="M774 -25q-192 0 -311.5 38t-183.5 106.5t-88 161.5t-24 204v480q0 113 23.5 208.5t87 166.5t183 110.5t312.5 39.5q181 0 293 -35.5t172 -101.5t81.5 -157.5t21.5 -203.5v-16l-257 -29v59q0 113 -28.5 172t-96.5 81t-186 22q-116 0 -191 -24t-112 -85t-37 -172v-546
q0 -110 37 -168t113 -79.5t193 -21.5t184 18.5t95.5 75t28.5 169.5v39h257v-21q0 -109 -20 -199t-78 -155t-171 -101t-298 -36zM680 1637l-270 343h165l240 -213h-79l238 213h166l-270 -343h-190z" />
    <glyph glyph-name="ccaron" unicode="&#x10d;" horiz-adv-x="1109" 
d="M575 -23q-175 0 -271 49.5t-134 130.5t-38 176v421q0 157 116 247t323 90q139 0 235 -33.5t146.5 -116.5t50.5 -234l-230 -19q0 98 -17 146.5t-59 65.5t-118 17q-98 0 -150.5 -37.5t-52.5 -127.5v-428q0 -95 51.5 -133t151.5 -38q78 0 119.5 14.5t57.5 58t19 131.5h227
q-3 -140 -42 -223t-131 -120t-254 -37zM479 1248l-270 357h165l240 -227h-79l238 227h166l-270 -357h-190z" />
    <glyph glyph-name="Dcaron" unicode="&#x10e;" horiz-adv-x="1530" 
d="M199 0v1466h618q210 0 328.5 -67t168 -181.5t49.5 -257.5v-461q0 -150 -53 -262.5t-172 -174.5t-319 -62h-620zM465 204h330q104 0 171 24.5t99.5 82t32.5 156.5v523q0 98 -33 157.5t-100 87t-170 27.5h-330v-1058zM670 1637l-270 343h165l240 -213h-79l238 213h166
l-270 -343h-190z" />
    <glyph glyph-name="dcaron" unicode="&#x10f;" horiz-adv-x="1486" 
d="M132 328v419q0 153 105.5 248.5t339.5 95.5q47 0 105.5 -10.5t106.5 -27.5v459h244v-1512h-166l-29 65q-50 -36 -124.5 -62t-156.5 -26q-148 0 -242 44t-138.5 122.5t-44.5 184.5zM789 204v673q-32 16 -84 28t-112 12q-99 0 -158 -36t-59 -123v-438q0 -87 56 -126.5
t150 -39.5q64 0 119.5 15.5t87.5 34.5zM1319 966l-97 49q56 41 90.5 104.5t34.5 150.5h-138v242h269v-163q0 -153 -49 -246t-110 -137z" />
    <glyph glyph-name="Dcroat" unicode="&#x110;" horiz-adv-x="1530" 
d="M199 0v1466h618q210 0 328.5 -67t168 -181.5t49.5 -257.5v-461q0 -150 -53 -262.5t-172 -174.5t-319 -62h-620zM465 204h330q104 0 171 24.5t99.5 82t32.5 156.5v523q0 98 -33 157.5t-100 87t-170 27.5h-330v-1058zM13 702v146h689v-146h-689z" />
    <glyph glyph-name="dcroat" unicode="&#x111;" horiz-adv-x="1199" 
d="M585 1374h593v-154h-593v154zM132 328v419q0 153 105.5 248.5t339.5 95.5q47 0 105.5 -10.5t106.5 -27.5v459h244v-1512h-166l-29 65q-50 -36 -124.5 -62t-156.5 -26q-148 0 -242 44t-138.5 122.5t-44.5 184.5zM789 204v673q-32 16 -84 28t-112 12q-99 0 -158 -36
t-59 -123v-438q0 -87 56 -126.5t150 -39.5q64 0 119.5 15.5t87.5 34.5z" />
    <glyph glyph-name="Emacron" unicode="&#x112;" horiz-adv-x="1281" 
d="M199 1466h946v-199h-681v-420h603v-193h-603v-455h692v-199h-957v1466zM361 1711v163h624v-163h-624z" />
    <glyph glyph-name="emacron" unicode="&#x113;" horiz-adv-x="1145" 
d="M132 349v402q0 159 117.5 249.5t332.5 90.5q238 0 342 -91.5t104 -250.5v-257h-652v-166q0 -107 50 -141t164 -34q82 0 127 11.5t64.5 46t21.5 105.5h224q-5 -130 -51.5 -203.5t-142.5 -103.5t-246 -30q-140 0 -242.5 36.5t-157.5 118t-55 217.5zM796 645v132
q0 62 -27 91.5t-74 39t-108 9.5q-92 0 -151.5 -29.5t-59.5 -119.5v-123h420zM310 1326v163h558v-163h-558z" />
    <glyph glyph-name="Ebreve" unicode="&#x114;" horiz-adv-x="1281" 
d="M199 1466h946v-199h-681v-420h603v-193h-603v-455h692v-199h-957v1466zM673 1644q-150 0 -238 81.5t-88 242.5h178q0 -65 35 -100.5t113 -35.5t113 35.5t35 100.5h178q0 -161 -88 -242.5t-238 -81.5z" />
    <glyph glyph-name="ebreve" unicode="&#x115;" horiz-adv-x="1145" 
d="M132 349v402q0 159 117.5 249.5t332.5 90.5q238 0 342 -91.5t104 -250.5v-257h-652v-166q0 -107 50 -141t164 -34q82 0 127 11.5t64.5 46t21.5 105.5h224q-5 -130 -51.5 -203.5t-142.5 -103.5t-246 -30q-140 0 -242.5 36.5t-157.5 118t-55 217.5zM796 645v132
q0 62 -27 91.5t-74 39t-108 9.5q-92 0 -151.5 -29.5t-59.5 -119.5v-123h420zM589 1251q-93 0 -167 35t-116.5 110.5t-42.5 195.5h159q0 -78 42.5 -127.5t124.5 -49.5t124 49.5t42 127.5h160q0 -120 -42.5 -195.5t-116.5 -110.5t-167 -35z" />
    <glyph glyph-name="Edotaccent" unicode="&#x116;" horiz-adv-x="1281" 
d="M199 1466h946v-199h-681v-420h603v-193h-603v-455h692v-199h-957v1466zM556 1650v246h234v-246h-234z" />
    <glyph glyph-name="edotaccent" unicode="&#x117;" horiz-adv-x="1145" 
d="M132 349v402q0 159 117.5 249.5t332.5 90.5q238 0 342 -91.5t104 -250.5v-257h-652v-166q0 -107 50 -141t164 -34q82 0 127 11.5t64.5 46t21.5 105.5h224q-5 -130 -51.5 -203.5t-142.5 -103.5t-246 -30q-140 0 -242.5 36.5t-157.5 118t-55 217.5zM796 645v132
q0 62 -27 91.5t-74 39t-108 9.5q-92 0 -151.5 -29.5t-59.5 -119.5v-123h420zM465 1266v246h248v-246h-248z" />
    <glyph glyph-name="Eogonek" unicode="&#x118;" horiz-adv-x="1281" 
d="M199 1466h946v-199h-681v-420h603v-193h-603v-455h692v-199h-957v1466zM1111 -474q-136 0 -201 52.5t-65 154.5q0 70 53.5 149t135.5 128l122 -10q-60 -51 -97.5 -106t-37.5 -112q0 -52 29.5 -80t91.5 -28h44l-13 -148h-62z" />
    <glyph glyph-name="eogonek" unicode="&#x119;" horiz-adv-x="1145" 
d="M132 349v402q0 159 117.5 249.5t332.5 90.5q238 0 342 -91.5t104 -250.5v-257h-652v-166q0 -107 50 -141t164 -34q82 0 127 11.5t64.5 46t21.5 105.5h224q-5 -130 -51.5 -203.5t-142.5 -103.5t-246 -30q-140 0 -242.5 36.5t-157.5 118t-55 217.5zM796 645v132
q0 62 -27 91.5t-74 39t-108 9.5q-92 0 -151.5 -29.5t-59.5 -119.5v-123h420zM761 -474q-136 0 -201 52.5t-65 154.5q0 70 53.5 149t135.5 128l122 -10q-60 -51 -97.5 -106t-37.5 -112q0 -52 29.5 -80t91.5 -28h44l-13 -148h-62z" />
    <glyph glyph-name="Ecaron" unicode="&#x11a;" horiz-adv-x="1281" 
d="M199 1466h946v-199h-681v-420h603v-193h-603v-455h692v-199h-957v1466zM579 1637l-270 343h165l240 -213h-79l238 213h166l-270 -343h-190z" />
    <glyph glyph-name="ecaron" unicode="&#x11b;" horiz-adv-x="1145" 
d="M132 349v402q0 159 117.5 249.5t332.5 90.5q238 0 342 -91.5t104 -250.5v-257h-652v-166q0 -107 50 -141t164 -34q82 0 127 11.5t64.5 46t21.5 105.5h224q-5 -130 -51.5 -203.5t-142.5 -103.5t-246 -30q-140 0 -242.5 36.5t-157.5 118t-55 217.5zM796 645v132
q0 62 -27 91.5t-74 39t-108 9.5q-92 0 -151.5 -29.5t-59.5 -119.5v-123h420zM495 1248l-270 357h165l240 -227h-79l238 227h166l-270 -357h-190z" />
    <glyph glyph-name="Gcircumflex" unicode="&#x11c;" horiz-adv-x="1590" 
d="M805 -25q-192 0 -316 38t-194 106.5t-98 161.5t-28 204v480q0 113 27.5 208.5t97.5 166.5t194 110.5t317 39.5q186 0 302 -35.5t178 -99.5t85 -150.5t23 -187.5v-23l-256 -19v46q0 104 -31.5 160t-104 78t-196.5 22q-116 0 -199 -24t-127 -85t-44 -172v-546
q0 -110 43.5 -168t126.5 -79.5t200 -21.5q118 0 195.5 21.5t115 79.5t37.5 168v117h-313v179h559v-750h-141l-40 195q-7 -31 -29.5 -69t-68.5 -72t-123 -56.5t-192 -22.5zM441 1637l270 343h190l270 -343h-166l-238 213h79l-240 -213h-165z" />
    <glyph glyph-name="gcircumflex" unicode="&#x11d;" horiz-adv-x="1201" 
d="M574 -430q-103 0 -195 12.5t-149 38.5l52 170q65 -19 140.5 -30t141.5 -11q124 0 179.5 53t55.5 167v127q-32 -22 -76.5 -35.5t-91 -20t-86.5 -6.5q-197 0 -305 87.5t-108 247.5v373q0 97 40.5 176t130 125.5t236.5 46.5q57 0 114 -14t103.5 -37t73.5 -50l15 80h198
v-1070q0 -129 -46.5 -226t-149.5 -150.5t-273 -53.5zM585 203q81 0 134.5 20t79.5 39v556q0 37 -55.5 68t-158.5 31q-99 0 -154 -38t-55 -125v-400q0 -86 59 -118.5t150 -32.5zM212 1249l270 357h190l270 -357h-166l-238 227h79l-240 -227h-165z" />
    <glyph glyph-name="Gbreve" unicode="&#x11e;" horiz-adv-x="1590" 
d="M805 -25q-192 0 -316 38t-194 106.5t-98 161.5t-28 204v480q0 113 27.5 208.5t97.5 166.5t194 110.5t317 39.5q186 0 302 -35.5t178 -99.5t85 -150.5t23 -187.5v-23l-256 -19v46q0 104 -31.5 160t-104 78t-196.5 22q-116 0 -199 -24t-127 -85t-44 -172v-546
q0 -110 43.5 -168t126.5 -79.5t200 -21.5q118 0 195.5 21.5t115 79.5t37.5 168v117h-313v179h559v-750h-141l-40 195q-7 -31 -29.5 -69t-68.5 -72t-123 -56.5t-192 -22.5zM805 1644q-150 0 -238 81.5t-88 242.5h178q0 -65 35 -100.5t113 -35.5t113 35.5t35 100.5h178
q0 -161 -88 -242.5t-238 -81.5z" />
    <glyph glyph-name="gbreve" unicode="&#x11f;" horiz-adv-x="1201" 
d="M574 -430q-103 0 -195 12.5t-149 38.5l52 170q65 -19 140.5 -30t141.5 -11q124 0 179.5 53t55.5 167v127q-32 -22 -76.5 -35.5t-91 -20t-86.5 -6.5q-197 0 -305 87.5t-108 247.5v373q0 97 40.5 176t130 125.5t236.5 46.5q57 0 114 -14t103.5 -37t73.5 -50l15 80h198
v-1070q0 -129 -46.5 -226t-149.5 -150.5t-273 -53.5zM585 203q81 0 134.5 20t79.5 39v556q0 37 -55.5 68t-158.5 31q-99 0 -154 -38t-55 -125v-400q0 -86 59 -118.5t150 -32.5zM576 1251q-93 0 -167 35t-116.5 110.5t-42.5 195.5h159q0 -78 42.5 -127.5t124.5 -49.5
t124 49.5t42 127.5h160q0 -120 -42.5 -195.5t-116.5 -110.5t-167 -35z" />
    <glyph glyph-name="Gdotaccent" unicode="&#x120;" horiz-adv-x="1590" 
d="M805 -25q-192 0 -316 38t-194 106.5t-98 161.5t-28 204v480q0 113 27.5 208.5t97.5 166.5t194 110.5t317 39.5q186 0 302 -35.5t178 -99.5t85 -150.5t23 -187.5v-23l-256 -19v46q0 104 -31.5 160t-104 78t-196.5 22q-116 0 -199 -24t-127 -85t-44 -172v-546
q0 -110 43.5 -168t126.5 -79.5t200 -21.5q118 0 195.5 21.5t115 79.5t37.5 168v117h-313v179h559v-750h-141l-40 195q-7 -31 -29.5 -69t-68.5 -72t-123 -56.5t-192 -22.5zM688 1650v246h234v-246h-234z" />
    <glyph glyph-name="gdotaccent" unicode="&#x121;" horiz-adv-x="1201" 
d="M574 -430q-103 0 -195 12.5t-149 38.5l52 170q65 -19 140.5 -30t141.5 -11q124 0 179.5 53t55.5 167v127q-32 -22 -76.5 -35.5t-91 -20t-86.5 -6.5q-197 0 -305 87.5t-108 247.5v373q0 97 40.5 176t130 125.5t236.5 46.5q57 0 114 -14t103.5 -37t73.5 -50l15 80h198
v-1070q0 -129 -46.5 -226t-149.5 -150.5t-273 -53.5zM585 203q81 0 134.5 20t79.5 39v556q0 37 -55.5 68t-158.5 31q-99 0 -154 -38t-55 -125v-400q0 -86 59 -118.5t150 -32.5zM452 1266v246h248v-246h-248z" />
    <glyph glyph-name="uni0122" unicode="&#x122;" horiz-adv-x="1590" 
d="M805 -25q-192 0 -316 38t-194 106.5t-98 161.5t-28 204v480q0 113 27.5 208.5t97.5 166.5t194 110.5t317 39.5q186 0 302 -35.5t178 -99.5t85 -150.5t23 -187.5v-23l-256 -19v46q0 104 -31.5 160t-104 78t-196.5 22q-116 0 -199 -24t-127 -85t-44 -172v-546
q0 -110 43.5 -168t126.5 -79.5t200 -21.5q118 0 195.5 21.5t115 79.5t37.5 168v117h-313v179h559v-750h-141l-40 195q-7 -31 -29.5 -69t-68.5 -72t-123 -56.5t-192 -22.5zM784 -615l-107 46q57 55 84.5 115.5t27.5 138.5v14.5t-1 14.5l57 -89h-177v258h265v-101
q0 -139 -36.5 -232t-112.5 -165z" />
    <glyph glyph-name="uni0123" unicode="&#x123;" horiz-adv-x="1201" 
d="M574 -430q-103 0 -195 12.5t-149 38.5l52 170q65 -19 140.5 -30t141.5 -11q124 0 179.5 53t55.5 167v127q-32 -22 -76.5 -35.5t-91 -20t-86.5 -6.5q-197 0 -305 87.5t-108 247.5v373q0 97 40.5 176t130 125.5t236.5 46.5q57 0 114 -14t103.5 -37t73.5 -50l15 80h198
v-1070q0 -129 -46.5 -226t-149.5 -150.5t-273 -53.5zM585 203q81 0 134.5 20t79.5 39v556q0 37 -55.5 68t-158.5 31q-99 0 -154 -38t-55 -125v-400q0 -86 59 -118.5t150 -32.5zM488 1237v170q0 91 22.5 162t63 126.5t95.5 97.5l105 -48q-68 -53 -105.5 -115t-37.5 -131h154
v-262h-297z" />
    <glyph glyph-name="Hcircumflex" unicode="&#x124;" horiz-adv-x="1592" 
d="M197 1466h266v-632h666v632h266v-1466h-266v630h-666v-630h-266v1466zM431 1637l270 343h190l270 -343h-166l-238 213h79l-240 -213h-165z" />
    <glyph glyph-name="hcircumflex" unicode="&#x125;" horiz-adv-x="1244" 
d="M170 1512h244v-545q39 55 127.5 89.5t201.5 34.5t189 -39t114.5 -107.5t38.5 -156.5v-788h-244v765q0 56 -28 86.5t-72.5 43.5t-95.5 13q-63 0 -115.5 -19.5t-84 -56t-31.5 -87.5v-745h-244v1512zM303 1646l270 357h190l270 -357h-166l-238 227h79l-240 -227h-165z" />
    <glyph glyph-name="Hbar" unicode="&#x126;" horiz-adv-x="1592" 
d="M89 1250h1414v-171h-1414v171zM197 1466h266v-632h666v632h266v-1466h-266v630h-666v-630h-266v1466z" />
    <glyph glyph-name="hbar" unicode="&#x127;" horiz-adv-x="1244" 
d="M25 1220v154h592v-154h-592zM170 1512h244v-545q39 55 127.5 89.5t201.5 34.5t189 -39t114.5 -107.5t38.5 -156.5v-788h-244v765q0 56 -28 86.5t-72.5 43.5t-95.5 13q-63 0 -115.5 -19.5t-84 -56t-31.5 -87.5v-745h-244v1512z" />
    <glyph glyph-name="Itilde" unicode="&#x128;" horiz-adv-x="1143" 
d="M169 198h271v1071h-271v197h805v-197h-270v-1071h270v-198h-805v198zM692 1633q-60 0 -99.5 15.5t-66 36.5t-49.5 36.5t-52 15.5t-47.5 -21.5t-18.5 -67.5h-122q0 135 57.5 192.5t155.5 57.5q61 0 99.5 -16t64.5 -36.5t48 -36t50 -15.5q31 0 51.5 21t20.5 67h121
q0 -134 -57.5 -191.5t-155.5 -57.5z" />
    <glyph glyph-name="itilde" unicode="&#x129;" horiz-adv-x="533" 
d="M145 1069h243v-1069h-243v1069zM387 1285q-60 0 -99.5 15.5t-66 36.5t-49.5 36.5t-52 15.5t-47.5 -21t-18.5 -68h-122q0 135 57.5 192.5t155.5 57.5q61 0 99.5 -15.5t64.5 -36t48 -36.5t50 -16q31 0 51.5 21t20.5 68h121q0 -135 -57.5 -192.5t-155.5 -57.5z" />
    <glyph glyph-name="Imacron" unicode="&#x12a;" horiz-adv-x="1143" 
d="M169 198h271v1071h-271v197h805v-197h-270v-1071h270v-198h-805v198zM259 1711v163h624v-163h-624z" />
    <glyph glyph-name="imacron" unicode="&#x12b;" horiz-adv-x="533" 
d="M145 1069h243v-1069h-243v1069zM-13 1326v163h558v-163h-558z" />
    <glyph glyph-name="Ibreve" unicode="&#x12c;" horiz-adv-x="1143" 
d="M169 198h271v1071h-271v197h805v-197h-270v-1071h270v-198h-805v198zM571 1644q-150 0 -238 81.5t-88 242.5h178q0 -65 35 -100.5t113 -35.5t113 35.5t35 100.5h178q0 -161 -88 -242.5t-238 -81.5z" />
    <glyph glyph-name="ibreve" unicode="&#x12d;" horiz-adv-x="513" 
d="M-27 1576h160q0 -78 31 -127.5t105 -49.5q75 0 106 49.5t31 127.5h160q0 -120 -41.5 -195.5t-109 -110.5t-146.5 -35q-77 0 -145 35t-109.5 110.5t-41.5 195.5zM145 1069h243v-1069h-243v1069z" />
    <glyph glyph-name="Iogonek" unicode="&#x12e;" horiz-adv-x="1143" 
d="M169 198h271v1071h-271v197h805v-197h-270v-1071h270v-198h-805v198zM929 -474q-136 0 -201 52.5t-65 154.5q0 70 53.5 149t135.5 128l122 -10q-60 -51 -97.5 -106t-37.5 -112q0 -52 29.5 -80t91.5 -28h44l-13 -148h-62z" />
    <glyph glyph-name="iogonek" unicode="&#x12f;" horiz-adv-x="533" 
d="M145 1069h243v-1069h-243v1069zM142 1266v246h248v-246h-248zM336 -474q-136 0 -201 52.5t-65 154.5q0 70 53.5 149t135.5 128l122 -10q-60 -51 -97.5 -106t-37.5 -112q0 -52 29.5 -80t91.5 -28h44l-13 -148h-62z" />
    <glyph glyph-name="Idotaccent" unicode="&#x130;" horiz-adv-x="1143" 
d="M169 198h271v1071h-271v197h805v-197h-270v-1071h270v-198h-805v198zM454 1650v246h234v-246h-234z" />
    <glyph glyph-name="dotlessi" unicode="&#x131;" horiz-adv-x="533" 
d="M145 1069h243v-1069h-243v1069z" />
    <glyph glyph-name="IJ" unicode="&#x132;" horiz-adv-x="2359" 
d="M169 198h271v1071h-271v197h805v-197h-270v-1071h270v-198h-805v198zM1224 68l64 198q41 -18 100 -36t125 -29.5t125 -11.5q141 0 200.5 69.5t59.5 180.5v821h-523v206h788v-1041q0 -210 -131.5 -328.5t-378.5 -118.5q-76 0 -154.5 11.5t-149.5 32t-125 46.5z" />
    <glyph glyph-name="ij" unicode="&#x133;" horiz-adv-x="1167" 
d="M145 1069h243v-1069h-243v1069zM142 1266v246h248v-246h-248zM525 -178h40q69 0 107.5 23t54 64t15.5 96v1064h245v-1069q0 -122 -38 -202t-116.5 -118.5t-202.5 -38.5h-89zM740 1266v246h248v-246h-248z" />
    <glyph glyph-name="Jcircumflex" unicode="&#x134;" horiz-adv-x="1217" 
d="M81 68l64 198q41 -18 100 -36t125 -29.5t125 -11.5q141 0 200.5 69.5t59.5 180.5v821h-523v206h788v-1041q0 -210 -131.5 -328.5t-378.5 -118.5q-76 0 -154.5 11.5t-149.5 32t-125 46.5zM257 1637l270 343h190l270 -343h-166l-238 213h79l-240 -213h-165z" />
    <glyph glyph-name="jcircumflex" unicode="&#x135;" horiz-adv-x="634" 
d="M-8 -178h40q69 0 107.5 23t54 64t15.5 96v1064h245v-1069q0 -122 -38 -202t-116.5 -118.5t-202.5 -38.5h-89zM-33 1249l270 357h190l270 -357h-166l-238 227h79l-240 -227h-165z" />
    <glyph glyph-name="uni0136" unicode="&#x136;" horiz-adv-x="1438" 
d="M744 710l-57 -1l-223 -269v-440h-265v1466h265v-740l611 740h291zM610 712l187 151l604 -863h-298zM744 -615l-107 46q57 55 84.5 115.5t27.5 138.5v14.5t-1 14.5l57 -89h-177v258h265v-101q0 -139 -36.5 -232t-112.5 -165z" />
    <glyph glyph-name="uni0137" unicode="&#x137;" horiz-adv-x="1181" 
d="M170 1512h244v-936l452 493h276l-413 -464l439 -605h-270l-351 495l-133 -134v-361h-244v1512zM619 -615l-107 46q57 55 84.5 115.5t27.5 138.5v14.5t-1 14.5l57 -89h-177v258h265v-101q0 -139 -36.5 -232t-112.5 -165z" />
    <glyph glyph-name="kgreenlandic" unicode="&#x138;" horiz-adv-x="1190" 
d="M176 1069h244v-493l452 493h276l-413 -464l439 -605h-270l-351 495l-133 -134v-361h-244v1069z" />
    <glyph glyph-name="Lacute" unicode="&#x139;" horiz-adv-x="1163" 
d="M199 1466h265v-1260h628v-206h-893v1466zM182 1649l163 360h287l-275 -360h-175z" />
    <glyph glyph-name="lacute" unicode="&#x13a;" horiz-adv-x="704" 
d="M173 355v1157h244v-1155q0 -68 17 -107.5t59 -56t117 -16.5h33l-21 -188h-94q-118 0 -197 32.5t-118.5 112t-39.5 221.5zM168 1645l127 360h253l-238 -360h-142z" />
    <glyph glyph-name="uni013B" unicode="&#x13b;" horiz-adv-x="1163" 
d="M199 1466h265v-1260h628v-206h-893v1466zM651 -615l-107 46q57 55 84.5 115.5t27.5 138.5v14.5t-1 14.5l57 -89h-177v258h265v-101q0 -139 -36.5 -232t-112.5 -165z" />
    <glyph glyph-name="uni013C" unicode="&#x13c;" horiz-adv-x="704" 
d="M173 355v1157h244v-1155q0 -68 17 -107.5t59 -56t117 -16.5h33l-21 -188h-94q-118 0 -197 32.5t-118.5 112t-39.5 221.5zM415 -615l-107 46q57 55 84.5 115.5t27.5 138.5v14.5t-1 14.5l57 -89h-177v258h265v-101q0 -139 -36.5 -232t-112.5 -165z" />
    <glyph glyph-name="Lcaron" unicode="&#x13d;" horiz-adv-x="1163" 
d="M199 1466h265v-1260h628v-206h-893v1466zM879 920l-97 49q56 41 90.5 104.5t34.5 150.5h-138v242h269v-163q0 -153 -49 -246t-110 -137z" />
    <glyph glyph-name="lcaron" unicode="&#x13e;" horiz-adv-x="866" 
d="M173 355v1157h244v-1155q0 -68 17 -107.5t59 -56t117 -16.5h33l-21 -188h-94q-118 0 -197 32.5t-118.5 112t-39.5 221.5zM702 966l-97 49q56 41 90.5 104.5t34.5 150.5h-138v242h269v-163q0 -153 -49 -246t-110 -137z" />
    <glyph glyph-name="Ldot" unicode="&#x13f;" horiz-adv-x="1163" 
d="M199 1466h265v-1260h628v-206h-893v1466zM796 924h234v-232h-234v232z" />
    <glyph glyph-name="ldot" unicode="&#x140;" horiz-adv-x="703" 
d="M530 963h234v-232h-234v232zM173 355v1157h244v-1155q0 -68 17 -107.5t59 -56t117 -16.5h33l-21 -188h-94q-118 0 -197 32.5t-118.5 112t-39.5 221.5z" />
    <glyph glyph-name="Lslash" unicode="&#x141;" horiz-adv-x="1163" 
d="M33 750l708 308v-192l-708 -307v191zM199 1466h265v-1260h628v-206h-893v1466z" />
    <glyph glyph-name="lslash" unicode="&#x142;" horiz-adv-x="708" 
d="M34 609v166l589 256v-167zM173 355v1157h244v-1155q0 -68 17 -107.5t59 -56t117 -16.5h33l-21 -188h-94q-118 0 -197 32.5t-118.5 112t-39.5 221.5z" />
    <glyph glyph-name="Nacute" unicode="&#x143;" horiz-adv-x="1621" 
d="M199 1466h200l814 -1096l-27 -9v1105h235v-1466h-208l-803 1068l26 9v-1077h-237v1466zM667 1632l163 360h287l-275 -360h-175z" />
    <glyph glyph-name="nacute" unicode="&#x144;" horiz-adv-x="1245" 
d="M169 1069h244v-97q57 53 132 86.5t192 33.5q124 0 200.5 -44t112 -116.5t35.5 -161.5v-770h-244v764q0 55 -29 86.5t-75 44.5t-96 13q-64 0 -115.5 -20t-82 -57t-30.5 -89v-742h-244v1069zM516 1248l127 360h253l-238 -360h-142z" />
    <glyph glyph-name="uni0145" unicode="&#x145;" horiz-adv-x="1621" 
d="M199 1466h200l814 -1096l-27 -9v1105h235v-1466h-208l-803 1068l26 9v-1077h-237v1466zM794 -615l-107 46q57 55 84.5 115.5t27.5 138.5v14.5t-1 14.5l57 -89h-177v258h265v-101q0 -139 -36.5 -232t-112.5 -165z" />
    <glyph glyph-name="uni0146" unicode="&#x146;" horiz-adv-x="1245" 
d="M169 1069h244v-97q57 53 132 86.5t192 33.5q124 0 200.5 -44t112 -116.5t35.5 -161.5v-770h-244v764q0 55 -29 86.5t-75 44.5t-96 13q-64 0 -115.5 -20t-82 -57t-30.5 -89v-742h-244v1069zM606 -615l-107 46q57 55 84.5 115.5t27.5 138.5v14.5t-1 14.5l57 -89h-177v258
h265v-101q0 -139 -36.5 -232t-112.5 -165z" />
    <glyph glyph-name="Ncaron" unicode="&#x147;" horiz-adv-x="1621" 
d="M199 1466h200l814 -1096l-27 -9v1105h235v-1466h-208l-803 1068l26 9v-1077h-237v1466zM716 1620l-270 343h165l240 -213h-79l238 213h166l-270 -343h-190z" />
    <glyph glyph-name="ncaron" unicode="&#x148;" horiz-adv-x="1245" 
d="M169 1069h244v-97q57 53 132 86.5t192 33.5q124 0 200.5 -44t112 -116.5t35.5 -161.5v-770h-244v764q0 55 -29 86.5t-75 44.5t-96 13q-64 0 -115.5 -20t-82 -57t-30.5 -89v-742h-244v1069zM549 1248l-270 357h165l240 -227h-79l238 227h166l-270 -357h-190z" />
    <glyph glyph-name="napostrophe" unicode="&#x149;" horiz-adv-x="1381" 
d="M306 1069h244v-97q57 53 132 86.5t192 33.5q124 0 200.5 -44t112 -116.5t35.5 -161.5v-770h-244v764q0 55 -29 86.5t-75 44.5t-96 13q-64 0 -115.5 -20t-82 -57t-30.5 -89v-742h-244v1069zM44 875l-107 49q66 60 104.5 129t38.5 151h-157v262h300v-170q0 -148 -47 -247
t-132 -174z" />
    <glyph glyph-name="Eng" unicode="&#x14a;" horiz-adv-x="1621" 
d="M846 -205q89 8 152.5 19.5t103 41.5t58.5 91.5t19 168.5v49l-744 867v-1032h-238v1467h201l788 -937v937h237v-1318q0 -190 -52.5 -306.5t-173 -169t-323.5 -52.5z" />
    <glyph glyph-name="eng" unicode="&#x14b;" horiz-adv-x="1245" 
d="M554 -175q93 5 149 19t86 49.5t40.5 105t10.5 186.5v587q0 56 -28.5 87.5t-74.5 44.5t-96 13q-63 0 -115 -18.5t-82.5 -54t-30.5 -87.5v-757h-244v1069h244v-118q39 59 123 99.5t197 40.5t191.5 -39.5t119.5 -108t41 -157.5v-594q0 -190 -40 -309.5t-149 -175.5t-314 -56
z" />
    <glyph glyph-name="Omacron" unicode="&#x14c;" horiz-adv-x="1586" 
d="M803 -25q-193 0 -317 40t-193 110.5t-96.5 165.5t-27.5 205v460q0 113 27 210t96 170t193 113.5t318 40.5q186 0 306 -43t187.5 -118.5t94 -175t26.5 -212.5v-430q0 -109 -27 -206t-94.5 -171t-187 -116.5t-305.5 -42.5zM803 185q118 0 195 23.5t115.5 84.5t38.5 171v531
q0 109 -38.5 171t-116 88.5t-194.5 26.5q-115 0 -198 -25.5t-126.5 -88t-43.5 -172.5v-531q0 -110 43 -171t126 -84.5t199 -23.5zM481 1711v163h624v-163h-624z" />
    <glyph glyph-name="omacron" unicode="&#x14d;" horiz-adv-x="1178" 
d="M589 -23q-166 0 -266.5 43t-145.5 120.5t-45 181.5v424q0 106 51 183.5t153 119.5t253 42t252.5 -42t153 -119.5t51.5 -183.5v-424q0 -104 -44 -181.5t-144 -120.5t-269 -43zM589 151q95 0 154 35t59 122v451q0 88 -57.5 123t-155.5 35q-96 0 -154.5 -35t-58.5 -123v-451
q0 -87 56.5 -122t156.5 -35zM311 1326v163h558v-163h-558z" />
    <glyph glyph-name="Obreve" unicode="&#x14e;" horiz-adv-x="1586" 
d="M803 -25q-193 0 -317 40t-193 110.5t-96.5 165.5t-27.5 205v460q0 113 27 210t96 170t193 113.5t318 40.5q186 0 306 -43t187.5 -118.5t94 -175t26.5 -212.5v-430q0 -109 -27 -206t-94.5 -171t-187 -116.5t-305.5 -42.5zM803 185q118 0 195 23.5t115.5 84.5t38.5 171v531
q0 109 -38.5 171t-116 88.5t-194.5 26.5q-115 0 -198 -25.5t-126.5 -88t-43.5 -172.5v-531q0 -110 43 -171t126 -84.5t199 -23.5zM793 1644q-150 0 -238 81.5t-88 242.5h178q0 -65 35 -100.5t113 -35.5t113 35.5t35 100.5h178q0 -161 -88 -242.5t-238 -81.5z" />
    <glyph glyph-name="obreve" unicode="&#x14f;" horiz-adv-x="1178" 
d="M589 -23q-166 0 -266.5 43t-145.5 120.5t-45 181.5v424q0 106 51 183.5t153 119.5t253 42t252.5 -42t153 -119.5t51.5 -183.5v-424q0 -104 -44 -181.5t-144 -120.5t-269 -43zM589 151q95 0 154 35t59 122v451q0 88 -57.5 123t-155.5 35q-96 0 -154.5 -35t-58.5 -123v-451
q0 -87 56.5 -122t156.5 -35zM590 1251q-93 0 -167 35t-116.5 110.5t-42.5 195.5h159q0 -78 42.5 -127.5t124.5 -49.5t124 49.5t42 127.5h160q0 -120 -42.5 -195.5t-116.5 -110.5t-167 -35z" />
    <glyph glyph-name="Ohungarumlaut" unicode="&#x150;" horiz-adv-x="1586" 
d="M803 -25q-193 0 -317 40t-193 110.5t-96.5 165.5t-27.5 205v460q0 113 27 210t96 170t193 113.5t318 40.5q186 0 306 -43t187.5 -118.5t94 -175t26.5 -212.5v-430q0 -109 -27 -206t-94.5 -171t-187 -116.5t-305.5 -42.5zM803 185q118 0 195 23.5t115.5 84.5t38.5 171v531
q0 109 -38.5 171t-116 88.5t-194.5 26.5q-115 0 -198 -25.5t-126.5 -88t-43.5 -172.5v-531q0 -110 43 -171t126 -84.5t199 -23.5zM855 1645l49 360h246l-162 -360h-133zM558 1645l50 360h245l-161 -360h-134z" />
    <glyph glyph-name="ohungarumlaut" unicode="&#x151;" horiz-adv-x="1178" 
d="M589 -23q-166 0 -266.5 43t-145.5 120.5t-45 181.5v424q0 106 51 183.5t153 119.5t253 42t252.5 -42t153 -119.5t51.5 -183.5v-424q0 -104 -44 -181.5t-144 -120.5t-269 -43zM589 151q95 0 154 35t59 122v451q0 88 -57.5 123t-155.5 35q-96 0 -154.5 -35t-58.5 -123v-451
q0 -87 56.5 -122t156.5 -35zM650 1249l50 360h245l-161 -360h-134zM335 1249l49 360h246l-162 -360h-133z" />
    <glyph glyph-name="OE" unicode="&#x152;" horiz-adv-x="1678" 
d="M168 507v438q0 110 24 205t86 166t173 110.5t285 39.5h801v-199h-422v-424h347v-192h-347v-452h427v-199h-806q-173 0 -284 37t-173 105t-86.5 161t-24.5 204zM852 200v1061h-103q-114 0 -183 -34t-100.5 -97t-31.5 -154v-498q0 -89 31 -151.5t100.5 -94.5t184.5 -32h102
z" />
    <glyph glyph-name="oe" unicode="&#x153;" horiz-adv-x="1765" 
d="M579 -22q-165 0 -263 43t-140.5 120.5t-42.5 181.5v425q0 161 121 252t325 91q101 0 181 -29t136 -94q56 65 135.5 94t181.5 29q232 0 333.5 -91.5t101.5 -250.5v-239h-627v-187q0 -94 51.5 -133t144.5 -39q69 0 113 13t67 55.5t25 128.5h226q-4 -145 -51.5 -225
t-142.5 -112.5t-240 -32.5q-99 0 -179.5 32.5t-136.5 90.5q-50 -56 -126.5 -89.5t-192.5 -33.5zM579 151q92 0 144.5 36t52.5 123v452q0 85 -49.5 120t-147.5 35q-91 0 -146.5 -34t-55.5 -121v-452q0 -88 52 -123.5t150 -35.5zM1021 648h395v121q0 92 -54 120t-145 28
q-92 0 -144 -33.5t-52 -123.5v-112z" />
    <glyph glyph-name="Racute" unicode="&#x154;" horiz-adv-x="1477" 
d="M199 0v1466h640q171 0 272.5 -50t146 -147t44.5 -240q0 -99 -19.5 -177t-66 -133.5t-126.5 -89.5l292 -629h-274l-269 589h-374v-589h-266zM465 781h385q80 0 122 31t58 84.5t16 118.5q0 63 -12.5 122.5t-50.5 98t-117 38.5h-401v-493zM567 1649l163 360h287l-275 -360
h-175z" />
    <glyph glyph-name="racute" unicode="&#x155;" horiz-adv-x="820" 
d="M169 1069h244v-135q23 48 83.5 82t138.5 51.5t153 17.5l-6 -208q-57 -2 -119.5 -13t-117.5 -30.5t-91 -46.5t-41 -60v-727h-244v1069zM375 1248l127 360h253l-238 -360h-142z" />
    <glyph glyph-name="uni0156" unicode="&#x156;" horiz-adv-x="1477" 
d="M199 0v1466h640q171 0 272.5 -50t146 -147t44.5 -240q0 -99 -19.5 -177t-66 -133.5t-126.5 -89.5l292 -629h-274l-269 589h-374v-589h-266zM465 781h385q80 0 122 31t58 84.5t16 118.5q0 63 -12.5 122.5t-50.5 98t-117 38.5h-401v-493zM722 -615l-107 46
q57 55 84.5 115.5t27.5 138.5v14.5t-1 14.5l57 -89h-177v258h265v-101q0 -139 -36.5 -232t-112.5 -165z" />
    <glyph glyph-name="uni0157" unicode="&#x157;" horiz-adv-x="820" 
d="M169 1069h244v-135q23 48 83.5 82t138.5 51.5t153 17.5l-6 -208q-57 -2 -119.5 -13t-117.5 -30.5t-91 -46.5t-41 -60v-727h-244v1069zM277 -615l-107 46q57 55 84.5 115.5t27.5 138.5v14.5t-1 14.5l57 -89h-177v258h265v-101q0 -139 -36.5 -232t-112.5 -165z" />
    <glyph glyph-name="Rcaron" unicode="&#x158;" horiz-adv-x="1477" 
d="M199 0v1466h640q171 0 272.5 -50t146 -147t44.5 -240q0 -99 -19.5 -177t-66 -133.5t-126.5 -89.5l292 -629h-274l-269 589h-374v-589h-266zM465 781h385q80 0 122 31t58 84.5t16 118.5q0 63 -12.5 122.5t-50.5 98t-117 38.5h-401v-493zM622 1637l-270 343h165l240 -213
h-79l238 213h166l-270 -343h-190z" />
    <glyph glyph-name="rcaron" unicode="&#x159;" horiz-adv-x="820" 
d="M169 1069h244v-135q23 48 83.5 82t138.5 51.5t153 17.5l-6 -208q-57 -2 -119.5 -13t-117.5 -30.5t-91 -46.5t-41 -60v-727h-244v1069zM407 1248l-270 357h165l240 -227h-79l238 227h166l-270 -357h-190z" />
    <glyph glyph-name="Sacute" unicode="&#x15a;" horiz-adv-x="1289" 
d="M689 -25q-154 0 -301.5 35.5t-259.5 99.5l92 196q84 -47 205.5 -84t257.5 -37q100 0 152 27.5t71 80.5t19 127q0 41 -14 75t-55.5 62.5t-125.5 53.5l-284 88q-114 35 -179 90.5t-92 131.5t-27 171q0 139 66 226.5t180.5 129.5t256.5 42q159 0 279.5 -28t211.5 -82
l-72 -192q-76 38 -173.5 65.5t-216.5 27.5q-127 0 -200 -37t-73 -145q0 -73 36 -114t141 -75l289 -91q149 -46 221.5 -139t72.5 -263q0 -128 -49 -227.5t-154.5 -157t-274.5 -57.5zM524 1649l163 360h287l-275 -360h-175z" />
    <glyph glyph-name="sacute" unicode="&#x15b;" horiz-adv-x="993" 
d="M119 62l52 169q69 -31 161 -55.5t180 -24.5q91 0 130 39t39 103q0 52 -19.5 81.5t-77.5 49.5l-241 80q-123 41 -170 112t-47 176q0 147 97 223t275 76q129 0 224 -25t153 -55l-57 -160q-30 15 -80.5 30t-106.5 25.5t-105 10.5q-100 0 -134 -31t-34 -90q0 -39 17 -64
t62 -41l231 -79q90 -30 140.5 -71.5t71 -101t20.5 -143.5q0 -87 -40 -159.5t-122.5 -116t-210.5 -43.5q-140 0 -240 25t-168 60zM386 1248l127 360h253l-238 -360h-142z" />
    <glyph glyph-name="Scircumflex" unicode="&#x15c;" horiz-adv-x="1289" 
d="M689 -25q-154 0 -301.5 35.5t-259.5 99.5l92 196q84 -47 205.5 -84t257.5 -37q100 0 152 27.5t71 80.5t19 127q0 41 -14 75t-55.5 62.5t-125.5 53.5l-284 88q-114 35 -179 90.5t-92 131.5t-27 171q0 139 66 226.5t180.5 129.5t256.5 42q159 0 279.5 -28t211.5 -82
l-72 -192q-76 38 -173.5 65.5t-216.5 27.5q-127 0 -200 -37t-73 -145q0 -73 36 -114t141 -75l289 -91q149 -46 221.5 -139t72.5 -263q0 -128 -49 -227.5t-154.5 -157t-274.5 -57.5zM310 1637l270 343h190l270 -343h-166l-238 213h79l-240 -213h-165z" />
    <glyph glyph-name="scircumflex" unicode="&#x15d;" horiz-adv-x="993" 
d="M119 62l52 169q69 -31 161 -55.5t180 -24.5q91 0 130 39t39 103q0 52 -19.5 81.5t-77.5 49.5l-241 80q-123 41 -170 112t-47 176q0 147 97 223t275 76q129 0 224 -25t153 -55l-57 -160q-30 15 -80.5 30t-106.5 25.5t-105 10.5q-100 0 -134 -31t-34 -90q0 -39 17 -64
t62 -41l231 -79q90 -30 140.5 -71.5t71 -101t20.5 -143.5q0 -87 -40 -159.5t-122.5 -116t-210.5 -43.5q-140 0 -240 25t-168 60zM149 1249l270 357h190l270 -357h-166l-238 227h79l-240 -227h-165z" />
    <glyph glyph-name="Scedilla" unicode="&#x15e;" horiz-adv-x="1289" 
d="M689 -25q-154 0 -301.5 35.5t-259.5 99.5l92 196q84 -47 205.5 -84t257.5 -37q100 0 152 27.5t71 80.5t19 127q0 41 -14 75t-55.5 62.5t-125.5 53.5l-284 88q-114 35 -179 90.5t-92 131.5t-27 171q0 139 66 226.5t180.5 129.5t256.5 42q159 0 279.5 -28t211.5 -82
l-72 -192q-76 38 -173.5 65.5t-216.5 27.5q-127 0 -200 -37t-73 -145q0 -73 36 -114t141 -75l289 -91q149 -46 221.5 -139t72.5 -263q0 -128 -49 -227.5t-154.5 -157t-274.5 -57.5zM501 -478v118h181q32 0 44 13.5t12 32.5v62q0 20 -14 33t-42 13h-93v236h121v-166l-49 46
q122 0 175 -42t53 -130v-43q0 -71 -46 -122t-159 -51h-183z" />
    <glyph glyph-name="scedilla" unicode="&#x15f;" horiz-adv-x="993" 
d="M119 62l52 169q69 -31 161 -55.5t180 -24.5q91 0 130 39t39 103q0 52 -19.5 81.5t-77.5 49.5l-241 80q-123 41 -170 112t-47 176q0 147 97 223t275 76q129 0 224 -25t153 -55l-57 -160q-30 15 -80.5 30t-106.5 25.5t-105 10.5q-100 0 -134 -31t-34 -90q0 -39 17 -64
t62 -41l231 -79q90 -30 140.5 -71.5t71 -101t20.5 -143.5q0 -87 -40 -159.5t-122.5 -116t-210.5 -43.5q-140 0 -240 25t-168 60zM360 -478v118h181q32 0 44 13.5t12 32.5v62q0 20 -14 33t-42 13h-93v236h121v-166l-49 46q122 0 175 -42t53 -130v-43q0 -71 -46 -122t-159 -51
h-183z" />
    <glyph glyph-name="Scaron" unicode="&#x160;" horiz-adv-x="1289" 
d="M689 -25q-154 0 -301.5 35.5t-259.5 99.5l92 196q84 -47 205.5 -84t257.5 -37q100 0 152 27.5t71 80.5t19 127q0 41 -14 75t-55.5 62.5t-125.5 53.5l-284 88q-114 35 -179 90.5t-92 131.5t-27 171q0 139 66 226.5t180.5 129.5t256.5 42q159 0 279.5 -28t211.5 -82
l-72 -192q-76 38 -173.5 65.5t-216.5 27.5q-127 0 -200 -37t-73 -145q0 -73 36 -114t141 -75l289 -91q149 -46 221.5 -139t72.5 -263q0 -128 -49 -227.5t-154.5 -157t-274.5 -57.5zM580 1637l-270 343h165l240 -213h-79l238 213h166l-270 -343h-190z" />
    <glyph glyph-name="scaron" unicode="&#x161;" horiz-adv-x="993" 
d="M119 62l52 169q69 -31 161 -55.5t180 -24.5q91 0 130 39t39 103q0 52 -19.5 81.5t-77.5 49.5l-241 80q-123 41 -170 112t-47 176q0 147 97 223t275 76q129 0 224 -25t153 -55l-57 -160q-30 15 -80.5 30t-106.5 25.5t-105 10.5q-100 0 -134 -31t-34 -90q0 -39 17 -64
t62 -41l231 -79q90 -30 140.5 -71.5t71 -101t20.5 -143.5q0 -87 -40 -159.5t-122.5 -116t-210.5 -43.5q-140 0 -240 25t-168 60zM419 1248l-270 357h165l240 -227h-79l238 227h166l-270 -357h-190z" />
    <glyph glyph-name="uni0162" unicode="&#x162;" horiz-adv-x="1197" 
d="M466 0v1260h-413v206h1091v-206h-413v-1260h-265zM447 -478v118h181q32 0 44 13.5t12 32.5v62q0 20 -14 33t-42 13h-93v236h121v-166l-49 46q122 0 175 -42t53 -130v-43q0 -71 -46 -122t-159 -51h-183z" />
    <glyph glyph-name="uni0163" unicode="&#x163;" horiz-adv-x="819" 
d="M223 332v575h-154v162h162l24 340h212v-340h259v-162h-259v-557q0 -102 49.5 -137.5t176.5 -35.5h42l-14 -188h-58q-157 0 -253.5 31t-141.5 106.5t-45 205.5zM322 -478v118h181q32 0 44 13.5t12 32.5v62q0 20 -14 33t-42 13h-93v236h121v-166l-49 46q122 0 175 -42
t53 -130v-43q0 -71 -46 -122t-159 -51h-183z" />
    <glyph glyph-name="Tcaron" unicode="&#x164;" horiz-adv-x="1197" 
d="M466 0v1260h-413v206h1091v-206h-413v-1260h-265zM511 1637l-270 343h165l240 -213h-79l238 213h166l-270 -343h-190z" />
    <glyph glyph-name="tcaron" unicode="&#x165;" horiz-adv-x="819" 
d="M223 332v575h-154v162h162l24 340h212v-340h259v-162h-259v-557q0 -102 49.5 -137.5t176.5 -35.5h42l-14 -188h-58q-157 0 -253.5 31t-141.5 106.5t-45 205.5zM696 1156l-97 49q56 41 90.5 104.5t34.5 150.5h-138v242h269v-163q0 -153 -49 -246t-110 -137z" />
    <glyph glyph-name="Tbar" unicode="&#x166;" horiz-adv-x="1197" 
d="M249 805h696v-175h-696v175zM466 0v1260h-413v206h1091v-206h-413v-1260h-265z" />
    <glyph glyph-name="tbar" unicode="&#x167;" horiz-adv-x="812" 
d="M62 667h626v-161h-626v161zM223 332v575h-154v162h162l24 340h212v-340h259v-162h-259v-557q0 -102 49.5 -137.5t176.5 -35.5h42l-14 -188h-58q-157 0 -253.5 31t-141.5 106.5t-45 205.5z" />
    <glyph glyph-name="Utilde" unicode="&#x168;" horiz-adv-x="1562" 
d="M790 -25q-185 0 -303.5 38t-184.5 105t-92 157t-26 195v997h265v-1013q0 -109 43 -167.5t120 -80t178 -21.5q104 0 175.5 22t109.5 80.5t38 166.5v1013h265v-989q0 -104 -25 -195t-88 -160.5t-178 -108.5t-297 -39zM902 1633q-60 0 -99.5 15.5t-66 36.5t-49.5 36.5
t-52 15.5t-47.5 -21.5t-18.5 -67.5h-122q0 135 57.5 192.5t155.5 57.5q61 0 99.5 -16t64.5 -36.5t48 -36t50 -15.5q31 0 51.5 21t20.5 67h121q0 -134 -57.5 -191.5t-155.5 -57.5z" />
    <glyph glyph-name="utilde" unicode="&#x169;" horiz-adv-x="1242" 
d="M504 -23q-112 0 -188.5 42t-116 113t-39.5 159v778h244v-749q0 -55 27.5 -90t71.5 -51.5t94 -16.5q64 0 116.5 20.5t84 60t31.5 93.5v733h244v-1069h-226l-12 123q-35 -68 -126.5 -107t-204.5 -39zM744 1285q-60 0 -99.5 15.5t-66 36.5t-49.5 36.5t-52 15.5t-47.5 -21
t-18.5 -68h-122q0 135 57.5 192.5t155.5 57.5q61 0 99.5 -15.5t64.5 -36t48 -36.5t50 -16q31 0 51.5 21t20.5 68h121q0 -135 -57.5 -192.5t-155.5 -57.5z" />
    <glyph glyph-name="Umacron" unicode="&#x16a;" horiz-adv-x="1562" 
d="M790 -25q-185 0 -303.5 38t-184.5 105t-92 157t-26 195v997h265v-1013q0 -109 43 -167.5t120 -80t178 -21.5q104 0 175.5 22t109.5 80.5t38 166.5v1013h265v-989q0 -104 -25 -195t-88 -160.5t-178 -108.5t-297 -39zM469 1711v163h624v-163h-624z" />
    <glyph glyph-name="umacron" unicode="&#x16b;" horiz-adv-x="1242" 
d="M504 -23q-112 0 -188.5 42t-116 113t-39.5 159v778h244v-749q0 -55 27.5 -90t71.5 -51.5t94 -16.5q64 0 116.5 20.5t84 60t31.5 93.5v733h244v-1069h-226l-12 123q-35 -68 -126.5 -107t-204.5 -39zM344 1326v163h558v-163h-558z" />
    <glyph glyph-name="Ubreve" unicode="&#x16c;" horiz-adv-x="1562" 
d="M790 -25q-185 0 -303.5 38t-184.5 105t-92 157t-26 195v997h265v-1013q0 -109 43 -167.5t120 -80t178 -21.5q104 0 175.5 22t109.5 80.5t38 166.5v1013h265v-989q0 -104 -25 -195t-88 -160.5t-178 -108.5t-297 -39zM781 1644q-150 0 -238 81.5t-88 242.5h178
q0 -65 35 -100.5t113 -35.5t113 35.5t35 100.5h178q0 -161 -88 -242.5t-238 -81.5z" />
    <glyph glyph-name="ubreve" unicode="&#x16d;" horiz-adv-x="1242" 
d="M504 -23q-112 0 -188.5 42t-116 113t-39.5 159v778h244v-749q0 -55 27.5 -90t71.5 -51.5t94 -16.5q64 0 116.5 20.5t84 60t31.5 93.5v733h244v-1069h-226l-12 123q-35 -68 -126.5 -107t-204.5 -39zM623 1251q-93 0 -167 35t-116.5 110.5t-42.5 195.5h159
q0 -78 42.5 -127.5t124.5 -49.5t124 49.5t42 127.5h160q0 -120 -42.5 -195.5t-116.5 -110.5t-167 -35z" />
    <glyph glyph-name="Uring" unicode="&#x16e;" horiz-adv-x="1562" 
d="M790 -25q-185 0 -303.5 38t-184.5 105t-92 157t-26 195v997h265v-1013q0 -109 43 -167.5t120 -80t178 -21.5q104 0 175.5 22t109.5 80.5t38 166.5v1013h265v-989q0 -104 -25 -195t-88 -160.5t-178 -108.5t-297 -39zM781 1541q-119 0 -188.5 62.5t-69.5 179.5
q0 115 69.5 177.5t188.5 62.5t188.5 -62.5t69.5 -177.5q0 -117 -69 -179.5t-189 -62.5zM781 1681q39 0 67.5 20.5t28.5 80.5q0 59 -28.5 80.5t-68.5 21.5q-39 0 -67 -20.5t-28 -79.5q0 -61 28 -82t68 -21z" />
    <glyph glyph-name="uring" unicode="&#x16f;" horiz-adv-x="1242" 
d="M504 -23q-112 0 -188.5 42t-116 113t-39.5 159v778h244v-749q0 -55 27.5 -90t71.5 -51.5t94 -16.5q64 0 116.5 20.5t84 60t31.5 93.5v733h244v-1069h-226l-12 123q-35 -68 -126.5 -107t-204.5 -39zM623 1189q-119 0 -188.5 63t-69.5 179t69.5 178t188.5 62t188.5 -62
t69.5 -178t-69 -179t-189 -63zM623 1330q39 0 67.5 20.5t28.5 80.5q0 58 -28.5 80t-68.5 22q-39 0 -67 -21t-28 -80q0 -60 28 -81t68 -21z" />
    <glyph glyph-name="Uhungarumlaut" unicode="&#x170;" horiz-adv-x="1562" 
d="M790 -25q-185 0 -303.5 38t-184.5 105t-92 157t-26 195v997h265v-1013q0 -109 43 -167.5t120 -80t178 -21.5q104 0 175.5 22t109.5 80.5t38 166.5v1013h265v-989q0 -104 -25 -195t-88 -160.5t-178 -108.5t-297 -39zM843 1645l49 360h246l-162 -360h-133zM546 1645l50 360
h245l-161 -360h-134z" />
    <glyph glyph-name="uhungarumlaut" unicode="&#x171;" horiz-adv-x="1242" 
d="M504 -23q-112 0 -188.5 42t-116 113t-39.5 159v778h244v-749q0 -55 27.5 -90t71.5 -51.5t94 -16.5q64 0 116.5 20.5t84 60t31.5 93.5v733h244v-1069h-226l-12 123q-35 -68 -126.5 -107t-204.5 -39zM684 1249l50 360h245l-161 -360h-134zM369 1249l49 360h246l-162 -360
h-133z" />
    <glyph glyph-name="Uogonek" unicode="&#x172;" horiz-adv-x="1562" 
d="M790 -25q-185 0 -303.5 38t-184.5 105t-92 157t-26 195v997h265v-1013q0 -109 43 -167.5t120 -80t178 -21.5q104 0 175.5 22t109.5 80.5t38 166.5v1013h265v-989q0 -104 -25 -195t-88 -160.5t-178 -108.5t-297 -39zM1025 -464q-136 0 -201 52.5t-65 154.5q0 70 53.5 149
t135.5 128l122 -10q-60 -51 -97.5 -106t-37.5 -112q0 -52 29.5 -80t91.5 -28h44l-13 -148h-62z" />
    <glyph glyph-name="uogonek" unicode="&#x173;" horiz-adv-x="1242" 
d="M504 -23q-112 0 -188.5 42t-116 113t-39.5 159v778h244v-749q0 -55 27.5 -90t71.5 -51.5t94 -16.5q64 0 116.5 20.5t84 60t31.5 93.5v733h244v-1069h-226l-12 123q-35 -68 -126.5 -107t-204.5 -39zM1028 -474q-136 0 -201 52.5t-65 154.5q0 70 53.5 149t135.5 128
l122 -10q-60 -51 -97.5 -106t-37.5 -112q0 -52 29.5 -80t91.5 -28h44l-13 -148h-62z" />
    <glyph glyph-name="Wcircumflex" unicode="&#x174;" horiz-adv-x="1985" 
d="M64 1466h253l273 -1047l277 1047h239l307 -1040l257 1040h251l-386 -1466h-216l-325 1113l-310 -1113h-228zM628 1637l270 343h190l270 -343h-166l-238 213h79l-240 -213h-165z" />
    <glyph glyph-name="wcircumflex" unicode="&#x175;" horiz-adv-x="1637" 
d="M48 1069h227l217 -834l-24 1l248 833h208l256 -839l-24 -1l206 840h227l-294 -1069h-236l-250 819h26l-256 -819h-231zM463 1249l270 357h190l270 -357h-166l-238 227h79l-240 -227h-165z" />
    <glyph glyph-name="Ycircumflex" unicode="&#x176;" horiz-adv-x="1309" 
d="M526 567l-510 899h280l386 -696h-44l386 696h269l-503 -899v-567h-264v567zM290 1637l270 343h190l270 -343h-166l-238 213h79l-240 -213h-165z" />
    <glyph glyph-name="ycircumflex" unicode="&#x177;" horiz-adv-x="1108" 
d="M165 -459l-14 199q105 10 177 65.5t119 174.5l27 68l17 -90l-443 1111h245l337 -898h-90l283 898h243l-382 -1094q-76 -217 -200 -317.5t-319 -116.5zM192 1249l270 357h190l270 -357h-166l-238 227h79l-240 -227h-165z" />
    <glyph glyph-name="Ydieresis" unicode="&#x178;" horiz-adv-x="1309" 
d="M526 567l-510 899h280l386 -696h-44l386 696h269l-503 -899v-567h-264v567zM728 1672v215h246v-215h-246zM334 1672v215h245v-215h-245z" />
    <glyph glyph-name="Zacute" unicode="&#x179;" horiz-adv-x="1203" 
d="M144 168l641 1098h-612v200h915v-170l-639 -1101h651v-195h-956v168zM508 1649l163 360h287l-275 -360h-175z" />
    <glyph glyph-name="zacute" unicode="&#x17a;" horiz-adv-x="924" 
d="M116 153l472 786l21 -32h-480v162h698v-151l-472 -786l-21 32h493v-164h-711v153zM369 1248l127 360h253l-238 -360h-142z" />
    <glyph glyph-name="Zdotaccent" unicode="&#x17b;" horiz-adv-x="1203" 
d="M144 168l641 1098h-612v200h915v-170l-639 -1101h651v-195h-956v168zM541 1650v246h234v-246h-234z" />
    <glyph glyph-name="zdotaccent" unicode="&#x17c;" horiz-adv-x="924" 
d="M116 153l472 786l21 -32h-480v162h698v-151l-472 -786l-21 32h493v-164h-711v153zM372 1266v246h248v-246h-248z" />
    <glyph glyph-name="Zcaron" unicode="&#x17d;" horiz-adv-x="1203" 
d="M144 168l641 1098h-612v200h915v-170l-639 -1101h651v-195h-956v168zM564 1637l-270 343h165l240 -213h-79l238 213h166l-270 -343h-190z" />
    <glyph glyph-name="zcaron" unicode="&#x17e;" horiz-adv-x="924" 
d="M116 153l472 786l21 -32h-480v162h698v-151l-472 -786l-21 32h493v-164h-711v153zM401 1248l-270 357h165l240 -227h-79l238 227h166l-270 -357h-190z" />
    <glyph glyph-name="longs" unicode="&#x17f;" horiz-adv-x="734" 
d="M246 907h-155v162h155v88q0 177 84 266t266 89h123l9 -170h-95q-87 0 -115 -43.5t-28 -108.5v-1190h-244v907z" />
    <glyph glyph-name="uni0180" unicode="&#x180;" horiz-adv-x="1205" 
d="M30 1382h681v-174h-681v174zM645 -23q-90 0 -160.5 29.5t-118.5 60.5l-26 -67h-171v1512h244v-482q49 27 112 44t137 17q148 0 238.5 -46.5t131.5 -125t41 -172.5v-410q0 -106 -51.5 -187t-147 -127t-229.5 -46zM606 154q96 0 159.5 43t63.5 129v429q0 85 -52.5 123.5
t-147.5 38.5q-71 0 -129.5 -21t-86.5 -35v-654q34 -23 84 -38t109 -15z" />
    <glyph glyph-name="uni0181" unicode="&#x181;" horiz-adv-x="1619" 
d="M201 1040l-224 11v75q0 122 39 196.5t132 109t254 34.5l-28 -186q-98 0 -135.5 -40.5t-37.5 -131.5v-68zM374 0v1466h554q205 0 315 -43.5t151.5 -130t41.5 -217.5q0 -115 -45 -189.5t-179 -100.5l1 13q111 -9 174 -57t89 -126t26 -179q0 -227 -120 -331.5t-392 -104.5
h-616zM640 188h309q114 0 177 20t87.5 76t24.5 164q0 71 -17 128t-71 91t-165 34h-345v-513zM640 866h328q88 0 130.5 24t55.5 70.5t13 111.5q0 87 -20.5 132t-77 60.5t-164.5 15.5h-265v-414z" />
    <glyph glyph-name="uni0186" unicode="&#x186;" horiz-adv-x="1479" 
d="M705 -25q-185 0 -298 36t-171 101t-78.5 155t-20.5 199v21h258v-39q0 -113 28 -169.5t96 -75t184 -18.5q117 0 193 21.5t113 79.5t37 168v546q0 111 -37 172t-112.5 85t-190.5 24q-118 0 -186 -22t-96.5 -81t-28.5 -172v-59l-258 29v16q0 112 22 203.5t81.5 157.5
t172 101.5t293.5 35.5q192 0 312 -39.5t183.5 -110.5t86.5 -166.5t23 -208.5v-480q0 -111 -23.5 -204t-87.5 -161.5t-183.5 -106.5t-311.5 -38z" />
    <glyph glyph-name="uni0187" unicode="&#x187;" horiz-adv-x="1479" 
d="M774 -25q-192 0 -311.5 38t-183.5 106.5t-88 161.5t-24 204v480q0 113 23.5 208.5t87 166.5t183 110.5t312.5 39.5q126 0 212 -19t148 -60l-21 -14q0 171 67 252.5t228 81.5h85l11 -203h-31q-69 0 -100 -35.5t-31 -120.5v-396l-257 -29v59q0 113 -28.5 172t-96.5 81
t-186 22q-116 0 -191 -24t-112 -85t-37 -172v-546q0 -110 37 -168t113 -79.5t193 -21.5t184 18.5t95.5 75t28.5 169.5v39h257v-21q0 -109 -20 -199t-78 -155t-171 -101t-298 -36z" />
    <glyph glyph-name="uni0188" unicode="&#x188;" horiz-adv-x="1109" 
d="M575 -23q-175 0 -271 49.5t-134 130.5t-38 176v421q0 157 116 247t323 90q160 0 246 -71l-20 -30v129q0 174 67.5 255.5t228.5 81.5h61l9 -173h-29q-69 0 -100 -35.5t-31 -120.5v-420l-230 -19q0 98 -17 146.5t-59 65.5t-118 17q-98 0 -150.5 -37.5t-52.5 -127.5v-428
q0 -95 51.5 -133t151.5 -38q78 0 119.5 14.5t57.5 58t19 131.5h227q-3 -140 -42 -223t-131 -120t-254 -37z" />
    <glyph glyph-name="uni0189" unicode="&#x189;" horiz-adv-x="1530" 
d="M199 0v1466h618q210 0 328.5 -67t168 -181.5t49.5 -257.5v-461q0 -150 -53 -262.5t-172 -174.5t-319 -62h-620zM465 204h330q104 0 171 24.5t99.5 82t32.5 156.5v523q0 98 -33 157.5t-100 87t-170 27.5h-330v-1058zM13 702v146h689v-146h-689z" />
    <glyph glyph-name="uni018A" unicode="&#x18a;" horiz-adv-x="1705" 
d="M201 1040l-224 11v75q0 122 39 196.5t132 109t254 34.5l-28 -186q-98 0 -135.5 -40.5t-37.5 -131.5v-68zM374 0v1466h618q210 0 328.5 -67t168 -181.5t49.5 -257.5v-461q0 -150 -53 -262.5t-172 -174.5t-319 -62h-620zM640 204h330q104 0 171 24.5t99.5 82t32.5 156.5
v523q0 98 -33 157.5t-100 87t-170 27.5h-330v-1058z" />
    <glyph glyph-name="uni018E" unicode="&#x18e;" horiz-adv-x="1281" 
d="M1082 1466v-1466h-957v199h692v455h-603v193h603v420h-681v199h946z" />
    <glyph glyph-name="uni018F" unicode="&#x18f;" horiz-adv-x="1479" 
d="M706 1490q192 0 312 -39.5t183.5 -110.5t86.5 -166.5t23 -208.5v-480q0 -111 -23.5 -204t-87.5 -161.5t-183.5 -106.5t-311.5 -38q-185 0 -298 36t-171 101t-78.5 155t-20.5 199v333h909v201q0 111 -37 172t-112.5 85t-190.5 24q-118 0 -186 -21t-96.5 -77.5
t-28.5 -162.5v-46l-258 15v30q0 102 22 187.5t81.5 149.5t172 99t293.5 35zM703 185q117 0 193 21.5t113 79.5t37 168v143h-651v-149q0 -113 28 -169.5t96 -75t184 -18.5z" />
    <glyph glyph-name="uni0190" unicode="&#x190;" horiz-adv-x="1403" 
d="M698 -25q-193 0 -314.5 54.5t-178.5 152.5t-57 225q0 98 29.5 172t94.5 121t168 64l6 -13q-112 13 -172 59t-83 118.5t-23 160.5q0 134 66 223.5t186.5 134t282.5 44.5q124 0 224.5 -22t172 -74t109.5 -141t38 -224l-241 -6q0 102 -27.5 159t-94 81t-183.5 24
q-163 0 -222 -53.5t-59 -155.5q0 -61 9.5 -104.5t41.5 -72.5t100 -42.5t186 -13.5v-182q-145 0 -221.5 -23t-104 -77t-27.5 -148q0 -114 65.5 -175.5t221.5 -61.5q112 0 182 21.5t103.5 77t36.5 156.5h242q-6 -153 -63 -255t-177 -153t-317 -51z" />
    <glyph glyph-name="uni0191" unicode="&#x191;" horiz-adv-x="1168" 
d="M49 -409l-11 200h31q69 0 99.5 35.5t30.5 121.5v1518h869v-201h-604v-429h565v-192h-565v-720q0 -171 -85 -252t-245 -81h-85z" />
    <glyph glyph-name="florin" unicode="&#x192;" horiz-adv-x="979" 
d="M208 -192v140q16 -3 32 -4.5t27 -1.5q73 0 95 35.5t22 92.5v734h-137v123h137v207q0 96 18 166t73.5 108.5t167.5 38.5q26 0 53 -1.5t63 -5.5v-139q-12 1 -24.5 2.5t-24.5 1.5q-56 0 -83 -20t-35 -53.5t-8 -72.5v-232h157v-123h-157v-706q0 -88 -18.5 -155t-73.5 -105
t-164 -38q-27 0 -55 2t-65 6z" />
    <glyph glyph-name="uni0193" unicode="&#x193;" horiz-adv-x="1582" 
d="M801 -25q-191 0 -314 38t-192.5 106.5t-97.5 161.5t-28 204v480q0 113 27.5 208.5t96.5 166.5t192.5 110.5t315.5 39.5q132 0 227.5 -20t160.5 -62l-33 -11q0 171 67 252.5t228 81.5h85l11 -203h-31q-69 0 -100 -35.5t-31 -120.5v-379l-256 -20v48q0 104 -31 160t-103 78
t-194 22q-114 0 -196 -24t-126 -85t-44 -172v-546q0 -110 43.5 -168t125.5 -79.5t197 -21.5q116 0 192.5 21.5t114 79.5t37.5 168v117h-313v179h559v-750h-141l-40 195q-7 -31 -29.5 -69t-68 -72t-122 -56.5t-189.5 -22.5z" />
    <glyph glyph-name="uni0194" unicode="&#x194;" horiz-adv-x="1451" 
d="M726 -420q-144 0 -230.5 46t-125 126.5t-38.5 182.5q0 78 19.5 154t67 174t131.5 240l570 963h284l-655 -1096q-68 -115 -101.5 -188.5t-43.5 -130t-10 -121.5q0 -64 32.5 -102.5t99.5 -38.5t99.5 38.5t32.5 102.5q0 65 -10.5 121.5t-43.5 130t-101 188.5l-656 1096h285
l570 -963q85 -143 132.5 -240.5t66.5 -173.5t19 -154q0 -102 -38.5 -182.5t-125 -126.5t-230.5 -46z" />
    <glyph glyph-name="uni0196" unicode="&#x196;" horiz-adv-x="1079" 
d="M757 0q-168 0 -262.5 88.5t-94.5 264.5v916h-271v197h805v-197h-270v-892q0 -90 40.5 -133t117.5 -43h57l-11 -201h-111z" />
    <glyph glyph-name="uni0197" unicode="&#x197;" horiz-adv-x="1143" 
d="M231 836h681v-174h-681v174zM169 198h271v1071h-271v197h805v-197h-270v-1071h270v-198h-805v198z" />
    <glyph glyph-name="uni0198" unicode="&#x198;" horiz-adv-x="1438" 
d="M199 0v1466h265v-740l422 508q72 89 133 139.5t128.5 71.5t157.5 21h86l19 -203h-78q-53 0 -92.5 -13t-78.5 -47.5t-94 -100.5l-323 -392l-47 -1l-233 -282v-427h-265zM1103 0l-493 712l187 151l604 -863h-298z" />
    <glyph glyph-name="uni0199" unicode="&#x199;" horiz-adv-x="1181" 
d="M170 0v1152q0 191 73.5 275.5t259.5 84.5h82l9 -173h-49q-44 0 -73 -14.5t-43.5 -49.5t-14.5 -96v-603l452 493h276l-413 -464l439 -605h-270l-351 495l-133 -134v-361h-244z" />
    <glyph glyph-name="uni019A" unicode="&#x19a;" horiz-adv-x="703" 
d="M29 869h562v-153h-562v153zM173 355v1157h244v-1155q0 -68 17 -107.5t59 -56t117 -16.5h33l-21 -188h-94q-118 0 -197 32.5t-118.5 112t-39.5 221.5z" />
    <glyph glyph-name="uni019B" unicode="&#x19b;" horiz-adv-x="1124" 
d="M47 0l418 1051l-62 177q-22 64 -53 87.5t-85 23.5h-36l9 173h81q78 0 133.5 -20t95.5 -70t71 -139l349 -1004q22 -62 51 -84t81 -22h36l-9 -173h-82q-75 0 -131.5 20t-96 69.5t-68.5 139.5l-180 576l29 -1l-310 -804h-241zM261 1032l-52 145l590 215l52 -145z" />
    <glyph glyph-name="uni019C" unicode="&#x19c;" horiz-adv-x="1953" 
d="M543 -22q-112 0 -188.5 39.5t-116 108.5t-39.5 157v1183h265v-1137q0 -83 44.5 -112.5t119.5 -29.5q57 0 104.5 19.5t77 55t32.5 84.5v1120h264v-1137q0 -83 46.5 -112.5t121.5 -29.5q95 0 155 44t60 122v1113h264v-1466h-244v143l26 -19q-25 -32 -68.5 -66t-110.5 -57
t-159 -23q-110 0 -185.5 34t-115.5 101q-61 -61 -145 -98t-208 -37z" />
    <glyph glyph-name="uni019D" unicode="&#x19d;" horiz-adv-x="1621" 
d="M-58 -379l-28 174q109 8 171 37.5t88 96.5t26 187v1350h200l814 -1096l-27 -9v1105h235v-1466h-208l-803 1068l26 9v-928q0 -210 -59.5 -324.5t-170 -159t-264.5 -44.5z" />
    <glyph glyph-name="uni019E" unicode="&#x19e;" horiz-adv-x="1244" 
d="M169 1069h244v-97q21 23 61 51.5t105.5 48.5t163.5 20q119 0 194.5 -44t111.5 -116.5t36 -161.5v-1179h-244v1173q0 55 -29 86.5t-75 44.5t-96 13q-64 0 -115.5 -20t-82 -57t-30.5 -89v-742h-244v1069z" />
    <glyph glyph-name="uni019F" unicode="&#x19f;" horiz-adv-x="1586" 
d="M317 830h950v-174h-950v174zM803 -25q-193 0 -317 40t-193 110.5t-96.5 165.5t-27.5 205v460q0 113 27 210t96 170t193 113.5t318 40.5q186 0 306 -43t187.5 -118.5t94 -175t26.5 -212.5v-430q0 -109 -27 -206t-94.5 -171t-187 -116.5t-305.5 -42.5zM803 185
q118 0 195 23.5t115.5 84.5t38.5 171v531q0 109 -38.5 171t-116 88.5t-194.5 26.5q-115 0 -198 -25.5t-126.5 -88t-43.5 -172.5v-531q0 -110 43 -171t126 -84.5t199 -23.5z" />
    <glyph glyph-name="Ohorn" unicode="&#x1a0;" horiz-adv-x="1586" 
d="M803 -25q-193 0 -317 40t-193 110.5t-96.5 165.5t-27.5 205v460q0 113 27 210t96 170t193 113.5t318 40.5q186 0 306 -43t187.5 -118.5t94 -175t26.5 -212.5v-430q0 -109 -27 -206t-94.5 -171t-187 -116.5t-305.5 -42.5zM803 185q118 0 195 23.5t115.5 84.5t38.5 171v531
q0 109 -38.5 171t-116 88.5t-194.5 26.5q-115 0 -198 -25.5t-126.5 -88t-43.5 -172.5v-531q0 -110 43 -171t126 -84.5t199 -23.5zM996 1466h130q50 0 85 33.5t35 94.5v141h211v-124q0 -109 -43 -180.5t-118 -106.5t-170 -35h-130v177z" />
    <glyph glyph-name="ohorn" unicode="&#x1a1;" horiz-adv-x="1178" 
d="M589 -23q-166 0 -266.5 43t-145.5 120.5t-45 181.5v424q0 106 51 183.5t153 119.5t253 42t252.5 -42t153 -119.5t51.5 -183.5v-424q0 -104 -44 -181.5t-144 -120.5t-269 -43zM589 151q95 0 154 35t59 122v451q0 88 -57.5 123t-155.5 35q-96 0 -154.5 -35t-58.5 -123v-451
q0 -87 56.5 -122t156.5 -35zM775 892v177h60q50 0 84.5 33.5t34.5 94.5v141h212v-124q0 -109 -43.5 -180.5t-118 -106.5t-169.5 -35h-60z" />
    <glyph glyph-name="uni01A4" unicode="&#x1a4;" horiz-adv-x="1508" 
d="M201 1040l-224 11v75q0 122 39 196.5t132 109t254 34.5l-28 -186q-98 0 -135.5 -40.5t-37.5 -131.5v-68zM374 1466h579q223 0 339 -108.5t116 -357.5q0 -171 -48 -278t-153 -156.5t-274 -49.5h-293v-516h-266v1466zM965 711q80 0 120.5 33.5t55 95.5t14.5 146
q0 75 -13.5 141t-52 106.5t-115.5 40.5h-334v-563h325z" />
    <glyph glyph-name="uni01A5" unicode="&#x1a5;" horiz-adv-x="1199" 
d="M167 -409v1561q0 191 73 275.5t260 84.5h81l9 -173h-49q-43 0 -72 -14.5t-43.5 -49.5t-14.5 -96v-225l-61 27q47 43 130 76.5t180 33.5q198 0 302.5 -96.5t104.5 -250.5v-412q0 -97 -48 -177.5t-144.5 -129t-243.5 -48.5q-73 0 -127.5 14t-92.5 32v-432h-244zM611 151
q99 0 155.5 41.5t56.5 128.5v430q0 86 -55.5 126t-147.5 40q-51 0 -94 -14.5t-72.5 -33.5t-42.5 -34v-633q28 -18 78.5 -34.5t121.5 -16.5z" />
    <glyph glyph-name="uni01A9" unicode="&#x1a9;" horiz-adv-x="1204" 
d="M124 0v179l512 617l10 -68l-522 565v173h944v-199h-683l31 28l450 -485v-75l-465 -565l-16 29h695v-199h-956z" />
    <glyph glyph-name="uni01AC" unicode="&#x1ac;" horiz-adv-x="1301" 
d="M570 0v1260h-156q-98 0 -135.5 -36t-37.5 -116v-68l-224 11v75q0 122 39 196.5t132 109t254 34.5h806v-206h-413v-1260h-265z" />
    <glyph glyph-name="uni01AD" unicode="&#x1ad;" horiz-adv-x="812" 
d="M646 -11q-156 0 -249 30.5t-134 104.5t-41 204v579h-173v162h173v83q0 191 73 275.5t260 84.5h81l9 -173h-49q-43 0 -72 -14.5t-43.5 -49.5t-14.5 -96v-110h258v-162h-258v-562q0 -67 17 -103.5t64.5 -50.5t137.5 -14h48l-13 -188h-74z" />
    <glyph glyph-name="uni01AE" unicode="&#x1ae;" horiz-adv-x="1197" 
d="M797 -409q-161 0 -246 81t-85 252v1336h-413v206h1091v-206h-413v-1312q0 -86 31 -121.5t100 -35.5h31l-11 -200h-85z" />
    <glyph glyph-name="Uhorn" unicode="&#x1af;" horiz-adv-x="1609" 
d="M790 -25q-185 0 -303.5 38t-184.5 105t-92 157t-26 195v997h265v-1013q0 -109 43 -167.5t120 -80t178 -21.5q104 0 175.5 22t109.5 80.5t38 166.5v1013h265v-989q0 -104 -25 -195t-88 -160.5t-178 -108.5t-297 -39zM1299 1466h30q50 0 84.5 33.5t34.5 94.5v141h211v-124
q0 -109 -43 -180.5t-117.5 -106.5t-169.5 -35h-30v177z" />
    <glyph glyph-name="uhorn" unicode="&#x1b0;" horiz-adv-x="1293" 
d="M504 -23q-112 0 -188.5 42t-116 113t-39.5 159v778h244v-749q0 -55 27.5 -90t71.5 -51.5t94 -16.5q64 0 116.5 20.5t84 60t31.5 93.5v733h244v-1069h-226l-12 123q-35 -68 -126.5 -107t-204.5 -39zM973 892v177h60q50 0 84.5 33.5t34.5 94.5v141h212v-124
q0 -109 -43.5 -180.5t-118 -106.5t-169.5 -35h-60z" />
    <glyph glyph-name="uni01B1" unicode="&#x1b1;" horiz-adv-x="1586" 
d="M793 -22q-219 0 -357 65t-202.5 214t-64.5 400q0 170 47.5 299.5t128.5 218t179 135.5v-50h-348v206h501v-194q-77 -57 -131.5 -139t-82.5 -198t-28 -276q0 -177 36 -280.5t115 -148.5t207 -45t207 45t115 148.5t36 280.5q0 160 -28.5 276t-82.5 198t-132 139v194h501
v-206h-351v50q98 -46 179.5 -135t130.5 -218.5t49 -299.5q0 -251 -64.5 -400t-202 -214t-357.5 -65z" />
    <glyph glyph-name="uni01B2" unicode="&#x1b2;" horiz-adv-x="1540" 
d="M741 -23q-217 0 -338.5 54.5t-170 154.5t-48.5 233v1047h267v-1057q0 -110 68 -167t222 -57q159 0 254.5 92.5t95.5 273.5v487q0 126 -55.5 179t-161.5 53v206q166 0 272.5 -55.5t158 -157.5t51.5 -241v-455q0 -183 -70 -315.5t-207 -203.5t-338 -71z" />
    <glyph glyph-name="uni01B3" unicode="&#x1b3;" horiz-adv-x="1324" 
d="M526 0v567l-510 899h280l386 -685h-42l177 371q60 129 116 199t118.5 97.5t142.5 27.5h89l17 -201h-40q-63 0 -100 -26.5t-75 -99.5l-295 -582v-567h-264z" />
    <glyph glyph-name="uni01B4" unicode="&#x1b4;" horiz-adv-x="1122" 
d="M188 -418l-15 175q86 0 138.5 15t83 48.5t50.5 88.5l48 125l-9 -76l-440 1111h244l333 -908h-87l206 628q36 111 75.5 174t93.5 89.5t133 26.5h74l16 -172h-37q-52 0 -81 -25.5t-50 -87.5l-324 -934q-51 -144 -155 -211t-297 -67z" />
    <glyph glyph-name="uni01B5" unicode="&#x1b5;" horiz-adv-x="1203" 
d="M223 840h814v-174h-814v174zM144 168l641 1098h-612v200h915v-170l-639 -1101h651v-195h-956v168z" />
    <glyph glyph-name="uni01B6" unicode="&#x1b6;" horiz-adv-x="924" 
d="M143 623h657v-160h-657v160zM116 153l472 786l21 -32h-480v162h698v-151l-472 -786l-21 32h493v-164h-711v153z" />
    <glyph glyph-name="uni01B7" unicode="&#x1b7;" horiz-adv-x="1362" 
d="M675 -426q-197 0 -317.5 64.5t-177 194.5t-63.5 324h243q3 -140 36.5 -223t103.5 -119.5t181 -36.5q157 0 222 87t65 263q0 125 -30.5 206.5t-120 121t-268.5 39.5v201q245 0 393.5 -69t215.5 -197t67 -307q0 -162 -57 -285.5t-178.5 -193.5t-314.5 -70zM756 578
l-207 118l399 591l5 -20h-763v199h1004v-219z" />
    <glyph glyph-name="uni01B8" unicode="&#x1b8;" horiz-adv-x="1349" 
d="M680 -426q-192 0 -313.5 70t-178.5 193.5t-57 285.5q0 179 67 307t215 197t393 69v-201q-178 0 -268 -39.5t-120.5 -121t-30.5 -206.5q0 -176 65 -263t222 -87q112 0 181.5 36.5t103 119.5t36.5 223h243q-6 -194 -63 -324t-177 -194.5t-318 -64.5zM600 578l-439 669v219
h1004v-199h-763l6 20l398 -591z" />
    <glyph glyph-name="uni01B9" unicode="&#x1b9;" horiz-adv-x="1095" 
d="M572 -421q-156 0 -256.5 56t-148.5 157t-48 236q0 136 43 236t132 155t224 55l-25 -90l-338 534v151h836v-169h-605l8 39l296 -463v-182h-96q-150 0 -201 -64t-51 -197q0 -126 53.5 -188t171.5 -62q87 0 141 21.5t80 77t29 157.5h216q-6 -153 -54 -255t-147.5 -153.5
t-259.5 -51.5z" />
    <glyph glyph-name="uni01C0" unicode="&#x1c0;" horiz-adv-x="655" 
d="M217 -409v1921h222v-1921h-222z" />
    <glyph glyph-name="uni01C1" unicode="&#x1c1;" horiz-adv-x="1102" 
d="M217 -409v1921h222v-1921h-222zM663 -409v1921h222v-1921h-222z" />
    <glyph glyph-name="uni01C2" unicode="&#x1c2;" horiz-adv-x="719" 
d="M249 -409v1921h222v-1921h-222zM706 938v-203h-693v203h693zM706 538v-203h-693v203h693z" />
    <glyph glyph-name="uni01C3" unicode="&#x1c3;" horiz-adv-x="619" 
d="M269 397q-16 181 -30 352.5t-24.5 317t-16.5 250t-6 150.5h240q0 -45 -7 -147t-19.5 -246t-29.5 -317t-37 -360h-70zM171 0v256h265v-256h-265z" />
    <glyph glyph-name="uni01C4" unicode="&#x1c4;" horiz-adv-x="2733" 
d="M199 0v1466h618q210 0 328.5 -67t168 -181.5t49.5 -257.5v-461q0 -150 -53 -262.5t-172 -174.5t-319 -62h-620zM465 204h330q104 0 171 24.5t99.5 82t32.5 156.5v523q0 98 -33 157.5t-100 87t-170 27.5h-330v-1058zM1674 168l641 1098h-612v200h915v-170l-639 -1101h651
v-195h-956v168zM2094 1637l-270 343h165l240 -213h-79l238 213h166l-270 -343h-190z" />
    <glyph glyph-name="uni01C5" unicode="&#x1c5;" horiz-adv-x="2454" 
d="M199 0v1466h618q210 0 328.5 -67t168 -181.5t49.5 -257.5v-461q0 -150 -53 -262.5t-172 -174.5t-319 -62h-620zM465 204h330q104 0 171 24.5t99.5 82t32.5 156.5v523q0 98 -33 157.5t-100 87t-170 27.5h-330v-1058zM1646 153l472 786l21 -32h-480v162h698v-151l-472 -786
l-21 32h493v-164h-711v153zM1931 1248l-270 357h165l240 -227h-79l238 227h166l-270 -357h-190z" />
    <glyph glyph-name="uni01C6" unicode="&#x1c6;" horiz-adv-x="2122" 
d="M132 328v419q0 153 105.5 248.5t339.5 95.5q47 0 105.5 -10.5t106.5 -27.5v459h244v-1512h-166l-29 65q-50 -36 -124.5 -62t-156.5 -26q-148 0 -242 44t-138.5 122.5t-44.5 184.5zM789 204v673q-32 16 -84 28t-112 12q-99 0 -158 -36t-59 -123v-438q0 -87 56 -126.5
t150 -39.5q64 0 119.5 15.5t87.5 34.5zM1315 153l472 786l21 -32h-480v162h698v-151l-472 -786l-21 32h493v-164h-711v153zM1600 1248l-270 357h165l240 -227h-79l238 227h166l-270 -357h-190z" />
    <glyph glyph-name="uni01C7" unicode="&#x1c7;" horiz-adv-x="2380" 
d="M199 1466h265v-1260h628v-206h-893v1466zM1244 68l64 198q41 -18 100 -36t125 -29.5t125 -11.5q141 0 200.5 69.5t59.5 180.5v821h-523v206h788v-1041q0 -210 -131.5 -328.5t-378.5 -118.5q-76 0 -154.5 11.5t-149.5 32t-125 46.5z" />
    <glyph glyph-name="uni01C8" unicode="&#x1c8;" horiz-adv-x="1797" 
d="M199 1466h265v-1260h628v-206h-893v1466zM1155 -178h40q69 0 107.5 23t54 64t15.5 96v1064h245v-1069q0 -122 -38 -202t-116.5 -118.5t-202.5 -38.5h-89zM1370 1266v246h248v-246h-248z" />
    <glyph glyph-name="uni01C9" unicode="&#x1c9;" horiz-adv-x="1338" 
d="M173 355v1157h244v-1155q0 -68 17 -107.5t59 -56t117 -16.5h33l-21 -188h-94q-118 0 -197 32.5t-118.5 112t-39.5 221.5zM696 -178h40q69 0 107.5 23t54 64t15.5 96v1064h245v-1069q0 -122 -38 -202t-116.5 -118.5t-202.5 -38.5h-89zM911 1266v246h248v-246h-248z" />
    <glyph glyph-name="uni01CA" unicode="&#x1ca;" horiz-adv-x="2837" 
d="M199 1466h200l814 -1096l-27 -9v1105h235v-1466h-208l-803 1068l26 9v-1077h-237v1466zM1702 68l64 198q41 -18 100 -36t125 -29.5t125 -11.5q141 0 200.5 69.5t59.5 180.5v821h-523v206h788v-1041q0 -210 -131.5 -328.5t-378.5 -118.5q-76 0 -154.5 11.5t-149.5 32
t-125 46.5z" />
    <glyph glyph-name="uni01CB" unicode="&#x1cb;" horiz-adv-x="2255" 
d="M199 1466h200l814 -1096l-27 -9v1105h235v-1466h-208l-803 1068l26 9v-1077h-237v1466zM1613 -178h40q69 0 107.5 23t54 64t15.5 96v1064h245v-1069q0 -122 -38 -202t-116.5 -118.5t-202.5 -38.5h-89zM1828 1266v246h248v-246h-248z" />
    <glyph glyph-name="uni01CC" unicode="&#x1cc;" horiz-adv-x="1879" 
d="M169 1069h244v-97q57 53 132 86.5t192 33.5q124 0 200.5 -44t112 -116.5t35.5 -161.5v-770h-244v764q0 55 -29 86.5t-75 44.5t-96 13q-64 0 -115.5 -20t-82 -57t-30.5 -89v-742h-244v1069zM1237 -178h40q69 0 107.5 23t54 64t15.5 96v1064h245v-1069q0 -122 -38 -202
t-116.5 -118.5t-202.5 -38.5h-89zM1452 1266v246h248v-246h-248z" />
    <glyph glyph-name="uni01CD" unicode="&#x1cd;" horiz-adv-x="1484" 
d="M75 0l504 1466h322l508 -1466h-279l-397 1285h27l-408 -1285h-277zM336 281l55 203h704l53 -203h-812zM647 1637l-270 343h165l240 -213h-79l238 213h166l-270 -343h-190z" />
    <glyph glyph-name="uni01CE" unicode="&#x1ce;" horiz-adv-x="1173" 
d="M437 -23q-100 0 -171.5 37.5t-109 104t-37.5 150.5q0 78 31 135.5t115 106t242 96.5q85 27 139 49t79 50t25 72q0 43 -15.5 74t-54 48t-107.5 17q-81 0 -121.5 -19.5t-54 -52.5t-13.5 -76v-43h-230v37q0 156 104.5 242t320.5 86q154 0 244 -44.5t129.5 -126t39.5 -191.5
v-434q0 -77 19.5 -100t75.5 -23l-15 -180h-51q-110 0 -167 34.5t-84 102.5q-27 -37 -73 -72t-110.5 -57.5t-149.5 -22.5zM505 145q41 0 90 16.5t91.5 46.5t63.5 72v275q-25 -22 -82.5 -51.5t-136.5 -56.5q-100 -33 -138 -72t-38 -94q0 -70 39 -103t111 -33zM479 1248
l-270 357h165l240 -227h-79l238 227h166l-270 -357h-190z" />
    <glyph glyph-name="uni01CF" unicode="&#x1cf;" horiz-adv-x="1143" 
d="M169 198h271v1071h-271v197h805v-197h-270v-1071h270v-198h-805v198zM477 1637l-270 343h165l240 -213h-79l238 213h166l-270 -343h-190z" />
    <glyph glyph-name="uni01D0" unicode="&#x1d0;" horiz-adv-x="513" 
d="M174 1242l-229 356h165l200 -226h-80l199 226h165l-229 -356h-191zM145 1069h243v-1069h-243v1069z" />
    <glyph glyph-name="uni01D1" unicode="&#x1d1;" horiz-adv-x="1586" 
d="M803 -25q-193 0 -317 40t-193 110.5t-96.5 165.5t-27.5 205v460q0 113 27 210t96 170t193 113.5t318 40.5q186 0 306 -43t187.5 -118.5t94 -175t26.5 -212.5v-430q0 -109 -27 -206t-94.5 -171t-187 -116.5t-305.5 -42.5zM803 185q118 0 195 23.5t115.5 84.5t38.5 171v531
q0 109 -38.5 171t-116 88.5t-194.5 26.5q-115 0 -198 -25.5t-126.5 -88t-43.5 -172.5v-531q0 -110 43 -171t126 -84.5t199 -23.5zM698 1637l-270 343h165l240 -213h-79l238 213h166l-270 -343h-190z" />
    <glyph glyph-name="uni01D2" unicode="&#x1d2;" horiz-adv-x="1178" 
d="M589 -23q-166 0 -266.5 43t-145.5 120.5t-45 181.5v424q0 106 51 183.5t153 119.5t253 42t252.5 -42t153 -119.5t51.5 -183.5v-424q0 -104 -44 -181.5t-144 -120.5t-269 -43zM589 151q95 0 154 35t59 122v451q0 88 -57.5 123t-155.5 35q-96 0 -154.5 -35t-58.5 -123v-451
q0 -87 56.5 -122t156.5 -35zM495 1248l-270 357h165l240 -227h-79l238 227h166l-270 -357h-190z" />
    <glyph glyph-name="uni01D3" unicode="&#x1d3;" horiz-adv-x="1562" 
d="M790 -25q-185 0 -303.5 38t-184.5 105t-92 157t-26 195v997h265v-1013q0 -109 43 -167.5t120 -80t178 -21.5q104 0 175.5 22t109.5 80.5t38 166.5v1013h265v-989q0 -104 -25 -195t-88 -160.5t-178 -108.5t-297 -39zM686 1637l-270 343h165l240 -213h-79l238 213h166
l-270 -343h-190z" />
    <glyph glyph-name="uni01D4" unicode="&#x1d4;" horiz-adv-x="1242" 
d="M504 -23q-112 0 -188.5 42t-116 113t-39.5 159v778h244v-749q0 -55 27.5 -90t71.5 -51.5t94 -16.5q64 0 116.5 20.5t84 60t31.5 93.5v733h244v-1069h-226l-12 123q-35 -68 -126.5 -107t-204.5 -39zM529 1248l-270 357h165l240 -227h-79l238 227h166l-270 -357h-190z" />
    <glyph glyph-name="uni01D5" unicode="&#x1d5;" horiz-adv-x="1562" 
d="M790 -25q-185 0 -303.5 38t-184.5 105t-92 157t-26 195v997h265v-1013q0 -109 43 -167.5t120 -80t178 -21.5q104 0 175.5 22t109.5 80.5t38 166.5v1013h265v-989q0 -104 -25 -195t-88 -160.5t-178 -108.5t-297 -39zM855 1655v215h246v-215h-246zM461 1655v215h245v-215
h-245zM469 2039v163h624v-163h-624z" />
    <glyph glyph-name="uni01D6" unicode="&#x1d6;" horiz-adv-x="1242" 
d="M504 -23q-112 0 -188.5 42t-116 113t-39.5 159v778h244v-749q0 -55 27.5 -90t71.5 -51.5t94 -16.5q64 0 116.5 20.5t84 60t31.5 93.5v733h244v-1069h-226l-12 123q-35 -68 -126.5 -107t-204.5 -39zM697 1252v215h246v-215h-246zM303 1252v215h245v-215h-245zM344 1624
v163h558v-163h-558z" />
    <glyph glyph-name="uni01D7" unicode="&#x1d7;" horiz-adv-x="1562" 
d="M790 -25q-185 0 -303.5 38t-184.5 105t-92 157t-26 195v997h265v-1013q0 -109 43 -167.5t120 -80t178 -21.5q104 0 175.5 22t109.5 80.5t38 166.5v1013h265v-989q0 -104 -25 -195t-88 -160.5t-178 -108.5t-297 -39zM855 1655v215h246v-215h-246zM461 1655v215h245v-215
h-245zM631 2037l163 360h287l-275 -360h-175z" />
    <glyph glyph-name="uni01D8" unicode="&#x1d8;" horiz-adv-x="1242" 
d="M504 -23q-112 0 -188.5 42t-116 113t-39.5 159v778h244v-749q0 -55 27.5 -90t71.5 -51.5t94 -16.5q64 0 116.5 20.5t84 60t31.5 93.5v733h244v-1069h-226l-12 123q-35 -68 -126.5 -107t-204.5 -39zM697 1250v215h246v-215h-246zM303 1250v215h245v-215h-245zM496 1594
l127 360h253l-238 -360h-142z" />
    <glyph glyph-name="uni01D9" unicode="&#x1d9;" horiz-adv-x="1562" 
d="M790 -25q-185 0 -303.5 38t-184.5 105t-92 157t-26 195v997h265v-1013q0 -109 43 -167.5t120 -80t178 -21.5q104 0 175.5 22t109.5 80.5t38 166.5v1013h265v-989q0 -104 -25 -195t-88 -160.5t-178 -108.5t-297 -39zM855 1655v215h246v-215h-246zM461 1655v215h245v-215
h-245zM686 2025l-270 343h165l240 -213h-79l238 213h166l-270 -343h-190z" />
    <glyph glyph-name="uni01DA" unicode="&#x1da;" horiz-adv-x="1242" 
d="M504 -23q-112 0 -188.5 42t-116 113t-39.5 159v778h244v-749q0 -55 27.5 -90t71.5 -51.5t94 -16.5q64 0 116.5 20.5t84 60t31.5 93.5v733h244v-1069h-226l-12 123q-35 -68 -126.5 -107t-204.5 -39zM697 1252v215h246v-215h-246zM303 1252v215h245v-215h-245zM528 1586
l-270 357h165l240 -227h-79l238 227h166l-270 -357h-190z" />
    <glyph glyph-name="uni01DB" unicode="&#x1db;" horiz-adv-x="1562" 
d="M790 -25q-185 0 -303.5 38t-184.5 105t-92 157t-26 195v997h265v-1013q0 -109 43 -167.5t120 -80t178 -21.5q104 0 175.5 22t109.5 80.5t38 166.5v1013h265v-989q0 -104 -25 -195t-88 -160.5t-178 -108.5t-297 -39zM855 1655v215h246v-215h-246zM461 1655v215h245v-215
h-245zM756 2037l-275 360h287l163 -360h-175z" />
    <glyph glyph-name="uni01DC" unicode="&#x1dc;" horiz-adv-x="1242" 
d="M504 -23q-112 0 -188.5 42t-116 113t-39.5 159v778h244v-749q0 -55 27.5 -90t71.5 -51.5t94 -16.5q64 0 116.5 20.5t84 60t31.5 93.5v733h244v-1069h-226l-12 123q-35 -68 -126.5 -107t-204.5 -39zM697 1251v215h246v-215h-246zM303 1251v215h245v-215h-245zM608 1589
l-238 360h253l127 -360h-142z" />
    <glyph glyph-name="uni01DD" unicode="&#x1dd;" horiz-adv-x="1145" 
d="M563 -22q-238 0 -342 92t-104 250v257h652v167q0 106 -49.5 140t-164.5 34q-81 0 -126.5 -11t-64.5 -46t-22 -106h-223q4 131 51 204t142.5 103t245.5 30q141 0 243 -36t157 -117.5t55 -217.5v-403q0 -159 -117 -249.5t-333 -90.5zM559 153q92 0 151 29.5t59 118.5v123
h-420v-132q0 -61 27.5 -91t74.5 -39t108 -9z" />
    <glyph glyph-name="uni01DE" unicode="&#x1de;" horiz-adv-x="1484" 
d="M75 0l504 1466h322l508 -1466h-279l-397 1285h27l-408 -1285h-277zM336 281l55 203h704l53 -203h-812zM816 1662v215h246v-215h-246zM422 1662v215h245v-215h-245zM430 2032v163h624v-163h-624z" />
    <glyph glyph-name="uni01DF" unicode="&#x1df;" horiz-adv-x="1173" 
d="M437 -23q-100 0 -171.5 37.5t-109 104t-37.5 150.5q0 78 31 135.5t115 106t242 96.5q85 27 139 49t79 50t25 72q0 43 -15.5 74t-54 48t-107.5 17q-81 0 -121.5 -19.5t-54 -52.5t-13.5 -76v-43h-230v37q0 156 104.5 242t320.5 86q154 0 244 -44.5t129.5 -126t39.5 -191.5
v-434q0 -77 19.5 -100t75.5 -23l-15 -180h-51q-110 0 -167 34.5t-84 102.5q-27 -37 -73 -72t-110.5 -57.5t-149.5 -22.5zM505 145q41 0 90 16.5t91.5 46.5t63.5 72v275q-25 -22 -82.5 -51.5t-136.5 -56.5q-100 -33 -138 -72t-38 -94q0 -70 39 -103t111 -33zM651 1255v215
h246v-215h-246zM257 1255v215h245v-215h-245zM297 1617v163h558v-163h-558z" />
    <glyph glyph-name="uni01E0" unicode="&#x1e0;" horiz-adv-x="1484" 
d="M75 0l504 1466h322l508 -1466h-279l-397 1285h27l-408 -1285h-277zM336 281l55 203h704l53 -203h-812zM625 1650v246h234v-246h-234zM430 2031v163h624v-163h-624z" />
    <glyph glyph-name="uni01E1" unicode="&#x1e1;" horiz-adv-x="1173" 
d="M437 -23q-100 0 -171.5 37.5t-109 104t-37.5 150.5q0 78 31 135.5t115 106t242 96.5q85 27 139 49t79 50t25 72q0 43 -15.5 74t-54 48t-107.5 17q-81 0 -121.5 -19.5t-54 -52.5t-13.5 -76v-43h-230v37q0 156 104.5 242t320.5 86q154 0 244 -44.5t129.5 -126t39.5 -191.5
v-434q0 -77 19.5 -100t75.5 -23l-15 -180h-51q-110 0 -167 34.5t-84 102.5q-27 -37 -73 -72t-110.5 -57.5t-149.5 -22.5zM505 145q41 0 90 16.5t91.5 46.5t63.5 72v275q-25 -22 -82.5 -51.5t-136.5 -56.5q-100 -33 -138 -72t-38 -94q0 -70 39 -103t111 -33zM453 1239v246
h248v-246h-248zM298 1617v163h558v-163h-558z" />
    <glyph glyph-name="uni01E2" unicode="&#x1e2;" horiz-adv-x="1785" 
d="M364 443l48 203h475v619h-172l-352 -1265l-275 1l435 1466h1127v-202h-513v-422h446v-192h-446v-450h523v-201h-773v443h-523zM728 1711v163h624v-163h-624z" />
    <glyph glyph-name="uni01E3" unicode="&#x1e3;" horiz-adv-x="1736" 
d="M436 -22q-98 0 -169 37.5t-109 104.5t-40 153q-1 56 9.5 102.5t46 86.5t108.5 72.5t196 59.5q108 24 168 38.5t84 42.5t24 92q0 66 -38 109t-142 43q-80 0 -121.5 -24t-55 -62t-13.5 -82v-32h-231v26q0 158 104.5 252t321.5 94q102 0 185.5 -32.5t116.5 -100.5
q52 68 130 100.5t179 32.5q155 0 249 -41.5t137 -118t43 -182.5v-236h-620v-190q0 -94 48.5 -133t142.5 -39q69 0 112 11.5t64.5 52t24.5 126.5h225q-6 -147 -52.5 -225.5t-139 -108t-237.5 -29.5q-142 0 -225 50t-117 142l38 -3q-55 -58 -116 -100t-140 -65.5t-191 -23.5z
M511 142q41 0 89.5 13t90.5 40.5t63 68.5v269q-8 -10 -35.5 -22t-74.5 -25t-115 -28q-108 -23 -142.5 -69.5t-33.5 -100.5q1 -72 43.5 -109t114.5 -37zM999 648h394v121q0 92 -54 120t-145 28q-92 0 -143.5 -33.5t-51.5 -123.5v-112zM613 1326v163h558v-163h-558z" />
    <glyph glyph-name="uni01E4" unicode="&#x1e4;" horiz-adv-x="1590" 
d="M805 -25q-192 0 -316 38t-194 106.5t-98 161.5t-28 204v480q0 113 27.5 208.5t97.5 166.5t194 110.5t317 39.5q186 0 302 -35.5t178 -99.5t85 -150.5t23 -187.5v-23l-256 -19v46q0 104 -31.5 160t-104 78t-196.5 22q-116 0 -199 -24t-127 -85t-44 -172v-546
q0 -110 43.5 -168t126.5 -79.5t200 -21.5q118 0 195.5 21.5t115 79.5t37.5 168v130h-313v179h559v-763h-141l-40 195q-7 -31 -29.5 -69t-68.5 -72t-123 -56.5t-192 -22.5zM840 488h688v-175h-688v175z" />
    <glyph glyph-name="uni01E5" unicode="&#x1e5;" horiz-adv-x="1201" 
d="M574 -427q-103 0 -195 12.5t-149 37.5l52 171q65 -20 140.5 -30.5t141.5 -10.5q124 0 179.5 53t55.5 166v167q-32 -22 -76.5 -36t-91 -20.5t-86.5 -6.5q-197 0 -305 87.5t-108 248.5v331q0 97 40.5 176t130 125.5t236.5 46.5q57 0 114 -14t103.5 -37t73.5 -50l15 80h198
v-1067q0 -129 -46.5 -226t-149.5 -150.5t-273 -53.5zM585 245q81 0 134.5 19.5t79.5 38.5v515q0 37 -55.5 68t-158.5 31q-99 0 -154 -38t-55 -125v-359q0 -85 59 -117.5t150 -32.5zM534 13h637v-174h-637v174z" />
    <glyph glyph-name="Gcaron" unicode="&#x1e6;" horiz-adv-x="1590" 
d="M805 -25q-192 0 -316 38t-194 106.5t-98 161.5t-28 204v480q0 113 27.5 208.5t97.5 166.5t194 110.5t317 39.5q186 0 302 -35.5t178 -99.5t85 -150.5t23 -187.5v-23l-256 -19v46q0 104 -31.5 160t-104 78t-196.5 22q-116 0 -199 -24t-127 -85t-44 -172v-546
q0 -110 43.5 -168t126.5 -79.5t200 -21.5q118 0 195.5 21.5t115 79.5t37.5 168v117h-313v179h559v-750h-141l-40 195q-7 -31 -29.5 -69t-68.5 -72t-123 -56.5t-192 -22.5zM711 1637l-270 343h165l240 -213h-79l238 213h166l-270 -343h-190z" />
    <glyph glyph-name="gcaron" unicode="&#x1e7;" horiz-adv-x="1201" 
d="M574 -430q-103 0 -195 12.5t-149 38.5l52 170q65 -19 140.5 -30t141.5 -11q124 0 179.5 53t55.5 167v127q-32 -22 -76.5 -35.5t-91 -20t-86.5 -6.5q-197 0 -305 87.5t-108 247.5v373q0 97 40.5 176t130 125.5t236.5 46.5q57 0 114 -14t103.5 -37t73.5 -50l15 80h198
v-1070q0 -129 -46.5 -226t-149.5 -150.5t-273 -53.5zM585 203q81 0 134.5 20t79.5 39v556q0 37 -55.5 68t-158.5 31q-99 0 -154 -38t-55 -125v-400q0 -86 59 -118.5t150 -32.5zM482 1248l-270 357h165l240 -227h-79l238 227h166l-270 -357h-190z" />
    <glyph glyph-name="uni01E8" unicode="&#x1e8;" horiz-adv-x="1438" 
d="M744 710l-57 -1l-223 -269v-440h-265v1466h265v-740l611 740h291zM610 712l187 151l604 -863h-298zM656 1637l-270 343h165l240 -213h-79l238 213h166l-270 -343h-190z" />
    <glyph glyph-name="uni01E9" unicode="&#x1e9;" horiz-adv-x="1181" 
d="M170 1512h244v-936l452 493h276l-413 -464l439 -605h-270l-351 495l-133 -134v-361h-244v1512zM195 1645l-270 357h165l240 -227h-79l238 227h166l-270 -357h-190z" />
    <glyph glyph-name="uni01EA" unicode="&#x1ea;" horiz-adv-x="1586" 
d="M803 -25q-193 0 -317 40t-193 110.5t-96.5 165.5t-27.5 205v460q0 113 27 210t96 170t193 113.5t318 40.5q186 0 306 -43t187.5 -118.5t94 -175t26.5 -212.5v-430q0 -109 -27 -206t-94.5 -171t-187 -116.5t-305.5 -42.5zM803 185q118 0 195 23.5t115.5 84.5t38.5 171v531
q0 109 -38.5 171t-116 88.5t-194.5 26.5q-115 0 -198 -25.5t-126.5 -88t-43.5 -172.5v-531q0 -110 43 -171t126 -84.5t199 -23.5zM1037 -464q-136 0 -201 52.5t-65 154.5q0 70 53.5 149t135.5 128l122 -10q-60 -51 -97.5 -106t-37.5 -112q0 -52 29.5 -80t91.5 -28h44
l-13 -148h-62z" />
    <glyph glyph-name="uni01EB" unicode="&#x1eb;" horiz-adv-x="1178" 
d="M589 -23q-166 0 -266.5 43t-145.5 120.5t-45 181.5v424q0 106 51 183.5t153 119.5t253 42t252.5 -42t153 -119.5t51.5 -183.5v-424q0 -104 -44 -181.5t-144 -120.5t-269 -43zM589 151q95 0 154 35t59 122v451q0 88 -57.5 123t-155.5 35q-96 0 -154.5 -35t-58.5 -123v-451
q0 -87 56.5 -122t156.5 -35zM749 -474q-136 0 -201 52.5t-65 154.5q0 70 53.5 149t135.5 128l122 -10q-60 -51 -97.5 -106t-37.5 -112q0 -52 29.5 -80t91.5 -28h44l-13 -148h-62z" />
    <glyph glyph-name="uni01EC" unicode="&#x1ec;" horiz-adv-x="1586" 
d="M803 -25q-193 0 -317 40t-193 110.5t-96.5 165.5t-27.5 205v460q0 113 27 210t96 170t193 113.5t318 40.5q186 0 306 -43t187.5 -118.5t94 -175t26.5 -212.5v-430q0 -109 -27 -206t-94.5 -171t-187 -116.5t-305.5 -42.5zM803 185q118 0 195 23.5t115.5 84.5t38.5 171v531
q0 109 -38.5 171t-116 88.5t-194.5 26.5q-115 0 -198 -25.5t-126.5 -88t-43.5 -172.5v-531q0 -110 43 -171t126 -84.5t199 -23.5zM1037 -464q-136 0 -201 52.5t-65 154.5q0 70 53.5 149t135.5 128l122 -10q-60 -51 -97.5 -106t-37.5 -112q0 -52 29.5 -80t91.5 -28h44
l-13 -148h-62zM481 1711v163h624v-163h-624z" />
    <glyph glyph-name="uni01ED" unicode="&#x1ed;" horiz-adv-x="1178" 
d="M589 -23q-166 0 -266.5 43t-145.5 120.5t-45 181.5v424q0 106 51 183.5t153 119.5t253 42t252.5 -42t153 -119.5t51.5 -183.5v-424q0 -104 -44 -181.5t-144 -120.5t-269 -43zM589 151q95 0 154 35t59 122v451q0 88 -57.5 123t-155.5 35q-96 0 -154.5 -35t-58.5 -123v-451
q0 -87 56.5 -122t156.5 -35zM749 -474q-136 0 -201 52.5t-65 154.5q0 70 53.5 149t135.5 128l122 -10q-60 -51 -97.5 -106t-37.5 -112q0 -52 29.5 -80t91.5 -28h44l-13 -148h-62zM311 1326v163h558v-163h-558z" />
    <glyph glyph-name="uni01EE" unicode="&#x1ee;" horiz-adv-x="1362" 
d="M675 -426q-197 0 -317.5 64.5t-177 194.5t-63.5 324h243q3 -140 36.5 -223t103.5 -119.5t181 -36.5q157 0 222 87t65 263q0 125 -30.5 206.5t-120 121t-268.5 39.5v201q245 0 393.5 -69t215.5 -197t67 -307q0 -162 -57 -285.5t-178.5 -193.5t-314.5 -70zM756 578
l-207 118l399 591l5 -20h-763v199h1004v-219zM596 1637l-270 343h165l240 -213h-79l238 213h166l-270 -343h-190z" />
    <glyph glyph-name="uni01EF" unicode="&#x1ef;" horiz-adv-x="1095" 
d="M523 -421q-160 0 -259.5 51.5t-147.5 153.5t-53 255h216q2 -102 28 -157.5t80 -77t141 -21.5q119 0 172 62t53 188q0 133 -51 197t-200 64h-96v182l295 463l8 -39h-605v169h836v-151l-337 -534l-26 90q137 0 225 -55t131.5 -155t43.5 -236q0 -135 -48.5 -236t-148.5 -157
t-257 -56zM423 1248l-270 357h165l240 -227h-79l238 227h166l-270 -357h-190z" />
    <glyph glyph-name="uni01F0" unicode="&#x1f0;" horiz-adv-x="634" 
d="M-8 -178h40q69 0 107.5 23t54 64t15.5 96v1064h245v-1069q0 -122 -38 -202t-116.5 -118.5t-202.5 -38.5h-89zM237 1248l-270 357h165l240 -227h-79l238 227h166l-270 -357h-190z" />
    <glyph glyph-name="uni01F1" unicode="&#x1f1;" horiz-adv-x="2733" 
d="M199 0v1466h618q210 0 328.5 -67t168 -181.5t49.5 -257.5v-461q0 -150 -53 -262.5t-172 -174.5t-319 -62h-620zM465 204h330q104 0 171 24.5t99.5 82t32.5 156.5v523q0 98 -33 157.5t-100 87t-170 27.5h-330v-1058zM1674 168l641 1098h-612v200h915v-170l-639 -1101h651
v-195h-956v168z" />
    <glyph glyph-name="uni01F2" unicode="&#x1f2;" horiz-adv-x="2454" 
d="M199 0v1466h618q210 0 328.5 -67t168 -181.5t49.5 -257.5v-461q0 -150 -53 -262.5t-172 -174.5t-319 -62h-620zM465 204h330q104 0 171 24.5t99.5 82t32.5 156.5v523q0 98 -33 157.5t-100 87t-170 27.5h-330v-1058zM1646 153l472 786l21 -32h-480v162h698v-151l-472 -786
l-21 32h493v-164h-711v153z" />
    <glyph glyph-name="uni01F3" unicode="&#x1f3;" horiz-adv-x="2122" 
d="M132 328v419q0 153 105.5 248.5t339.5 95.5q47 0 105.5 -10.5t106.5 -27.5v459h244v-1512h-166l-29 65q-50 -36 -124.5 -62t-156.5 -26q-148 0 -242 44t-138.5 122.5t-44.5 184.5zM789 204v673q-32 16 -84 28t-112 12q-99 0 -158 -36t-59 -123v-438q0 -87 56 -126.5
t150 -39.5q64 0 119.5 15.5t87.5 34.5zM1315 153l472 786l21 -32h-480v162h698v-151l-472 -786l-21 32h493v-164h-711v153z" />
    <glyph glyph-name="uni01F4" unicode="&#x1f4;" horiz-adv-x="1590" 
d="M805 -25q-192 0 -316 38t-194 106.5t-98 161.5t-28 204v480q0 113 27.5 208.5t97.5 166.5t194 110.5t317 39.5q186 0 302 -35.5t178 -99.5t85 -150.5t23 -187.5v-23l-256 -19v46q0 104 -31.5 160t-104 78t-196.5 22q-116 0 -199 -24t-127 -85t-44 -172v-546
q0 -110 43.5 -168t126.5 -79.5t200 -21.5q118 0 195.5 21.5t115 79.5t37.5 168v117h-313v179h559v-750h-141l-40 195q-7 -31 -29.5 -69t-68.5 -72t-123 -56.5t-192 -22.5zM655 1649l163 360h287l-275 -360h-175z" />
    <glyph glyph-name="uni01F5" unicode="&#x1f5;" horiz-adv-x="1201" 
d="M574 -430q-103 0 -195 12.5t-149 38.5l52 170q65 -19 140.5 -30t141.5 -11q124 0 179.5 53t55.5 167v127q-32 -22 -76.5 -35.5t-91 -20t-86.5 -6.5q-197 0 -305 87.5t-108 247.5v373q0 97 40.5 176t130 125.5t236.5 46.5q57 0 114 -14t103.5 -37t73.5 -50l15 80h198
v-1070q0 -129 -46.5 -226t-149.5 -150.5t-273 -53.5zM585 203q81 0 134.5 20t79.5 39v556q0 37 -55.5 68t-158.5 31q-99 0 -154 -38t-55 -125v-400q0 -86 59 -118.5t150 -32.5zM449 1248l127 360h253l-238 -360h-142z" />
    <glyph glyph-name="uni01F8" unicode="&#x1f8;" horiz-adv-x="1621" 
d="M199 1466h200l814 -1096l-27 -9v1105h235v-1466h-208l-803 1068l26 9v-1077h-237v1466zM785 1632l-275 360h287l163 -360h-175z" />
    <glyph glyph-name="uni01F9" unicode="&#x1f9;" horiz-adv-x="1245" 
d="M169 1069h244v-97q57 53 132 86.5t192 33.5q124 0 200.5 -44t112 -116.5t35.5 -161.5v-770h-244v764q0 55 -29 86.5t-75 44.5t-96 13q-64 0 -115.5 -20t-82 -57t-30.5 -89v-742h-244v1069zM628 1249l-238 360h253l127 -360h-142z" />
    <glyph glyph-name="Aringacute" unicode="&#x1fa;" horiz-adv-x="1484" 
d="M75 0l504 1466h322l508 -1466h-279l-397 1285h27l-408 -1285h-277zM336 281l55 203h704l53 -203h-812zM742 1541q-119 0 -188.5 62.5t-69.5 179.5q0 115 69.5 177.5t188.5 62.5t188.5 -62.5t69.5 -177.5q0 -117 -69 -179.5t-189 -62.5zM742 1681q39 0 67.5 20.5
t28.5 80.5q0 59 -28.5 80.5t-68.5 21.5q-39 0 -67 -20.5t-28 -79.5q0 -61 28 -82t68 -21zM623 1901l163 360h287l-275 -360h-175z" />
    <glyph glyph-name="aringacute" unicode="&#x1fb;" horiz-adv-x="1173" 
d="M437 -23q-100 0 -171.5 37.5t-109 104t-37.5 150.5q0 78 31 135.5t115 106t242 96.5q85 27 139 49t79 50t25 72q0 43 -15.5 74t-54 48t-107.5 17q-81 0 -121.5 -19.5t-54 -52.5t-13.5 -76v-43h-230v37q0 156 104.5 242t320.5 86q154 0 244 -44.5t129.5 -126t39.5 -191.5
v-434q0 -77 19.5 -100t75.5 -23l-15 -180h-51q-110 0 -167 34.5t-84 102.5q-27 -37 -73 -72t-110.5 -57.5t-149.5 -22.5zM505 145q41 0 90 16.5t91.5 46.5t63.5 72v275q-25 -22 -82.5 -51.5t-136.5 -56.5q-100 -33 -138 -72t-38 -94q0 -70 39 -103t111 -33zM574 1189
q-119 0 -188.5 63t-69.5 179t69.5 178t188.5 62t188.5 -62t69.5 -178t-69 -179t-189 -63zM574 1330q39 0 67.5 20.5t28.5 80.5q0 58 -28.5 80t-68.5 22q-39 0 -67 -21t-28 -80q0 -60 28 -81t68 -21zM503 1562l127 360h253l-238 -360h-142z" />
    <glyph glyph-name="AEacute" unicode="&#x1fc;" horiz-adv-x="1785" 
d="M364 443l48 203h475v619h-172l-352 -1265l-275 1l435 1466h1127v-202h-513v-422h446v-192h-446v-450h523v-201h-773v443h-523zM890 1649l163 360h287l-275 -360h-175z" />
    <glyph glyph-name="aeacute" unicode="&#x1fd;" horiz-adv-x="1736" 
d="M436 -22q-98 0 -169 37.5t-109 104.5t-40 153q-1 56 9.5 102.5t46 86.5t108.5 72.5t196 59.5q108 24 168 38.5t84 42.5t24 92q0 66 -38 109t-142 43q-80 0 -121.5 -24t-55 -62t-13.5 -82v-32h-231v26q0 158 104.5 252t321.5 94q102 0 185.5 -32.5t116.5 -100.5
q52 68 130 100.5t179 32.5q155 0 249 -41.5t137 -118t43 -182.5v-236h-620v-190q0 -94 48.5 -133t142.5 -39q69 0 112 11.5t64.5 52t24.5 126.5h225q-6 -147 -52.5 -225.5t-139 -108t-237.5 -29.5q-142 0 -225 50t-117 142l38 -3q-55 -58 -116 -100t-140 -65.5t-191 -23.5z
M511 142q41 0 89.5 13t90.5 40.5t63 68.5v269q-8 -10 -35.5 -22t-74.5 -25t-115 -28q-108 -23 -142.5 -69.5t-33.5 -100.5q1 -72 43.5 -109t114.5 -37zM999 648h394v121q0 92 -54 120t-145 28q-92 0 -143.5 -33.5t-51.5 -123.5v-112zM765 1248l127 360h253l-238 -360h-142z
" />
    <glyph glyph-name="Oslashacute" unicode="&#x1fe;" horiz-adv-x="1586" 
d="M409 -157l691 1833l104 -38l-692 -1833zM803 -25q-193 0 -317 40t-193 110.5t-96.5 165.5t-27.5 205v460q0 113 27 210t96 170t193 113.5t318 40.5q186 0 306 -43t187.5 -118.5t94 -175t26.5 -212.5v-430q0 -109 -27 -206t-94.5 -171t-187 -116.5t-305.5 -42.5zM803 185
q118 0 195 23.5t115.5 84.5t38.5 171v531q0 109 -38.5 171t-116 88.5t-194.5 26.5q-115 0 -198 -25.5t-126.5 -88t-43.5 -172.5v-531q0 -110 43 -171t126 -84.5t199 -23.5zM649 1649l163 360h287l-275 -360h-175z" />
    <glyph glyph-name="oslashacute" unicode="&#x1ff;" horiz-adv-x="1178" 
d="M276 -190l534 1465l91 -28l-532 -1465zM589 -23q-166 0 -266.5 43t-145.5 120.5t-45 181.5v424q0 106 51 183.5t153 119.5t253 42t252.5 -42t153 -119.5t51.5 -183.5v-424q0 -104 -44 -181.5t-144 -120.5t-269 -43zM589 151q95 0 154 35t59 122v451q0 88 -57.5 123
t-155.5 35q-96 0 -154.5 -35t-58.5 -123v-451q0 -87 56.5 -122t156.5 -35zM463 1248l127 360h253l-238 -360h-142z" />
    <glyph glyph-name="uni0200" unicode="&#x200;" horiz-adv-x="1484" 
d="M75 0l504 1466h322l508 -1466h-279l-397 1285h27l-408 -1285h-277zM336 281l55 203h704l53 -203h-812zM845 1617l-150 360h238l42 -360h-130zM551 1617l-150 360h238l42 -360h-130z" />
    <glyph glyph-name="uni0201" unicode="&#x201;" horiz-adv-x="1173" 
d="M437 -23q-100 0 -171.5 37.5t-109 104t-37.5 150.5q0 78 31 135.5t115 106t242 96.5q85 27 139 49t79 50t25 72q0 43 -15.5 74t-54 48t-107.5 17q-81 0 -121.5 -19.5t-54 -52.5t-13.5 -76v-43h-230v37q0 156 104.5 242t320.5 86q154 0 244 -44.5t129.5 -126t39.5 -191.5
v-434q0 -77 19.5 -100t75.5 -23l-15 -180h-51q-110 0 -167 34.5t-84 102.5q-27 -37 -73 -72t-110.5 -57.5t-149.5 -22.5zM505 145q41 0 90 16.5t91.5 46.5t63.5 72v275q-25 -22 -82.5 -51.5t-136.5 -56.5q-100 -33 -138 -72t-38 -94q0 -70 39 -103t111 -33zM681 1249
l-150 360h238l42 -360h-130zM379 1249l-150 360h238l42 -360h-130z" />
    <glyph glyph-name="uni0202" unicode="&#x202;" horiz-adv-x="1484" 
d="M75 0l504 1466h322l508 -1466h-279l-397 1285h27l-408 -1285h-277zM336 281l55 203h704l53 -203h-812zM416 1650q0 162 88 243.5t238 81.5t238 -81.5t88 -243.5h-178q0 65 -35 101t-113 36t-113 -36t-35 -101h-178z" />
    <glyph glyph-name="uni0203" unicode="&#x203;" horiz-adv-x="1173" 
d="M437 -23q-100 0 -171.5 37.5t-109 104t-37.5 150.5q0 78 31 135.5t115 106t242 96.5q85 27 139 49t79 50t25 72q0 43 -15.5 74t-54 48t-107.5 17q-81 0 -121.5 -19.5t-54 -52.5t-13.5 -76v-43h-230v37q0 156 104.5 242t320.5 86q154 0 244 -44.5t129.5 -126t39.5 -191.5
v-434q0 -77 19.5 -100t75.5 -23l-15 -180h-51q-110 0 -167 34.5t-84 102.5q-27 -37 -73 -72t-110.5 -57.5t-149.5 -22.5zM505 145q41 0 90 16.5t91.5 46.5t63.5 72v275q-25 -22 -82.5 -51.5t-136.5 -56.5q-100 -33 -138 -72t-38 -94q0 -70 39 -103t111 -33zM248 1249
q0 121 42.5 196.5t116.5 110t167 34.5t167 -34.5t116.5 -110t42.5 -196.5h-160q0 79 -42 128t-124 49t-124.5 -49t-42.5 -128h-159z" />
    <glyph glyph-name="uni0204" unicode="&#x204;" horiz-adv-x="1281" 
d="M199 1466h946v-199h-681v-420h603v-193h-603v-455h692v-199h-957v1466zM776 1617l-150 360h238l42 -360h-130zM482 1617l-150 360h238l42 -360h-130z" />
    <glyph glyph-name="uni0205" unicode="&#x205;" horiz-adv-x="1145" 
d="M132 349v402q0 159 117.5 249.5t332.5 90.5q238 0 342 -91.5t104 -250.5v-257h-652v-166q0 -107 50 -141t164 -34q82 0 127 11.5t64.5 46t21.5 105.5h224q-5 -130 -51.5 -203.5t-142.5 -103.5t-246 -30q-140 0 -242.5 36.5t-157.5 118t-55 217.5zM796 645v132
q0 62 -27 91.5t-74 39t-108 9.5q-92 0 -151.5 -29.5t-59.5 -119.5v-123h420zM696 1249l-150 360h238l42 -360h-130zM394 1249l-150 360h238l42 -360h-130z" />
    <glyph glyph-name="uni0206" unicode="&#x206;" horiz-adv-x="1281" 
d="M199 1466h946v-199h-681v-420h603v-193h-603v-455h692v-199h-957v1466zM347 1650q0 162 88 243.5t238 81.5t238 -81.5t88 -243.5h-178q0 65 -35 101t-113 36t-113 -36t-35 -101h-178z" />
    <glyph glyph-name="uni0207" unicode="&#x207;" horiz-adv-x="1145" 
d="M132 349v402q0 159 117.5 249.5t332.5 90.5q238 0 342 -91.5t104 -250.5v-257h-652v-166q0 -107 50 -141t164 -34q82 0 127 11.5t64.5 46t21.5 105.5h224q-5 -130 -51.5 -203.5t-142.5 -103.5t-246 -30q-140 0 -242.5 36.5t-157.5 118t-55 217.5zM796 645v132
q0 62 -27 91.5t-74 39t-108 9.5q-92 0 -151.5 -29.5t-59.5 -119.5v-123h420zM263 1249q0 121 42.5 196.5t116.5 110t167 34.5t167 -34.5t116.5 -110t42.5 -196.5h-160q0 79 -42 128t-124 49t-124.5 -49t-42.5 -128h-159z" />
    <glyph glyph-name="uni0208" unicode="&#x208;" horiz-adv-x="1143" 
d="M169 198h271v1071h-271v197h805v-197h-270v-1071h270v-198h-805v198zM674 1617l-150 360h238l42 -360h-130zM380 1617l-150 360h238l42 -360h-130z" />
    <glyph glyph-name="uni0209" unicode="&#x209;" horiz-adv-x="533" 
d="M145 1069h243v-1069h-243v1069zM373 1249l-150 360h238l42 -360h-130zM71 1249l-150 360h238l42 -360h-130z" />
    <glyph glyph-name="uni020A" unicode="&#x20a;" horiz-adv-x="1143" 
d="M169 198h271v1071h-271v197h805v-197h-270v-1071h270v-198h-805v198zM245 1650q0 162 88 243.5t238 81.5t238 -81.5t88 -243.5h-178q0 65 -35 101t-113 36t-113 -36t-35 -101h-178z" />
    <glyph glyph-name="uni020B" unicode="&#x20b;" horiz-adv-x="533" 
d="M145 1069h243v-1069h-243v1069zM-60 1249q0 121 42.5 196.5t116.5 110t167 34.5t167 -34.5t116.5 -110t42.5 -196.5h-160q0 79 -42 128t-124 49t-124.5 -49t-42.5 -128h-159z" />
    <glyph glyph-name="uni020C" unicode="&#x20c;" horiz-adv-x="1586" 
d="M803 -25q-193 0 -317 40t-193 110.5t-96.5 165.5t-27.5 205v460q0 113 27 210t96 170t193 113.5t318 40.5q186 0 306 -43t187.5 -118.5t94 -175t26.5 -212.5v-430q0 -109 -27 -206t-94.5 -171t-187 -116.5t-305.5 -42.5zM803 185q118 0 195 23.5t115.5 84.5t38.5 171v531
q0 109 -38.5 171t-116 88.5t-194.5 26.5q-115 0 -198 -25.5t-126.5 -88t-43.5 -172.5v-531q0 -110 43 -171t126 -84.5t199 -23.5zM896 1617l-150 360h238l42 -360h-130zM602 1617l-150 360h238l42 -360h-130z" />
    <glyph glyph-name="uni020D" unicode="&#x20d;" horiz-adv-x="1178" 
d="M589 -23q-166 0 -266.5 43t-145.5 120.5t-45 181.5v424q0 106 51 183.5t153 119.5t253 42t252.5 -42t153 -119.5t51.5 -183.5v-424q0 -104 -44 -181.5t-144 -120.5t-269 -43zM589 151q95 0 154 35t59 122v451q0 88 -57.5 123t-155.5 35q-96 0 -154.5 -35t-58.5 -123v-451
q0 -87 56.5 -122t156.5 -35zM697 1249l-150 360h238l42 -360h-130zM395 1249l-150 360h238l42 -360h-130z" />
    <glyph glyph-name="uni020E" unicode="&#x20e;" horiz-adv-x="1586" 
d="M803 -25q-193 0 -317 40t-193 110.5t-96.5 165.5t-27.5 205v460q0 113 27 210t96 170t193 113.5t318 40.5q186 0 306 -43t187.5 -118.5t94 -175t26.5 -212.5v-430q0 -109 -27 -206t-94.5 -171t-187 -116.5t-305.5 -42.5zM803 185q118 0 195 23.5t115.5 84.5t38.5 171v531
q0 109 -38.5 171t-116 88.5t-194.5 26.5q-115 0 -198 -25.5t-126.5 -88t-43.5 -172.5v-531q0 -110 43 -171t126 -84.5t199 -23.5zM467 1650q0 162 88 243.5t238 81.5t238 -81.5t88 -243.5h-178q0 65 -35 101t-113 36t-113 -36t-35 -101h-178z" />
    <glyph glyph-name="uni020F" unicode="&#x20f;" horiz-adv-x="1178" 
d="M589 -23q-166 0 -266.5 43t-145.5 120.5t-45 181.5v424q0 106 51 183.5t153 119.5t253 42t252.5 -42t153 -119.5t51.5 -183.5v-424q0 -104 -44 -181.5t-144 -120.5t-269 -43zM589 151q95 0 154 35t59 122v451q0 88 -57.5 123t-155.5 35q-96 0 -154.5 -35t-58.5 -123v-451
q0 -87 56.5 -122t156.5 -35zM264 1249q0 121 42.5 196.5t116.5 110t167 34.5t167 -34.5t116.5 -110t42.5 -196.5h-160q0 79 -42 128t-124 49t-124.5 -49t-42.5 -128h-159z" />
    <glyph glyph-name="uni0210" unicode="&#x210;" horiz-adv-x="1477" 
d="M199 0v1466h640q171 0 272.5 -50t146 -147t44.5 -240q0 -99 -19.5 -177t-66 -133.5t-126.5 -89.5l292 -629h-274l-269 589h-374v-589h-266zM465 781h385q80 0 122 31t58 84.5t16 118.5q0 63 -12.5 122.5t-50.5 98t-117 38.5h-401v-493zM820 1617l-150 360h238l42 -360
h-130zM526 1617l-150 360h238l42 -360h-130z" />
    <glyph glyph-name="uni0211" unicode="&#x211;" horiz-adv-x="820" 
d="M169 1069h244v-135q23 48 83.5 82t138.5 51.5t153 17.5l-6 -208q-57 -2 -119.5 -13t-117.5 -30.5t-91 -46.5t-41 -60v-727h-244v1069zM584 1249l-150 360h238l42 -360h-130zM282 1249l-150 360h238l42 -360h-130z" />
    <glyph glyph-name="uni0212" unicode="&#x212;" horiz-adv-x="1477" 
d="M199 0v1466h640q171 0 272.5 -50t146 -147t44.5 -240q0 -99 -19.5 -177t-66 -133.5t-126.5 -89.5l292 -629h-274l-269 589h-374v-589h-266zM465 781h385q80 0 122 31t58 84.5t16 118.5q0 63 -12.5 122.5t-50.5 98t-117 38.5h-401v-493zM391 1650q0 162 88 243.5t238 81.5
t238 -81.5t88 -243.5h-178q0 65 -35 101t-113 36t-113 -36t-35 -101h-178z" />
    <glyph glyph-name="uni0213" unicode="&#x213;" horiz-adv-x="820" 
d="M169 1069h244v-135q23 48 83.5 82t138.5 51.5t153 17.5l-6 -208q-57 -2 -119.5 -13t-117.5 -30.5t-91 -46.5t-41 -60v-727h-244v1069zM155 1249q0 121 42.5 196.5t116.5 110t167 34.5t167 -34.5t116.5 -110t42.5 -196.5h-160q0 79 -42 128t-124 49t-124.5 -49t-42.5 -128
h-159z" />
    <glyph glyph-name="uni0214" unicode="&#x214;" horiz-adv-x="1562" 
d="M790 -25q-185 0 -303.5 38t-184.5 105t-92 157t-26 195v997h265v-1013q0 -109 43 -167.5t120 -80t178 -21.5q104 0 175.5 22t109.5 80.5t38 166.5v1013h265v-989q0 -104 -25 -195t-88 -160.5t-178 -108.5t-297 -39zM884 1617l-150 360h238l42 -360h-130zM590 1617
l-150 360h238l42 -360h-130z" />
    <glyph glyph-name="uni0215" unicode="&#x215;" horiz-adv-x="1242" 
d="M504 -23q-112 0 -188.5 42t-116 113t-39.5 159v778h244v-749q0 -55 27.5 -90t71.5 -51.5t94 -16.5q64 0 116.5 20.5t84 60t31.5 93.5v733h244v-1069h-226l-12 123q-35 -68 -126.5 -107t-204.5 -39zM730 1249l-150 360h238l42 -360h-130zM428 1249l-150 360h238l42 -360
h-130z" />
    <glyph glyph-name="uni0216" unicode="&#x216;" horiz-adv-x="1562" 
d="M790 -25q-185 0 -303.5 38t-184.5 105t-92 157t-26 195v997h265v-1013q0 -109 43 -167.5t120 -80t178 -21.5q104 0 175.5 22t109.5 80.5t38 166.5v1013h265v-989q0 -104 -25 -195t-88 -160.5t-178 -108.5t-297 -39zM455 1650q0 162 88 243.5t238 81.5t238 -81.5
t88 -243.5h-178q0 65 -35 101t-113 36t-113 -36t-35 -101h-178z" />
    <glyph glyph-name="uni0217" unicode="&#x217;" horiz-adv-x="1242" 
d="M504 -23q-112 0 -188.5 42t-116 113t-39.5 159v778h244v-749q0 -55 27.5 -90t71.5 -51.5t94 -16.5q64 0 116.5 20.5t84 60t31.5 93.5v733h244v-1069h-226l-12 123q-35 -68 -126.5 -107t-204.5 -39zM297 1249q0 121 42.5 196.5t116.5 110t167 34.5t167 -34.5t116.5 -110
t42.5 -196.5h-160q0 79 -42 128t-124 49t-124.5 -49t-42.5 -128h-159z" />
    <glyph glyph-name="uni0218" unicode="&#x218;" horiz-adv-x="1289" 
d="M689 -25q-154 0 -301.5 35.5t-259.5 99.5l92 196q84 -47 205.5 -84t257.5 -37q100 0 152 27.5t71 80.5t19 127q0 41 -14 75t-55.5 62.5t-125.5 53.5l-284 88q-114 35 -179 90.5t-92 131.5t-27 171q0 139 66 226.5t180.5 129.5t256.5 42q159 0 279.5 -28t211.5 -82
l-72 -192q-76 38 -173.5 65.5t-216.5 27.5q-127 0 -200 -37t-73 -145q0 -73 36 -114t141 -75l289 -91q149 -46 221.5 -139t72.5 -263q0 -128 -49 -227.5t-154.5 -157t-274.5 -57.5zM635 -615l-107 46q57 55 84.5 115.5t27.5 138.5v14.5t-1 14.5l57 -89h-177v258h265v-101
q0 -139 -36.5 -232t-112.5 -165z" />
    <glyph glyph-name="uni0219" unicode="&#x219;" horiz-adv-x="993" 
d="M119 62l52 169q69 -31 161 -55.5t180 -24.5q91 0 130 39t39 103q0 52 -19.5 81.5t-77.5 49.5l-241 80q-123 41 -170 112t-47 176q0 147 97 223t275 76q129 0 224 -25t153 -55l-57 -160q-30 15 -80.5 30t-106.5 25.5t-105 10.5q-100 0 -134 -31t-34 -90q0 -39 17 -64
t62 -41l231 -79q90 -30 140.5 -71.5t71 -101t20.5 -143.5q0 -87 -40 -159.5t-122.5 -116t-210.5 -43.5q-140 0 -240 25t-168 60zM495 -615l-107 46q57 55 84.5 115.5t27.5 138.5v14.5t-1 14.5l57 -89h-177v258h265v-101q0 -139 -36.5 -232t-112.5 -165z" />
    <glyph glyph-name="uni021A" unicode="&#x21a;" horiz-adv-x="1197" 
d="M466 0v1260h-413v206h1091v-206h-413v-1260h-265zM581 -615l-107 46q57 55 84.5 115.5t27.5 138.5v14.5t-1 14.5l57 -89h-177v258h265v-101q0 -139 -36.5 -232t-112.5 -165z" />
    <glyph glyph-name="uni021B" unicode="&#x21b;" horiz-adv-x="819" 
d="M223 332v575h-154v162h162l24 340h212v-340h259v-162h-259v-557q0 -102 49.5 -137.5t176.5 -35.5h42l-14 -188h-58q-157 0 -253.5 31t-141.5 106.5t-45 205.5zM457 -615l-107 46q57 55 84.5 115.5t27.5 138.5v14.5t-1 14.5l57 -89h-177v258h265v-101q0 -139 -36.5 -232
t-112.5 -165z" />
    <glyph glyph-name="uni021E" unicode="&#x21e;" horiz-adv-x="1592" 
d="M197 1466h266v-632h666v632h266v-1466h-266v630h-666v-630h-266v1466zM701 1637l-270 343h165l240 -213h-79l238 213h166l-270 -343h-190z" />
    <glyph glyph-name="uni021F" unicode="&#x21f;" horiz-adv-x="1244" 
d="M170 1512h244v-545q39 55 127.5 89.5t201.5 34.5t189 -39t114.5 -107.5t38.5 -156.5v-788h-244v765q0 56 -28 86.5t-72.5 43.5t-95.5 13q-63 0 -115.5 -19.5t-84 -56t-31.5 -87.5v-745h-244v1512zM573 1645l-270 357h165l240 -227h-79l238 227h166l-270 -357h-190z" />
    <glyph glyph-name="uni0220" unicode="&#x220;" horiz-adv-x="1536" 
d="M197 1466h262v-143l-28 -6q37 46 95 85t147.5 63t218.5 24q161 0 259 -54.5t143 -145t45 -199.5v-1499h-266v1488q0 103 -75.5 152t-205.5 49q-155 0 -242 -64t-87 -164v-1052h-266v1466z" />
    <glyph glyph-name="uni0222" unicode="&#x222;" horiz-adv-x="1586" 
d="M803 -25q-193 0 -317 39.5t-193 108t-96.5 156.5t-27.5 186v50q0 101 27 191t96 159t193 108.5t318 39.5q186 0 306 -41.5t187.5 -114t94 -164.5t26.5 -192v-20q0 -97 -27 -187.5t-94.5 -162.5t-187 -114t-305.5 -42zM803 185q177 0 263 54t86 194v121q0 138 -86.5 194
t-262.5 56q-173 0 -270.5 -55t-97.5 -195v-121q0 -141 97 -194.5t271 -53.5zM1152 1266v220h264v-188q0 -94 -27 -182t-94 -158.5t-186.5 -112t-305.5 -41.5q-193 0 -316.5 39t-193 107.5t-96.5 157.5t-27 190v188h265v-220q0 -146 97 -199.5t271 -53.5q177 0 263 54t86 199
z" />
    <glyph glyph-name="uni0223" unicode="&#x223;" horiz-adv-x="1178" 
d="M589 -23q-166 0 -266.5 43t-145.5 120.5t-45 181.5v279q0 159 115 239t342 80q226 0 341.5 -80t115.5 -239v-279q0 -104 -44 -181.5t-144 -120.5t-269 -43zM589 151q95 0 154 35t59 122v307q0 87 -57.5 122t-155.5 35q-96 0 -154.5 -35t-58.5 -122v-307q0 -87 56.5 -122
t156.5 -35zM802 1512h244v-396q0 -103 -44 -174t-144 -107t-269 -36q-249 0 -353 81t-104 236v396h244v-409q0 -87 56.5 -123.5t156.5 -36.5q95 0 154 36.5t59 123.5v409z" />
    <glyph glyph-name="uni0226" unicode="&#x226;" horiz-adv-x="1484" 
d="M75 0l504 1466h322l508 -1466h-279l-397 1285h27l-408 -1285h-277zM336 281l55 203h704l53 -203h-812zM625 1650v246h234v-246h-234z" />
    <glyph glyph-name="uni0227" unicode="&#x227;" horiz-adv-x="1173" 
d="M437 -23q-100 0 -171.5 37.5t-109 104t-37.5 150.5q0 78 31 135.5t115 106t242 96.5q85 27 139 49t79 50t25 72q0 43 -15.5 74t-54 48t-107.5 17q-81 0 -121.5 -19.5t-54 -52.5t-13.5 -76v-43h-230v37q0 156 104.5 242t320.5 86q154 0 244 -44.5t129.5 -126t39.5 -191.5
v-434q0 -77 19.5 -100t75.5 -23l-15 -180h-51q-110 0 -167 34.5t-84 102.5q-27 -37 -73 -72t-110.5 -57.5t-149.5 -22.5zM505 145q41 0 90 16.5t91.5 46.5t63.5 72v275q-25 -22 -82.5 -51.5t-136.5 -56.5q-100 -33 -138 -72t-38 -94q0 -70 39 -103t111 -33zM450 1266v246
h248v-246h-248z" />
    <glyph glyph-name="uni0228" unicode="&#x228;" horiz-adv-x="1281" 
d="M199 1466h946v-199h-681v-420h603v-193h-603v-455h692v-199h-957v1466zM523 -478v118h181q32 0 44 13.5t12 32.5v62q0 20 -14 33t-42 13h-93v236h121v-166l-49 46q122 0 175 -42t53 -130v-43q0 -71 -46 -122t-159 -51h-183z" />
    <glyph glyph-name="uni0229" unicode="&#x229;" horiz-adv-x="1145" 
d="M132 349v402q0 159 117.5 249.5t332.5 90.5q238 0 342 -91.5t104 -250.5v-257h-652v-166q0 -107 50 -141t164 -34q82 0 127 11.5t64.5 46t21.5 105.5h224q-5 -130 -51.5 -203.5t-142.5 -103.5t-246 -30q-140 0 -242.5 36.5t-157.5 118t-55 217.5zM796 645v132
q0 62 -27 91.5t-74 39t-108 9.5q-92 0 -151.5 -29.5t-59.5 -119.5v-123h420zM437 -478v118h181q32 0 44 13.5t12 32.5v62q0 20 -14 33t-42 13h-93v236h121v-166l-49 46q122 0 175 -42t53 -130v-43q0 -71 -46 -122t-159 -51h-183z" />
    <glyph glyph-name="uni022A" unicode="&#x22a;" horiz-adv-x="1586" 
d="M803 -25q-193 0 -317 40t-193 110.5t-96.5 165.5t-27.5 205v460q0 113 27 210t96 170t193 113.5t318 40.5q186 0 306 -43t187.5 -118.5t94 -175t26.5 -212.5v-430q0 -109 -27 -206t-94.5 -171t-187 -116.5t-305.5 -42.5zM803 185q118 0 195 23.5t115.5 84.5t38.5 171v531
q0 109 -38.5 171t-116 88.5t-194.5 26.5q-115 0 -198 -25.5t-126.5 -88t-43.5 -172.5v-531q0 -110 43 -171t126 -84.5t199 -23.5zM867 1652v215h246v-215h-246zM473 1652v215h245v-215h-245zM481 2022v163h624v-163h-624z" />
    <glyph glyph-name="uni022B" unicode="&#x22b;" horiz-adv-x="1178" 
d="M589 -23q-166 0 -266.5 43t-145.5 120.5t-45 181.5v424q0 106 51 183.5t153 119.5t253 42t252.5 -42t153 -119.5t51.5 -183.5v-424q0 -104 -44 -181.5t-144 -120.5t-269 -43zM589 151q95 0 154 35t59 122v451q0 88 -57.5 123t-155.5 35q-96 0 -154.5 -35t-58.5 -123v-451
q0 -87 56.5 -122t156.5 -35zM664 1215v215h246v-215h-246zM270 1215v215h245v-215h-245zM311 1547v163h558v-163h-558z" />
    <glyph glyph-name="uni022C" unicode="&#x22c;" horiz-adv-x="1586" 
d="M803 -25q-193 0 -317 40t-193 110.5t-96.5 165.5t-27.5 205v460q0 113 27 210t96 170t193 113.5t318 40.5q186 0 306 -43t187.5 -118.5t94 -175t26.5 -212.5v-430q0 -109 -27 -206t-94.5 -171t-187 -116.5t-305.5 -42.5zM803 185q118 0 195 23.5t115.5 84.5t38.5 171v531
q0 109 -38.5 171t-116 88.5t-194.5 26.5q-115 0 -198 -25.5t-126.5 -88t-43.5 -172.5v-531q0 -110 43 -171t126 -84.5t199 -23.5zM914 1633q-60 0 -99.5 15.5t-66 36.5t-49.5 36.5t-52 15.5t-47.5 -21.5t-18.5 -67.5h-122q0 135 57.5 192.5t155.5 57.5q61 0 99.5 -16
t64.5 -36.5t48 -36t50 -15.5q31 0 51.5 21t20.5 67h121q0 -134 -57.5 -191.5t-155.5 -57.5zM481 2029v163h624v-163h-624z" />
    <glyph glyph-name="uni022D" unicode="&#x22d;" horiz-adv-x="1178" 
d="M589 -23q-166 0 -266.5 43t-145.5 120.5t-45 181.5v424q0 106 51 183.5t153 119.5t253 42t252.5 -42t153 -119.5t51.5 -183.5v-424q0 -104 -44 -181.5t-144 -120.5t-269 -43zM589 151q95 0 154 35t59 122v451q0 88 -57.5 123t-155.5 35q-96 0 -154.5 -35t-58.5 -123v-451
q0 -87 56.5 -122t156.5 -35zM710 1268q-60 0 -99.5 15.5t-66 36.5t-49.5 36.5t-52 15.5t-47.5 -21t-18.5 -68h-122q0 135 57.5 192.5t155.5 57.5q61 0 99.5 -15.5t64.5 -36t48 -36.5t50 -16q31 0 51.5 21t20.5 68h121q0 -135 -57.5 -192.5t-155.5 -57.5zM311 1675v163h558
v-163h-558z" />
    <glyph glyph-name="uni022E" unicode="&#x22e;" horiz-adv-x="1586" 
d="M803 -25q-193 0 -317 40t-193 110.5t-96.5 165.5t-27.5 205v460q0 113 27 210t96 170t193 113.5t318 40.5q186 0 306 -43t187.5 -118.5t94 -175t26.5 -212.5v-430q0 -109 -27 -206t-94.5 -171t-187 -116.5t-305.5 -42.5zM803 185q118 0 195 23.5t115.5 84.5t38.5 171v531
q0 109 -38.5 171t-116 88.5t-194.5 26.5q-115 0 -198 -25.5t-126.5 -88t-43.5 -172.5v-531q0 -110 43 -171t126 -84.5t199 -23.5zM676 1650v246h234v-246h-234z" />
    <glyph glyph-name="uni022F" unicode="&#x22f;" horiz-adv-x="1178" 
d="M589 -23q-166 0 -266.5 43t-145.5 120.5t-45 181.5v424q0 106 51 183.5t153 119.5t253 42t252.5 -42t153 -119.5t51.5 -183.5v-424q0 -104 -44 -181.5t-144 -120.5t-269 -43zM589 151q95 0 154 35t59 122v451q0 88 -57.5 123t-155.5 35q-96 0 -154.5 -35t-58.5 -123v-451
q0 -87 56.5 -122t156.5 -35zM466 1266v246h248v-246h-248z" />
    <glyph glyph-name="uni0230" unicode="&#x230;" horiz-adv-x="1586" 
d="M803 -25q-193 0 -317 40t-193 110.5t-96.5 165.5t-27.5 205v460q0 113 27 210t96 170t193 113.5t318 40.5q186 0 306 -43t187.5 -118.5t94 -175t26.5 -212.5v-430q0 -109 -27 -206t-94.5 -171t-187 -116.5t-305.5 -42.5zM803 185q118 0 195 23.5t115.5 84.5t38.5 171v531
q0 109 -38.5 171t-116 88.5t-194.5 26.5q-115 0 -198 -25.5t-126.5 -88t-43.5 -172.5v-531q0 -110 43 -171t126 -84.5t199 -23.5zM676 1638v246h234v-246h-234zM481 2021v163h624v-163h-624z" />
    <glyph glyph-name="uni0231" unicode="&#x231;" horiz-adv-x="1178" 
d="M589 -23q-166 0 -266.5 43t-145.5 120.5t-45 181.5v424q0 106 51 183.5t153 119.5t253 42t252.5 -42t153 -119.5t51.5 -183.5v-424q0 -104 -44 -181.5t-144 -120.5t-269 -43zM589 151q95 0 154 35t59 122v451q0 88 -57.5 123t-155.5 35q-96 0 -154.5 -35t-58.5 -123v-451
q0 -87 56.5 -122t156.5 -35zM466 1196v246h248v-246h-248zM311 1552v163h558v-163h-558z" />
    <glyph glyph-name="uni0232" unicode="&#x232;" horiz-adv-x="1309" 
d="M526 567l-510 899h280l386 -696h-44l386 696h269l-503 -899v-567h-264v567zM342 1711v163h624v-163h-624z" />
    <glyph glyph-name="uni0233" unicode="&#x233;" horiz-adv-x="1108" 
d="M165 -459l-14 199q105 10 177 65.5t119 174.5l27 68l17 -90l-443 1111h245l337 -898h-90l283 898h243l-382 -1094q-76 -217 -200 -317.5t-319 -116.5zM277 1326v163h558v-163h-558z" />
    <glyph glyph-name="uni0237" unicode="&#x237;" horiz-adv-x="634" 
d="M-8 -178h40q69 0 107.5 23t54 64t15.5 96v1064h245v-1069q0 -122 -38 -202t-116.5 -118.5t-202.5 -38.5h-89z" />
    <glyph glyph-name="uni023A" unicode="&#x23a;" horiz-adv-x="1484" 
d="M419 -174l691 1833l104 -38l-692 -1833zM75 0l504 1466h322l508 -1466h-279l-397 1285h27l-408 -1285h-277zM336 281l55 203h704l53 -203h-812z" />
    <glyph glyph-name="uni023B" unicode="&#x23b;" horiz-adv-x="1479" 
d="M322 -157l691 1833l104 -38l-692 -1833zM774 -25q-192 0 -311.5 38t-183.5 106.5t-88 161.5t-24 204v480q0 113 23.5 208.5t87 166.5t183 110.5t312.5 39.5q181 0 293 -35.5t172 -101.5t81.5 -157.5t21.5 -203.5v-16l-257 -29v59q0 113 -28.5 172t-96.5 81t-186 22
q-116 0 -191 -24t-112 -85t-37 -172v-546q0 -110 37 -168t113 -79.5t193 -21.5t184 18.5t95.5 75t28.5 169.5v39h257v-21q0 -109 -20 -199t-78 -155t-171 -101t-298 -36z" />
    <glyph glyph-name="uni023C" unicode="&#x23c;" horiz-adv-x="1109" 
d="M246 -190l534 1465l91 -28l-532 -1465zM575 -23q-175 0 -271 49.5t-134 130.5t-38 176v421q0 157 116 247t323 90q139 0 235 -33.5t146.5 -116.5t50.5 -234l-230 -19q0 98 -17 146.5t-59 65.5t-118 17q-98 0 -150.5 -37.5t-52.5 -127.5v-428q0 -95 51.5 -133t151.5 -38
q78 0 119.5 14.5t57.5 58t19 131.5h227q-3 -140 -42 -223t-131 -120t-254 -37z" />
    <glyph glyph-name="uni023D" unicode="&#x23d;" horiz-adv-x="1163" 
d="M30 886h681v-175h-681v175zM199 1466h265v-1260h628v-206h-893v1466z" />
    <glyph glyph-name="uni023E" unicode="&#x23e;" horiz-adv-x="1197" 
d="M309 -174l691 1833l104 -38l-692 -1833zM466 0v1260h-413v206h1091v-206h-413v-1260h-265z" />
    <glyph glyph-name="uni0241" unicode="&#x241;" horiz-adv-x="1283" 
d="M527 0v461l253 287q74 85 103 156.5t29 160.5q0 60 -22.5 110.5t-79 81.5t-162.5 31q-159 0 -226 -65.5t-67 -173.5v-68h-249v60q0 142 50.5 242t169 153.5t322.5 53.5q161 0 264.5 -34.5t161 -94t80.5 -133.5t23 -152q0 -148 -63.5 -258t-187.5 -226l-188 -177l33 76
v-491h-244z" />
    <glyph glyph-name="uni0242" unicode="&#x242;" horiz-adv-x="1229" 
d="M460 0v169l253 221q85 73 108.5 138.5t23.5 144.5q0 63 -15 112t-60.5 76.5t-137.5 27.5q-104 0 -154.5 -27.5t-66.5 -78t-16 -120.5v-74h-249v60q0 106 22 188.5t75 139t148 85.5t241 29q151 0 245 -34.5t145 -93t70 -131t19 -148.5q0 -138 -54.5 -252.5t-197.5 -208.5
l-188 -127l33 73v-169h-244z" />
    <glyph glyph-name="uni0243" unicode="&#x243;" horiz-adv-x="1444" 
d="M30 535h681v-175h-681v175zM199 0v1466h554q205 0 315 -43.5t151.5 -130t41.5 -217.5q0 -115 -45 -189.5t-179 -100.5l1 13q111 -9 174 -57t89 -126t26 -179q0 -227 -120 -331.5t-392 -104.5h-616zM465 188h309q114 0 177 20t87.5 76t24.5 164q0 71 -17 128t-71 91
t-165 34h-345v-513zM465 866h328q88 0 130.5 24t55.5 70.5t13 111.5q0 87 -20.5 132t-77 60.5t-164.5 15.5h-265v-414z" />
    <glyph glyph-name="uni0244" unicode="&#x244;" horiz-adv-x="1562" 
d="M68 947h1426v-171h-1426v171zM790 -25q-185 0 -303.5 38t-184.5 105t-92 157t-26 195v997h265v-1013q0 -109 43 -167.5t120 -80t178 -21.5q104 0 175.5 22t109.5 80.5t38 166.5v1013h265v-989q0 -104 -25 -195t-88 -160.5t-178 -108.5t-297 -39z" />
    <glyph glyph-name="uni0245" unicode="&#x245;" horiz-adv-x="1451" 
d="M1396 0h-281l-393 1179l-385 -1179h-282l521 1466h299z" />
    <glyph glyph-name="uni0246" unicode="&#x246;" horiz-adv-x="1321" 
d="M199 1466h986v-199h-721v-420h643v-193h-643v-455h732v-199h-997v1466zM449 -189l528 1887l107 -28l-529 -1887z" />
    <glyph glyph-name="uni0247" unicode="&#x247;" horiz-adv-x="1145" 
d="M255 -190l534 1465l90 -28l-532 -1465zM132 349v402q0 159 117.5 249.5t332.5 90.5q238 0 342 -91.5t104 -250.5v-257h-652v-166q0 -107 50 -141t164 -34q82 0 127 11.5t64.5 46t21.5 105.5h224q-5 -130 -51.5 -203.5t-142.5 -103.5t-246 -30q-140 0 -242.5 36.5
t-157.5 118t-55 217.5zM796 645v132q0 62 -27 91.5t-74 39t-108 9.5q-92 0 -151.5 -29.5t-59.5 -119.5v-123h420z" />
    <glyph glyph-name="uni0248" unicode="&#x248;" horiz-adv-x="1217" 
d="M1169 861v-174h-707v174h707zM81 68l64 198q41 -18 100 -36t125 -29.5t125 -11.5q141 0 200.5 69.5t59.5 180.5v821h-523v206h788v-1041q0 -210 -131.5 -328.5t-378.5 -118.5q-76 0 -154.5 11.5t-149.5 32t-125 46.5z" />
    <glyph glyph-name="uni0249" unicode="&#x249;" horiz-adv-x="634" 
d="M73 669h517v-153h-517v153zM-8 -178h40q69 0 107.5 23t54 64t15.5 96v1064h245v-1069q0 -122 -38 -202t-116.5 -118.5t-202.5 -38.5h-89zM208 1266v246h247v-246h-247z" />
    <glyph glyph-name="uni024A" unicode="&#x24a;" horiz-adv-x="1579" 
d="M729 -23q-280 0 -420 130.5t-140 352.5v550q0 139 60 247.5t183.5 171t311.5 62.5q141 0 245 -40t157 -102l-31 -45l31 162h236v-1534q0 -56 10 -86.5t36 -42.5t75 -12l-16 -200h-66q-157 0 -228.5 67.5t-71.5 204.5v315l94 -21q-113 -103 -221 -141.5t-245 -38.5z
M766 185q131 0 211.5 28t118.5 56v870q0 32 -30 64.5t-97.5 54.5t-180.5 22q-170 0 -261.5 -67t-91.5 -197v-579q0 -126 90.5 -189t240.5 -63z" />
    <glyph glyph-name="uni024B" unicode="&#x24b;" horiz-adv-x="1196" 
d="M1044 -409q-123 0 -189 73.5t-66 193.5v180q-49 -31 -114.5 -46t-125.5 -15q-146 0 -238 45.5t-135.5 122.5t-43.5 171v427q0 158 108.5 253t308.5 95q55 0 108.5 -13.5t96.5 -35t68 -47.5l13 74h198v-1176q0 -76 19.5 -99t75.5 -23l-15 -180h-69zM587 151q92 0 145 27
t57 36v615q-13 34 -62 61t-139 27q-95 0 -153.5 -38t-58.5 -126v-453q0 -86 58 -117.5t153 -31.5z" />
    <glyph glyph-name="uni024C" unicode="&#x24c;" horiz-adv-x="1477" 
d="M30 771h688v-175h-688v175zM199 0v1466h640q171 0 272.5 -50t146 -147t44.5 -240q0 -99 -19.5 -177t-66 -133.5t-126.5 -89.5l292 -629h-274l-269 589h-374v-589h-266zM465 781h385q80 0 122 31t58 84.5t16 118.5q0 63 -12.5 122.5t-50.5 98t-117 38.5h-401v-493z" />
    <glyph glyph-name="uni024D" unicode="&#x24d;" horiz-adv-x="820" 
d="M30 530h678v-175h-678v175zM169 1069h244v-135q23 48 83.5 82t138.5 51.5t153 17.5l-6 -208q-57 -2 -119.5 -13t-117.5 -30.5t-91 -46.5t-41 -60v-727h-244v1069z" />
    <glyph glyph-name="uni024E" unicode="&#x24e;" horiz-adv-x="1309" 
d="M17 1276h1275v-175h-1275v175zM526 567l-510 899h280l386 -696h-44l386 696h269l-503 -899v-567h-264v567z" />
    <glyph glyph-name="uni024F" unicode="&#x24f;" horiz-adv-x="1103" 
d="M30 836h1058v-175h-1058v175zM165 -459l-14 199q105 10 177 65.5t119 174.5l27 68l17 -90l-443 1111h245l337 -898h-90l283 898h243l-382 -1094q-76 -217 -200 -317.5t-319 -116.5z" />
    <glyph glyph-name="uni0251" unicode="&#x251;" horiz-adv-x="1213" 
d="M551 -23q-213 0 -316 91t-103 254v423q0 152 101 249t312 97q55 0 115 -18t110 -48t73 -66l-33 -28l24 138h197v-774q0 -77 19.5 -100t75.5 -23l-14 -180h-51q-110 0 -167 34.5t-84 102.5l93 -12q-98 -82 -179.5 -111t-172.5 -29zM582 153q72 0 124.5 18t80.5 37v628
q0 34 -57.5 57.5t-141.5 23.5q-99 0 -155.5 -37t-56.5 -125v-446q0 -86 55.5 -121t150.5 -35z" />
    <glyph glyph-name="uni0253" unicode="&#x253;" horiz-adv-x="1205" 
d="M645 -23q-90 0 -160.5 29.5t-118.5 60.5l-26 -67h-171v1152q0 191 73 275.5t260 84.5h81l9 -173h-49q-43 0 -72 -14.5t-43.5 -49.5t-14.5 -96v-149q49 27 115.5 44t136.5 17q146 0 236 -46.5t131 -124.5t41 -173v-410q0 -106 -51.5 -187t-147 -127t-229.5 -46zM606 154
q96 0 159.5 43t63.5 129v429q0 85 -52.5 123.5t-147.5 38.5q-71 0 -129.5 -21t-86.5 -35v-654q34 -23 84 -38t109 -15z" />
    <glyph glyph-name="uni0254" unicode="&#x254;" horiz-adv-x="1109" 
d="M534 -23q-162 0 -253.5 37t-130.5 120t-43 223h228q2 -88 18 -131.5t57.5 -58t119.5 -14.5q100 0 151.5 38t51.5 133v428q0 90 -52 127.5t-151 37.5q-76 0 -118 -17t-59 -65.5t-17 -146.5l-230 19q0 151 50.5 234t147 116.5t235.5 33.5q206 0 322 -90t116 -247v-421
q0 -95 -38 -176t-133.5 -130.5t-271.5 -49.5z" />
    <glyph glyph-name="uni0256" unicode="&#x256;" horiz-adv-x="1199" 
d="M1044 -409q-123 0 -189 73.5t-66 193.5v248l68 -9q-49 -54 -129.5 -87t-170.5 -33q-148 0 -242 44t-138.5 122.5t-44.5 184.5v419q0 153 105.5 248.5t339.5 95.5q47 0 105.5 -10.5t106.5 -27.5v459h244v-1619q0 -76 19.5 -99t75.5 -23l-15 -180h-69zM582 154
q64 0 119.5 15.5t87.5 34.5v673q-32 16 -84 28t-112 12q-99 0 -158 -36t-59 -123v-438q0 -87 56 -126.5t150 -39.5z" />
    <glyph glyph-name="uni0257" unicode="&#x257;" horiz-adv-x="1199" 
d="M557 -23q-148 0 -242 44t-138.5 122.5t-44.5 184.5v419q0 153 105.5 248.5t339.5 95.5q47 0 105.5 -10.5t106.5 -27.5v125q0 172 70.5 253t242.5 81h75l9 -173h-43q-59 0 -84.5 -36.5t-25.5 -123.5v-1179h-166l-29 65q-50 -36 -124.5 -62t-156.5 -26zM582 154
q64 0 119.5 15.5t87.5 34.5v673q-32 16 -84 28t-112 12q-99 0 -158 -36t-59 -123v-438q0 -87 56 -126.5t150 -39.5z" />
    <glyph glyph-name="uni0259" unicode="&#x259;" horiz-adv-x="1145" 
d="M563 -22q-238 0 -342 92t-104 250v257h652v167q0 106 -49.5 140t-164.5 34q-81 0 -126.5 -11t-64.5 -46t-22 -106h-223q4 131 51 204t142.5 103t245.5 30q141 0 243 -36t157 -117.5t55 -217.5v-403q0 -159 -117 -249.5t-333 -90.5zM559 153q92 0 151 29.5t59 118.5v123
h-420v-132q0 -61 27.5 -91t74.5 -39t108 -9z" />
    <glyph glyph-name="uni025B" unicode="&#x25b;" horiz-adv-x="1115" 
d="M561 -23q-155 0 -254 40t-146.5 113t-47.5 170q0 77 26 136.5t82.5 94t148.5 34.5v-11q-96 0 -148.5 35.5t-72 91t-19.5 113.5q0 148 120.5 222.5t312.5 74.5q131 0 230 -31t154.5 -105t55.5 -204l-229 -19q0 71 -18 111t-63.5 57t-131.5 17q-108 0 -149.5 -37t-41.5 -96
q0 -52 18.5 -84t73 -46.5t162.5 -14.5v-153q-105 0 -163 -15.5t-81 -52.5t-23 -101q0 -87 45.5 -126.5t154.5 -39.5q80 0 128 15t70.5 50.5t24.5 96.5h229q-5 -113 -49.5 -187.5t-140.5 -111.5t-258 -37z" />
    <glyph glyph-name="uni0260" unicode="&#x260;" horiz-adv-x="1201" 
d="M574 -427q-103 0 -195 12.5t-149 37.5l52 171q65 -20 140.5 -30.5t141.5 -10.5q124 0 179.5 53t55.5 166v120q-32 -22 -76.5 -36t-91 -20.5t-86.5 -6.5q-197 0 -305 88t-108 248v378q0 97 40.5 176t130 125.5t236.5 46.5q66 0 130 -18.5t113.5 -49t69.5 -65.5l-54 -27
v247q0 172 71 253t242 81h75l9 -173h-42q-60 0 -85 -36.5t-25 -123.5v-1176q0 -129 -46.5 -226t-149.5 -150.5t-273 -53.5zM585 198q81 0 134.5 19.5t79.5 39.5v561q0 37 -55.5 68t-158.5 31q-99 0 -154 -38t-55 -125v-405q0 -86 59 -118.5t150 -32.5z" />
    <glyph glyph-name="uni0263" unicode="&#x263;" horiz-adv-x="1090" 
d="M545 -427q-169 0 -253.5 79.5t-84.5 220.5q0 94 40 196t108 219l450 781h250l-518 -868q-63 -107 -84.5 -178.5t-21.5 -136.5q0 -64 26.5 -96t87.5 -32q62 0 88 32t26 96q0 65 -21.5 136.5t-85.5 178.5l-517 868h251l450 -781q67 -117 107 -219t40 -196
q0 -141 -84.5 -220.5t-253.5 -79.5z" />
    <glyph glyph-name="uni0265" unicode="&#x265;" horiz-adv-x="1244" 
d="M830 -416v519q-38 -56 -127 -90.5t-202 -34.5q-112 0 -188.5 39.5t-115 108t-38.5 156.5v787h244v-765q0 -54 28 -85.5t73 -44.5t95 -13q63 0 115.5 19.5t84 56t31.5 88.5v744h244v-1485h-244z" />
    <glyph glyph-name="uni0266" unicode="&#x266;" horiz-adv-x="1244" 
d="M170 0v1152q0 191 73.5 275.5t259.5 84.5h82l9 -173h-49q-44 0 -73 -14.5t-43.5 -49.5t-14.5 -96v-212q39 55 127.5 89.5t201.5 34.5t189 -39t114.5 -107.5t38.5 -156.5v-788h-244v765q0 56 -28 86.5t-72.5 43.5t-95.5 13q-63 0 -115.5 -19.5t-84 -56t-31.5 -87.5v-745
h-244z" />
    <glyph glyph-name="uni0268" unicode="&#x268;" horiz-adv-x="533" 
d="M8 669h517v-153h-517v153zM145 1069h243v-1069h-243v1069zM142 1266v246h248v-246h-248z" />
    <glyph glyph-name="uni0269" unicode="&#x269;" horiz-adv-x="566" 
d="M155 1069h244v-766q0 -77 19.5 -100t75.5 -23l-15 -180h-69q-123 0 -189 74t-66 193v802z" />
    <glyph glyph-name="uni026A" unicode="&#x26a;" horiz-adv-x="791" 
d="M274 907h-192v162h627v-162h-191v-744h191v-163h-627v163h192v744z" />
    <glyph glyph-name="uni026B" unicode="&#x26b;" horiz-adv-x="704" 
d="M173 355v1157h244v-1155q0 -68 17 -107.5t59 -56t117 -16.5h33l-21 -188h-94q-118 0 -197 32.5t-118.5 112t-39.5 221.5zM415 659q-60 0 -99 16t-66 36.5t-50 36.5t-52 16t-47.5 -21.5t-18.5 -67.5h-122q0 134 57.5 191.5t155.5 57.5q61 0 99.5 -15.5t64.5 -36t48 -36
t51 -15.5q30 0 50.5 20.5t20.5 67.5h122q0 -135 -58 -192.5t-156 -57.5z" />
    <glyph glyph-name="uni026C" unicode="&#x26c;" horiz-adv-x="822" 
d="M410 784h-118q0 133 -99 133q-52 0 -76.5 -20.5t-24.5 -68.5q0 -46 24.5 -70t84.5 -24h525l9 -171h-517q-149 0 -218.5 70.5t-69.5 188.5q0 111 63.5 171.5t179.5 60.5q114 0 175.5 -69.5t61.5 -200.5zM292 355v1157h244v-1155q0 -68 17 -107.5t59 -56t117 -16.5h34
l-22 -188h-94q-118 0 -197 32.5t-118.5 112t-39.5 221.5z" />
    <glyph glyph-name="uni026F" unicode="&#x26f;" horiz-adv-x="1883" 
d="M503 -22q-112 0 -188.5 39.5t-115.5 108.5t-39 157v786h244v-768q0 -83 48.5 -112.5t122.5 -29.5q64 0 116.5 19.5t85.5 55t36 84.5v751h244v-768q0 -83 51 -112.5t127 -29.5q63 0 116.5 20t86 57t32.5 89v744h244v-1069h-244v98q-20 -22 -61.5 -50.5t-103.5 -49
t-148 -20.5q-109 0 -184.5 34t-115.5 101q-62 -61 -146 -98t-208 -37z" />
    <glyph glyph-name="uni0272" unicode="&#x272;" horiz-adv-x="1244" 
d="M-16 -349l-28 174q69 6 111 21.5t64 52.5t30 106t8 180v884h244v-97q21 23 61 51.5t105.5 48.5t163.5 20q119 0 194.5 -44t111.5 -116.5t36 -161.5v-770h-244v764q0 55 -29 86.5t-75 44.5t-96 13q-64 0 -115.5 -20t-82 -57t-30.5 -89v-550q0 -190 -38.5 -309.5
t-132 -175.5t-258.5 -56z" />
    <glyph glyph-name="uni0275" unicode="&#x275;" horiz-adv-x="1178" 
d="M243 630h681v-175h-681v175zM589 -23q-166 0 -266.5 43t-145.5 120.5t-45 181.5v424q0 106 51 183.5t153 119.5t253 42t252.5 -42t153 -119.5t51.5 -183.5v-424q0 -104 -44 -181.5t-144 -120.5t-269 -43zM589 151q95 0 154 35t59 122v451q0 88 -57.5 123t-155.5 35
q-96 0 -154.5 -35t-58.5 -123v-451q0 -87 56.5 -122t156.5 -35z" />
    <glyph glyph-name="uni027D" unicode="&#x27d;" horiz-adv-x="820" 
d="M424 -409q-123 0 -189 73.5t-66 193.5v1211h244v-142q26 57 91.5 91.5t143.5 50.5t140 16l-8 -208q-57 -2 -118.5 -13.5t-116.5 -31.5t-91 -48.5t-41 -62.5v-828q0 -76 19.5 -99t75.5 -23l-15 -180h-69z" />
    <glyph glyph-name="uni027E" unicode="&#x27e;" horiz-adv-x="715" 
d="M144 0v681q0 192 98 290t322 98h110l-7 -197h-75q-108 0 -156 -40.5t-48 -140.5v-691h-244z" />
    <glyph glyph-name="uni0283" unicode="&#x283;" horiz-adv-x="735" 
d="M16 -409l-9 170h95q88 0 116 41.5t28 96.5v1258q0 177 84 266t266 89h123l9 -170h-95q-87 0 -115 -41.5t-28 -96.5v-1258q0 -177 -84 -266t-266 -89h-124z" />
    <glyph glyph-name="uni0288" unicode="&#x288;" horiz-adv-x="789" 
d="M477 -409q-123 0 -189 73.5t-66 193.5v1049h-173v162h180l25 340h212v-340h258v-162h-258v-1014q0 -76 19.5 -99t75.5 -23l-15 -180h-69z" />
    <glyph glyph-name="uni0289" unicode="&#x289;" horiz-adv-x="1239" 
d="M30 719h1172v-175h-1172v175zM504 -23q-112 0 -188.5 42t-116 113t-39.5 159v778h244v-749q0 -55 27.5 -90t71.5 -51.5t94 -16.5q64 0 116.5 20.5t84 60t31.5 93.5v733h244v-1069h-226l-12 123q-35 -68 -126.5 -107t-204.5 -39z" />
    <glyph glyph-name="uni028A" unicode="&#x28a;" horiz-adv-x="1178" 
d="M589 -22q-161 0 -262 47t-148 156.5t-47 295.5q0 193 69 309.5t173 165.5l-5 -45h-228v162h386v-137q-52 -34 -85.5 -86.5t-49.5 -137t-16 -215.5q0 -144 20.5 -217t67 -98t125.5 -25t126 25t67.5 98t20.5 217q0 131 -16 215.5t-49.5 137t-86.5 86.5v137h387v-162h-228
l-5 45q104 -49 173 -165.5t69 -309.5q0 -186 -47 -295.5t-148 -156.5t-263 -47z" />
    <glyph glyph-name="uni028B" unicode="&#x28b;" horiz-adv-x="1178" 
d="M557 -23q-160 0 -253.5 37t-132.5 108.5t-39 175.5v771h244v-784q0 -70 42 -102t139 -32q115 0 180 50.5t65 170.5v387q0 88 -41.5 123t-124.5 35v174q205 0 307.5 -91.5t102.5 -250.5v-364q0 -188 -121 -298t-368 -110z" />
    <glyph glyph-name="uni028C" unicode="&#x28c;" horiz-adv-x="1103" 
d="M1059 0h-243l-279 868h28l-288 -868h-233l381 1069h256z" />
    <glyph glyph-name="uni0292" unicode="&#x292;" horiz-adv-x="1095" 
d="M523 -421q-160 0 -259.5 51.5t-147.5 153.5t-53 255h216q2 -102 28 -157.5t80 -77t141 -21.5q119 0 172 62t53 188q0 133 -51 197t-200 64h-96v182l295 463l8 -39h-605v169h836v-151l-337 -534l-26 90q137 0 225 -55t131.5 -155t43.5 -236q0 -135 -48.5 -236t-148.5 -157
t-257 -56z" />
    <glyph glyph-name="uni0294" unicode="&#x294;" horiz-adv-x="1243" 
d="M460 0v461l253 294q74 86 103 156.5t29 160.5q0 56 -15 105.5t-60.5 80t-137.5 30.5q-104 0 -154.5 -27.5t-66.5 -78t-16 -120.5v-74h-249v60q0 106 20 188.5t72 139t147.5 85.5t246.5 29t245 -34.5t145 -93t70 -131.5t19 -148q0 -99 -29 -179t-85 -153.5t-138 -152.5
l-188 -183l33 76v-491h-244z" />
    <glyph glyph-name="uni0295" unicode="&#x295;" horiz-adv-x="1243" 
d="M783 0h-244v491l32 -76l-187 183q-82 79 -138.5 152.5t-85 153.5t-28.5 179q0 75 19 148t70 131.5t145.5 93t244.5 34.5q151 0 246 -29t147 -85.5t72 -139t20 -188.5v-60h-248v74q0 70 -16 120.5t-67 78t-154 27.5q-92 0 -137.5 -30.5t-60.5 -80t-15 -105.5
q0 -90 29 -160.5t102 -156.5l254 -294v-461z" />
    <glyph glyph-name="uni0298" unicode="&#x298;" horiz-adv-x="1534" 
d="M777 -25q-183 0 -302 40t-186 110.5t-94 165.5t-27 205v460q0 113 26.5 210t93.5 170t186 113.5t303 40.5q177 0 292 -43t180 -118.5t91 -175t26 -212.5v-430q0 -109 -26.5 -206t-91.5 -171t-180 -116.5t-291 -42.5zM777 154q116 0 192.5 26t114.5 93t38 191v531
q0 183 -86 249.5t-259 66.5q-114 0 -196 -27.5t-125.5 -96.5t-43.5 -192v-531q0 -124 43 -191t125 -93t197 -26zM650 617v232h234v-232h-234z" />
    <glyph glyph-name="uni029D" unicode="&#x29d;" horiz-adv-x="818" 
d="M313 -337q-172 0 -246.5 86t-74.5 227q0 140 79 225.5t247 85.5h434l8 -170h-471q-63 0 -92.5 -31t-29.5 -108q0 -78 28.5 -105.5t87.5 -27.5q111 0 111 136v1088h244v-1083q0 -93 -34 -166.5t-106 -115t-185 -41.5zM399 1266v246h234v-246h-234z" />
    <glyph glyph-name="uni02B0" unicode="&#x2b0;" horiz-adv-x="871" 
d="M119 652v1058h188v-426l-27 26q19 46 84.5 76t153.5 30q118 0 179.5 -60t61.5 -153v-551h-187v525q0 53 -34 73.5t-86 20.5q-67 0 -106 -29.5t-39 -78.5v-511h-188z" />
    <glyph glyph-name="uni02B7" unicode="&#x2b7;" horiz-adv-x="1146" 
d="M243 664l-210 749h176l152 -584h-60l174 584h185l179 -589h-46l144 589h175l-206 -749h-169l-175 573h27l-179 -573h-167z" />
    <glyph glyph-name="uni02B9" unicode="&#x2b9;" horiz-adv-x="578" 
d="M114 1042l126 480h254l-238 -480h-142z" />
    <glyph glyph-name="uni02BA" unicode="&#x2ba;" horiz-adv-x="914" 
d="M451 1042l126 480h254l-238 -480h-142zM114 1042l126 480h254l-238 -480h-142z" />
    <glyph glyph-name="uni02BB" unicode="&#x2bb;" horiz-adv-x="380" 
d="M40 1204v170q0 148 47 247.5t132 173.5l107 -49q-65 -60 -104 -129t-39 -151h157v-262h-300z" />
    <glyph glyph-name="uni02BC" unicode="&#x2bc;" horiz-adv-x="380" 
d="M161 875l-107 49q66 60 104.5 129t38.5 151h-157v262h300v-170q0 -148 -47 -247t-132 -174z" />
    <glyph glyph-name="uni02BE" unicode="&#x2be;" horiz-adv-x="387" 
d="M65 1116v140q40 0 67.5 21.5t27.5 81.5q0 59 -27 80t-67 21l-1 138q119 0 188.5 -62.5t69.5 -177.5q0 -116 -69.5 -179t-188.5 -63z" />
    <glyph glyph-name="uni02BF" unicode="&#x2bf;" horiz-adv-x="387" 
d="M323 1116q-120 0 -189 63t-69 179q0 115 69 177.5t189 62.5l-1 -138q-39 0 -67 -21t-28 -80q0 -60 28 -81.5t68 -21.5v-140z" />
    <glyph glyph-name="uni02C0" unicode="&#x2c0;" horiz-adv-x="792" 
d="M290 652v269l148 170q43 49 60 91t17 93q0 41 -21 73t-88 32q-70 0 -97 -29.5t-27 -81.5v-43h-166v35q0 83 25 141t88.5 89t179.5 31q115 0 175.5 -35.5t83 -90.5t22.5 -114q0 -87 -37 -150t-109 -132l-109 -107l20 44v-285h-165z" />
    <glyph glyph-name="circumflex" unicode="&#x2c6;" horiz-adv-x="850" 
d="M60 1249l270 357h190l270 -357h-166l-238 227h79l-240 -227h-165z" />
    <glyph glyph-name="caron" unicode="&#x2c7;" horiz-adv-x="850" 
d="M330 1248l-270 357h165l240 -227h-79l238 227h166l-270 -357h-190z" />
    <glyph glyph-name="uni02C8" unicode="&#x2c8;" horiz-adv-x="623" 
d="M203 959v553h217v-553h-217z" />
    <glyph glyph-name="uni02C9" unicode="&#x2c9;" horiz-adv-x="744" 
d="M60 1262v163h624v-163h-624z" />
    <glyph glyph-name="uni02CA" unicode="&#x2ca;" horiz-adv-x="496" 
d="M60 1151l122 371h254l-234 -371h-142z" />
    <glyph glyph-name="uni02CB" unicode="&#x2cb;" horiz-adv-x="496" 
d="M294 1151l-234 370h254l122 -370h-142z" />
    <glyph glyph-name="uni02CC" unicode="&#x2cc;" horiz-adv-x="623" 
d="M203 -409v552h217v-552h-217z" />
    <glyph glyph-name="uni02D7" unicode="&#x2d7;" horiz-adv-x="785" 
d="M142 489v158h501v-158h-501z" />
    <glyph glyph-name="breve" unicode="&#x2d8;" horiz-adv-x="773" 
d="M386 1251q-93 0 -167 35t-116.5 110.5t-42.5 195.5h159q0 -78 42.5 -127.5t124.5 -49.5t124 49.5t42 127.5h160q0 -120 -42.5 -195.5t-116.5 -110.5t-167 -35z" />
    <glyph glyph-name="dotaccent" unicode="&#x2d9;" horiz-adv-x="367" 
d="M60 1266v246h248v-246h-248z" />
    <glyph glyph-name="ring" unicode="&#x2da;" horiz-adv-x="636" 
d="M318 1189q-119 0 -188.5 63t-69.5 179t69.5 178t188.5 62t188.5 -62t69.5 -178t-69 -179t-189 -63zM318 1330q39 0 67.5 20.5t28.5 80.5q0 58 -28.5 80t-68.5 22q-39 0 -67 -21t-28 -80q0 -60 28 -81t68 -21z" />
    <glyph glyph-name="ogonek" unicode="&#x2db;" horiz-adv-x="461" 
d="M326 -474q-136 0 -201 52.5t-65 154.5q0 70 53.5 149t135.5 128l122 -10q-60 -51 -97.5 -106t-37.5 -112q0 -52 29.5 -80t91.5 -28h44l-13 -148h-62z" />
    <glyph glyph-name="tilde" unicode="&#x2dc;" horiz-adv-x="788" 
d="M515 1285q-60 0 -99.5 15.5t-66 36.5t-49.5 36.5t-52 15.5t-47.5 -21t-18.5 -68h-122q0 135 57.5 192.5t155.5 57.5q61 0 99.5 -15.5t64.5 -36t48 -36.5t50 -16q31 0 51.5 21t20.5 68h121q0 -135 -57.5 -192.5t-155.5 -57.5z" />
    <glyph glyph-name="hungarumlaut" unicode="&#x2dd;" horiz-adv-x="730" 
d="M375 1249l50 360h245l-161 -360h-134zM60 1249l49 360h246l-162 -360h-133z" />
    <glyph glyph-name="uni02EE" unicode="&#x2ee;" horiz-adv-x="800" 
d="M161 875l-107 49q66 60 104.5 129t38.5 151h-157v262h300v-170q0 -148 -47 -247t-132 -174zM581 875l-107 49q66 60 104.5 129t38.5 151h-157v262h300v-170q0 -148 -47 -247t-132 -174z" />
    <glyph glyph-name="gravecomb" unicode="&#x300;" 
d="M-15 1249l-238 360h253l127 -360h-142z" />
    <glyph glyph-name="acutecomb" unicode="&#x301;" 
d="M-127 1248l127 360h253l-238 -360h-142z" />
    <glyph glyph-name="uni0302" unicode="&#x302;" 
d="M-365 1249l270 357h190l270 -357h-166l-238 227h79l-240 -227h-165z" />
    <glyph glyph-name="tildecomb" unicode="&#x303;" 
d="M122 1285q-60 0 -99.5 15.5t-66 36.5t-49.5 36.5t-52 15.5t-47.5 -21t-18.5 -68h-122q0 135 57.5 192.5t155.5 57.5q61 0 99.5 -15.5t64.5 -36t48 -36.5t50 -16q31 0 51.5 21t20.5 68h121q0 -135 -57.5 -192.5t-155.5 -57.5z" />
    <glyph glyph-name="uni0304" unicode="&#x304;" 
d="M-279 1326v163h558v-163h-558z" />
    <glyph glyph-name="uni0306" unicode="&#x306;" 
d="M0 1251q-93 0 -167 35t-116.5 110.5t-42.5 195.5h159q0 -78 42.5 -127.5t124.5 -49.5t124 49.5t42 127.5h160q0 -120 -42.5 -195.5t-116.5 -110.5t-167 -35z" />
    <glyph glyph-name="uni0307" unicode="&#x307;" 
d="M-124 1266v246h248v-246h-248z" />
    <glyph glyph-name="uni0308" unicode="&#x308;" 
d="M74 1295v215h246v-215h-246zM-320 1295v215h245v-215h-245z" />
    <glyph glyph-name="hookabovecomb" unicode="&#x309;" 
d="M15 1209l-62 127q69 26 95 59.5t26 74.5q0 43 -23.5 63.5t-62.5 20.5q-36 0 -62.5 -18t-36.5 -55l-146 56q26 79 90.5 119t155.5 40q117 0 182 -64.5t65 -165.5q0 -98 -55.5 -157.5t-165.5 -99.5z" />
    <glyph glyph-name="uni030A" unicode="&#x30a;" 
d="M0 1189q-119 0 -188.5 63t-69.5 179t69.5 178t188.5 62t188.5 -62t69.5 -178t-69 -179t-189 -63zM0 1330q39 0 67.5 20.5t28.5 80.5q0 58 -28.5 80t-68.5 22q-39 0 -67 -21t-28 -80q0 -60 28 -81t68 -21z" />
    <glyph glyph-name="uni030B" unicode="&#x30b;" 
d="M82 1249l50 360h245l-161 -360h-134zM-233 1249l49 360h246l-162 -360h-133z" />
    <glyph glyph-name="uni030C" unicode="&#x30c;" 
d="M-95 1248l-270 357h165l240 -227h-79l238 227h166l-270 -357h-190z" />
    <glyph glyph-name="uni030D" unicode="&#x30d;" 
d="M-108 1179v539h216v-539h-216z" />
    <glyph glyph-name="uni030F" unicode="&#x30f;" 
d="M107 1249l-150 360h238l42 -360h-130zM-195 1249l-150 360h238l42 -360h-130z" />
    <glyph glyph-name="uni0310" unicode="&#x310;" 
d="M0 1167q-96 0 -174.5 30t-125 101t-46.5 193h159q0 -70 50 -111t137 -41t136.5 41t49.5 111h160q0 -122 -46.5 -193t-124.5 -101t-175 -30zM-117 1487v239h234v-239h-234z" />
    <glyph glyph-name="uni0311" unicode="&#x311;" 
d="M-326 1249q0 121 42.5 196.5t116.5 110t167 34.5t167 -34.5t116.5 -110t42.5 -196.5h-160q0 79 -42 128t-124 49t-124.5 -49t-42.5 -128h-159z" />
    <glyph glyph-name="uni0312" unicode="&#x312;" 
d="M-149 1235v170q0 91 22.5 162t63 126.5t95.5 97.5l105 -48q-68 -53 -105.5 -115t-37.5 -131h154v-262h-297z" />
    <glyph glyph-name="uni0313" unicode="&#x313;" 
d="M-149 1161v170q0 94 22.5 167.5t63 130t95.5 98.5l105 -48q-68 -53 -105.5 -117.5t-37.5 -138.5h154v-262h-297z" />
    <glyph glyph-name="uni031B" unicode="&#x31b;" 
d="M-10 897v177h60q50 0 84.5 33.5t34.5 94.5v141h212v-124q0 -109 -43.5 -180.5t-118 -106.5t-169.5 -35h-60z" />
    <glyph glyph-name="dotbelowcomb" unicode="&#x323;" 
d="M-117 -369v246h234v-246h-234z" />
    <glyph glyph-name="uni0324" unicode="&#x324;" 
d="M74 -361v216h246v-216h-246zM-320 -361v216h245v-216h-245z" />
    <glyph glyph-name="uni0325" unicode="&#x325;" 
d="M0 -526q-119 0 -188.5 62.5t-69.5 179.5q0 115 69.5 177.5t188.5 62.5t188.5 -62.5t69.5 -177.5q0 -117 -69 -179.5t-189 -62.5zM0 -386q39 0 67.5 20.5t28.5 80.5q0 59 -28.5 80.5t-68.5 21.5q-39 0 -67 -20.5t-28 -79.5q0 -61 28 -82t68 -21z" />
    <glyph glyph-name="uni0326" unicode="&#x326;" 
d="M-17 -615l-107 46q57 55 84.5 115.5t27.5 138.5v14.5t-1 14.5l57 -89h-177v258h265v-101q0 -139 -36.5 -232t-112.5 -165z" />
    <glyph glyph-name="uni0327" unicode="&#x327;" 
d="M-150 -478v118h181q32 0 44 13.5t12 32.5v62q0 20 -14 33t-42 13h-93v236h121v-166l-49 46q122 0 175 -42t53 -130v-43q0 -71 -46 -122t-159 -51h-183z" />
    <glyph glyph-name="uni0328" unicode="&#x328;" 
d="M-45 -474q-136 0 -201 52.5t-65 154.5q0 70 53.5 149t135.5 128l122 -10q-60 -51 -97.5 -106t-37.5 -112q0 -52 29.5 -80t91.5 -28h44l-13 -148h-62z" />
    <glyph glyph-name="uni0329" unicode="&#x329;" 
d="M-108 -409v542h216v-542h-216z" />
    <glyph glyph-name="uni032D" unicode="&#x32d;" 
d="M-348 -448l253 320h190l253 -320h-165l-222 196h79l-223 -196h-165z" />
    <glyph glyph-name="uni032E" unicode="&#x32e;" 
d="M0 -394q-93 0 -167 31t-116.5 98t-42.5 175h159q0 -59 42.5 -99.5t124.5 -40.5t124 40.5t42 99.5h160q0 -108 -42.5 -175t-116.5 -98t-167 -31z" />
    <glyph glyph-name="uni032F" unicode="&#x32f;" 
d="M-326 -394q0 108 42.5 174.5t116.5 98t167 31.5t167 -31.5t116.5 -98t42.5 -174.5h-160q0 59 -42 99.5t-124 40.5t-124.5 -40.5t-42.5 -99.5h-159z" />
    <glyph glyph-name="uni0330" unicode="&#x330;" 
d="M121 -374q-61 0 -100 15.5t-66 36.5t-50 36.5t-52 15.5t-47.5 -21.5t-18.5 -67.5h-121q0 135 57.5 192.5t155.5 57.5q61 0 99.5 -16t64.5 -36.5t48 -36t50 -15.5q30 0 50.5 21t20.5 67h122q0 -134 -57.5 -191.5t-155.5 -57.5z" />
    <glyph glyph-name="uni0331" unicode="&#x331;" 
d="M-305 -327v163h610v-163h-610z" />
    <glyph glyph-name="uni0332" unicode="&#x332;" 
d="M0 -267v173h846v-173h-846z" />
    <glyph glyph-name="uni0334" unicode="&#x334;" 
d="M122 658q-60 0 -99 16t-66 36.5t-50 36.5t-52 16t-47.5 -21.5t-18.5 -67.5h-122q0 134 57.5 191.5t155.5 57.5q61 0 99.5 -15.5t64.5 -36t48 -36t51 -15.5q30 0 50.5 20.5t20.5 67.5h122q0 -135 -58 -192.5t-156 -57.5z" />
    <glyph glyph-name="uni0335" unicode="&#x335;" 
d="M-587 454v175h1174v-175h-1174z" />
    <glyph glyph-name="uni0358" unicode="&#x358;" 
d="M193 1327v208h193v-208h-193z" />
    <glyph glyph-name="uni0394" unicode="&#x394;" horiz-adv-x="1440" 
d="M628 1466h203l472 -1466h-1167zM999 180l-291 979l-315 -979h606z" />
    <glyph glyph-name="Sigma" unicode="&#x3a3;" horiz-adv-x="1183" 
d="M99 0v179l482 582l-482 532v173h986v-203h-680l436 -453v-75l-437 -530h681v-205h-986z" />
    <glyph glyph-name="uni03A9" unicode="&#x3a9;" horiz-adv-x="1618" 
d="M180 0v184h251q-72 43 -134 113.5t-100 177.5t-38 261q0 200 31.5 334.5t89.5 216.5t138.5 124t179.5 56.5t211 14.5q143 0 262.5 -24t206 -99t134 -224t47.5 -399q0 -154 -38 -261t-99.5 -177.5t-134.5 -113.5h251v-184h-542v175q113 52 176 122.5t89 182t26 285.5
q0 177 -24 281t-72 154.5t-118.5 66t-163.5 15.5q-90 0 -161 -15.5t-119 -66t-73 -154.5t-25 -281q0 -174 26 -285.5t89.5 -182t175.5 -122.5v-175h-542z" />
    <glyph glyph-name="uni03BC" unicode="&#x3bc;" horiz-adv-x="1239" 
d="M157 -285v1354h244v-767q0 -55 27 -88t71.5 -48t93.5 -15q64 0 117 21t84.5 57.5t31.5 84.5v755h245v-1069h-234l-11 134q-32 -70 -101 -112t-171 -42q-44 0 -85.5 6.5t-81.5 18.5v-290h-230z" />
    <glyph glyph-name="pi" unicode="&#x3c0;" horiz-adv-x="1231" 
d="M1088 -21q-112 0 -187 23.5t-112 90.5t-37 194v614h-279v-901h-231v900q-54 -3 -93.5 -17t-67 -31t-47.5 -32v171q14 15 39 33.5t64.5 31.5t93.5 13h933v-168h-182v-561q0 -81 11 -117t43.5 -50t97.5 -28z" />
    <glyph glyph-name="uni1D7D" unicode="&#x1d7d;" horiz-adv-x="1211" 
d="M30 629h1174v-175h-1174v175zM169 -409v1478h176l25 -73q49 39 126.5 67t170.5 28q194 0 298 -96.5t104 -250.5v-412q0 -97 -48 -177.5t-144.5 -129t-243.5 -48.5q-73 0 -127.5 14t-92.5 32v-432h-244zM613 151q99 0 155.5 41.5t56.5 128.5v430q0 86 -55.5 126t-147.5 40
q-51 0 -94 -14.5t-72.5 -33.5t-42.5 -34v-633q28 -18 78.5 -34.5t121.5 -16.5z" />
    <glyph glyph-name="uni1DBB" unicode="&#x1dbb;" horiz-adv-x="646" 
d="M81 771l322 550l24 -39h-337v131h489v-106l-322 -550l-23 37h345v-130h-498v107z" />
    <glyph glyph-name="uni1DC4" unicode="&#x1dc4;" 
d="M-146 1203l412 319h162l-300 -319h-274zM-400 1203v163h522l-67 -163h-455z" />
    <glyph glyph-name="uni1DC5" unicode="&#x1dc5;" 
d="M-100 1203l-300 319h162l411 -319h-273zM-27 1203l-68 163h523v-163h-455z" />
    <glyph glyph-name="uni1DC6" unicode="&#x1dc6;" 
d="M266 1203l-412 319h274l300 -319h-162zM-400 1359v163h455l67 -163h-522z" />
    <glyph glyph-name="uni1DC7" unicode="&#x1dc7;" 
d="M-400 1203l300 319h273l-411 -319h-162zM-95 1359l68 163h455v-163h-523z" />
    <glyph glyph-name="uni1DCA" unicode="&#x1dca;" 
d="M-198 -771v675h171v-92q18 36 64 58.5t100.5 33t98.5 10.5l-6 -135q-52 -2 -110 -15t-100 -35t-47 -52v-448h-171z" />
    <glyph glyph-name="uni1E00" unicode="&#x1e00;" horiz-adv-x="1484" 
d="M75 0l504 1466h322l508 -1466h-279l-397 1285h27l-408 -1285h-277zM336 281l55 203h704l53 -203h-812zM742 -526q-119 0 -188.5 62.5t-69.5 179.5q0 115 69.5 177.5t188.5 62.5t188.5 -62.5t69.5 -177.5q0 -117 -69 -179.5t-189 -62.5zM742 -386q39 0 67.5 20.5
t28.5 80.5q0 59 -28.5 80.5t-68.5 21.5q-39 0 -67 -20.5t-28 -79.5q0 -61 28 -82t68 -21z" />
    <glyph glyph-name="uni1E01" unicode="&#x1e01;" horiz-adv-x="1173" 
d="M437 -23q-100 0 -171.5 37.5t-109 104t-37.5 150.5q0 78 31 135.5t115 106t242 96.5q85 27 139 49t79 50t25 72q0 43 -15.5 74t-54 48t-107.5 17q-81 0 -121.5 -19.5t-54 -52.5t-13.5 -76v-43h-230v37q0 156 104.5 242t320.5 86q154 0 244 -44.5t129.5 -126t39.5 -191.5
v-434q0 -77 19.5 -100t75.5 -23l-15 -180h-51q-110 0 -167 34.5t-84 102.5q-27 -37 -73 -72t-110.5 -57.5t-149.5 -22.5zM505 145q41 0 90 16.5t91.5 46.5t63.5 72v275q-25 -22 -82.5 -51.5t-136.5 -56.5q-100 -33 -138 -72t-38 -94q0 -70 39 -103t111 -33zM587 -526
q-119 0 -188.5 62.5t-69.5 179.5q0 115 69.5 177.5t188.5 62.5t188.5 -62.5t69.5 -177.5q0 -117 -69 -179.5t-189 -62.5zM587 -386q39 0 67.5 20.5t28.5 80.5q0 59 -28.5 80.5t-68.5 21.5q-39 0 -67 -20.5t-28 -79.5q0 -61 28 -82t68 -21z" />
    <glyph glyph-name="uni1E02" unicode="&#x1e02;" horiz-adv-x="1444" 
d="M199 0v1466h554q205 0 315 -43.5t151.5 -130t41.5 -217.5q0 -115 -45 -189.5t-179 -100.5l1 13q111 -9 174 -57t89 -126t26 -179q0 -227 -120 -331.5t-392 -104.5h-616zM465 188h309q114 0 177 20t87.5 76t24.5 164q0 71 -17 128t-71 91t-165 34h-345v-513zM465 866h328
q88 0 130.5 24t55.5 70.5t13 111.5q0 87 -20.5 132t-77 60.5t-164.5 15.5h-265v-414zM605 1650v246h234v-246h-234z" />
    <glyph glyph-name="uni1E03" unicode="&#x1e03;" horiz-adv-x="1205" 
d="M645 -23q-90 0 -160.5 29.5t-118.5 60.5l-26 -67h-171v1512h244v-482q49 27 112 44t137 17q148 0 238.5 -46.5t131.5 -125t41 -172.5v-410q0 -106 -51.5 -187t-147 -127t-229.5 -46zM606 154q96 0 159.5 43t63.5 129v429q0 85 -52.5 123.5t-147.5 38.5q-71 0 -129.5 -21
t-86.5 -35v-654q34 -23 84 -38t109 -15zM532 1639v246h248v-246h-248z" />
    <glyph glyph-name="uni1E04" unicode="&#x1e04;" horiz-adv-x="1444" 
d="M199 0v1466h554q205 0 315 -43.5t151.5 -130t41.5 -217.5q0 -115 -45 -189.5t-179 -100.5l1 13q111 -9 174 -57t89 -126t26 -179q0 -227 -120 -331.5t-392 -104.5h-616zM465 188h309q114 0 177 20t87.5 76t24.5 164q0 71 -17 128t-71 91t-165 34h-345v-513zM465 866h328
q88 0 130.5 24t55.5 70.5t13 111.5q0 87 -20.5 132t-77 60.5t-164.5 15.5h-265v-414zM605 -369v246h234v-246h-234z" />
    <glyph glyph-name="uni1E05" unicode="&#x1e05;" horiz-adv-x="1205" 
d="M645 -23q-90 0 -160.5 29.5t-118.5 60.5l-26 -67h-171v1512h244v-482q49 27 112 44t137 17q148 0 238.5 -46.5t131.5 -125t41 -172.5v-410q0 -106 -51.5 -187t-147 -127t-229.5 -46zM606 154q96 0 159.5 43t63.5 129v429q0 85 -52.5 123.5t-147.5 38.5q-71 0 -129.5 -21
t-86.5 -35v-654q34 -23 84 -38t109 -15zM522 -369v246h234v-246h-234z" />
    <glyph glyph-name="uni1E06" unicode="&#x1e06;" horiz-adv-x="1444" 
d="M199 0v1466h554q205 0 315 -43.5t151.5 -130t41.5 -217.5q0 -115 -45 -189.5t-179 -100.5l1 13q111 -9 174 -57t89 -126t26 -179q0 -227 -120 -331.5t-392 -104.5h-616zM465 188h309q114 0 177 20t87.5 76t24.5 164q0 71 -17 128t-71 91t-165 34h-345v-513zM465 866h328
q88 0 130.5 24t55.5 70.5t13 111.5q0 87 -20.5 132t-77 60.5t-164.5 15.5h-265v-414zM417 -327v163h610v-163h-610z" />
    <glyph glyph-name="uni1E07" unicode="&#x1e07;" horiz-adv-x="1205" 
d="M645 -23q-90 0 -160.5 29.5t-118.5 60.5l-26 -67h-171v1512h244v-482q49 27 112 44t137 17q148 0 238.5 -46.5t131.5 -125t41 -172.5v-410q0 -106 -51.5 -187t-147 -127t-229.5 -46zM606 154q96 0 159.5 43t63.5 129v429q0 85 -52.5 123.5t-147.5 38.5q-71 0 -129.5 -21
t-86.5 -35v-654q34 -23 84 -38t109 -15zM334 -327v163h610v-163h-610z" />
    <glyph glyph-name="uni1E08" unicode="&#x1e08;" horiz-adv-x="1479" 
d="M774 -25q-192 0 -311.5 38t-183.5 106.5t-88 161.5t-24 204v480q0 113 23.5 208.5t87 166.5t183 110.5t312.5 39.5q181 0 293 -35.5t172 -101.5t81.5 -157.5t21.5 -203.5v-16l-257 -29v59q0 113 -28.5 172t-96.5 81t-186 22q-116 0 -191 -24t-112 -85t-37 -172v-546
q0 -110 37 -168t113 -79.5t193 -21.5t184 18.5t95.5 75t28.5 169.5v39h257v-21q0 -109 -20 -199t-78 -155t-171 -101t-298 -36zM623 -478v118h181q32 0 44 13.5t12 32.5v62q0 20 -14 33t-42 13h-93v236h121v-166l-49 46q122 0 175 -42t53 -130v-43q0 -71 -46 -122t-159 -51
h-183zM625 1649l163 360h287l-275 -360h-175z" />
    <glyph glyph-name="uni1E09" unicode="&#x1e09;" horiz-adv-x="1109" 
d="M575 -23q-175 0 -271 49.5t-134 130.5t-38 176v421q0 157 116 247t323 90q139 0 235 -33.5t146.5 -116.5t50.5 -234l-230 -19q0 98 -17 146.5t-59 65.5t-118 17q-98 0 -150.5 -37.5t-52.5 -127.5v-428q0 -95 51.5 -133t151.5 -38q78 0 119.5 14.5t57.5 58t19 131.5h227
q-3 -140 -42 -223t-131 -120t-254 -37zM423 -478v118h181q32 0 44 13.5t12 32.5v62q0 20 -14 33t-42 13h-93v236h121v-166l-49 46q122 0 175 -42t53 -130v-43q0 -71 -46 -122t-159 -51h-183zM447 1248l127 360h253l-238 -360h-142z" />
    <glyph glyph-name="uni1E0A" unicode="&#x1e0a;" horiz-adv-x="1530" 
d="M199 0v1466h618q210 0 328.5 -67t168 -181.5t49.5 -257.5v-461q0 -150 -53 -262.5t-172 -174.5t-319 -62h-620zM465 204h330q104 0 171 24.5t99.5 82t32.5 156.5v523q0 98 -33 157.5t-100 87t-170 27.5h-330v-1058zM648 1650v246h234v-246h-234z" />
    <glyph glyph-name="uni1E0B" unicode="&#x1e0b;" horiz-adv-x="1199" 
d="M132 328v419q0 153 105.5 248.5t339.5 95.5q47 0 105.5 -10.5t106.5 -27.5v459h244v-1512h-166l-29 65q-50 -36 -124.5 -62t-156.5 -26q-148 0 -242 44t-138.5 122.5t-44.5 184.5zM789 204v673q-32 16 -84 28t-112 12q-99 0 -158 -36t-59 -123v-438q0 -87 56 -126.5
t150 -39.5q64 0 119.5 15.5t87.5 34.5zM480 1584v246h248v-246h-248z" />
    <glyph glyph-name="uni1E0C" unicode="&#x1e0c;" horiz-adv-x="1530" 
d="M199 0v1466h618q210 0 328.5 -67t168 -181.5t49.5 -257.5v-461q0 -150 -53 -262.5t-172 -174.5t-319 -62h-620zM465 204h330q104 0 171 24.5t99.5 82t32.5 156.5v523q0 98 -33 157.5t-100 87t-170 27.5h-330v-1058zM648 -369v246h234v-246h-234z" />
    <glyph glyph-name="uni1E0D" unicode="&#x1e0d;" horiz-adv-x="1199" 
d="M132 328v419q0 153 105.5 248.5t339.5 95.5q47 0 105.5 -10.5t106.5 -27.5v459h244v-1512h-166l-29 65q-50 -36 -124.5 -62t-156.5 -26q-148 0 -242 44t-138.5 122.5t-44.5 184.5zM789 204v673q-32 16 -84 28t-112 12q-99 0 -158 -36t-59 -123v-438q0 -87 56 -126.5
t150 -39.5q64 0 119.5 15.5t87.5 34.5zM482 -369v246h234v-246h-234z" />
    <glyph glyph-name="uni1E0E" unicode="&#x1e0e;" horiz-adv-x="1530" 
d="M199 0v1466h618q210 0 328.5 -67t168 -181.5t49.5 -257.5v-461q0 -150 -53 -262.5t-172 -174.5t-319 -62h-620zM465 204h330q104 0 171 24.5t99.5 82t32.5 156.5v523q0 98 -33 157.5t-100 87t-170 27.5h-330v-1058zM460 -327v163h610v-163h-610z" />
    <glyph glyph-name="uni1E0F" unicode="&#x1e0f;" horiz-adv-x="1199" 
d="M132 328v419q0 153 105.5 248.5t339.5 95.5q47 0 105.5 -10.5t106.5 -27.5v459h244v-1512h-166l-29 65q-50 -36 -124.5 -62t-156.5 -26q-148 0 -242 44t-138.5 122.5t-44.5 184.5zM789 204v673q-32 16 -84 28t-112 12q-99 0 -158 -36t-59 -123v-438q0 -87 56 -126.5
t150 -39.5q64 0 119.5 15.5t87.5 34.5zM294 -327v163h610v-163h-610z" />
    <glyph glyph-name="uni1E10" unicode="&#x1e10;" horiz-adv-x="1530" 
d="M199 0v1466h618q210 0 328.5 -67t168 -181.5t49.5 -257.5v-461q0 -150 -53 -262.5t-172 -174.5t-319 -62h-620zM465 204h330q104 0 171 24.5t99.5 82t32.5 156.5v523q0 98 -33 157.5t-100 87t-170 27.5h-330v-1058zM748 -615l-107 46q57 55 84.5 115.5t27.5 138.5v14.5
t-1 14.5l57 -89h-177v258h265v-101q0 -139 -36.5 -232t-112.5 -165z" />
    <glyph glyph-name="uni1E11" unicode="&#x1e11;" horiz-adv-x="1199" 
d="M132 328v419q0 153 105.5 248.5t339.5 95.5q47 0 105.5 -10.5t106.5 -27.5v459h244v-1512h-166l-29 65q-50 -36 -124.5 -62t-156.5 -26q-148 0 -242 44t-138.5 122.5t-44.5 184.5zM789 204v673q-32 16 -84 28t-112 12q-99 0 -158 -36t-59 -123v-438q0 -87 56 -126.5
t150 -39.5q64 0 119.5 15.5t87.5 34.5zM584 -615l-107 46q57 55 84.5 115.5t27.5 138.5v14.5t-1 14.5l57 -89h-177v258h265v-101q0 -139 -36.5 -232t-112.5 -165z" />
    </font>
</defs>
</svg>
