<?xml version="1.0" standalone="no"?>
<!DOCTYPE svg PUBLIC "-//W3C//DTD SVG 1.1//EN" "http://www.w3.org/Graphics/SVG/1.1/DTD/svg11.dtd" >
<svg xmlns="http://www.w3.org/2000/svg" xmlns:xlink="http://www.w3.org/1999/xlink" version="1.1">
<metadata>
Created by FontForge 20201107 at Tue Mar  7 14:13:58 2017
 By 
Copyright (c) 2011, Jonas Hecksher, Playtypes, e-types AS (lasse@e-types.com), with Reserved Font Name 'Play', 'Playtype', 'Playtype Sans'.
</metadata>
<defs>
<font id="Play-Bold" horiz-adv-x="580" >
  <font-face 
    font-family="Play"
    font-weight="700"
    font-stretch="normal"
    units-per-em="1000"
    panose-1="0 0 8 0 0 0 0 0 0 0"
    ascent="800"
    descent="-200"
    x-height="484"
    cap-height="649"
    bbox="-500 -224 1306 1052"
    underline-thickness="50"
    underline-position="-100"
    unicode-range="U+000D-FB04"
  />
<missing-glyph horiz-adv-x="260" 
 />
    <glyph glyph-name="fi" unicode="fi" horiz-adv-x="636" 
d="M101 394h-91v90h91v73q0 59 19.5 92.5t60 47t108.5 13.5q34 0 86 -5v-90q-43 5 -63 5q-37 0 -51 -11.5t-14 -43.5v-81h123v-90h-123v-394h-146v394zM422 700h146v-118h-146v118zM422 484h146v-484h-146v484z" />
    <glyph glyph-name="fl" unicode="fl" horiz-adv-x="636" 
d="M101 394h-91v90h91v73q0 59 19.5 92.5t60 47t108.5 13.5q34 0 86 -5v-90q-43 5 -63 5q-37 0 -51 -11.5t-14 -43.5v-81h123v-90h-123v-394h-146v394zM422 700h146v-700h-146v700z" />
    <glyph glyph-name="f_f" unicode="ff" horiz-adv-x="709" 
d="M101 394h-91v90h91v73q0 59 19.5 92.5t60 47t108.5 13.5q34 0 86 -5v-90q-43 5 -63 5q-37 0 -51 -11.5t-14 -43.5v-81h175v73q0 59 19.5 92.5t60 47t108.5 13.5q37 0 109 -8v-90q-64 8 -86 8q-37 0 -51 -11.5t-14 -43.5v-81h133v-90h-133v-394h-146v394h-175v-394h-146
v394z" />
    <glyph glyph-name="f_f_i" unicode="ffi" horiz-adv-x="957" 
d="M101 394h-91v90h91v73q0 59 19.5 92.5t60 47t108.5 13.5q34 0 86 -5v-90q-43 5 -63 5q-37 0 -51 -11.5t-14 -43.5v-81h175v73q0 59 19.5 92.5t60 47t108.5 13.5q34 0 86 -5v-90q-43 5 -63 5q-37 0 -51 -11.5t-14 -43.5v-81h123v-90h-123v-394h-146v394h-175v-394h-146
v394zM743 700h146v-118h-146v118zM743 484h146v-484h-146v484z" />
    <glyph glyph-name="f_f_l" unicode="ffl" horiz-adv-x="957" 
d="M101 394h-91v90h91v73q0 59 19.5 92.5t60 47t108.5 13.5q34 0 86 -5v-90q-43 5 -63 5q-37 0 -51 -11.5t-14 -43.5v-81h175v73q0 59 19.5 92.5t60 47t108.5 13.5q34 0 86 -5v-90q-43 5 -63 5q-37 0 -51 -11.5t-14 -43.5v-81h123v-90h-123v-394h-146v394h-175v-394h-146
v394zM743 700h146v-700h-146v700z" />
    <glyph glyph-name=".notdef" horiz-adv-x="260" 
 />
    <glyph glyph-name=".null" horiz-adv-x="0" 
 />
    <glyph glyph-name="nonmarkingreturn" unicode="&#xd;" horiz-adv-x="230" 
 />
    <glyph glyph-name="NULL" horiz-adv-x="0" 
 />
    <glyph glyph-name="NULL" horiz-adv-x="0" 
 />
    <glyph glyph-name="space" unicode=" " horiz-adv-x="230" 
 />
    <glyph glyph-name="exclam" unicode="!" horiz-adv-x="295" 
d="M60 649h175l-43 -461h-89zM70 138h156v-138h-156v138z" />
    <glyph glyph-name="quotedbl" unicode="&#x22;" horiz-adv-x="443" 
d="M67 649h118v-250h-118v250zM257 649h119v-250h-119v250z" />
    <glyph glyph-name="numbersign" unicode="#" 
d="M146 193h-86v79h102l22 104h-124v80h140l37 183h86l-37 -183h64l37 183h86l-37 -183h84v-80h-101l-21 -104h122v-79h-138l-39 -193h-86l39 193h-64l-39 -193h-86zM312 272l22 104h-65l-21 -104h64z" />
    <glyph glyph-name="dollar" unicode="$" horiz-adv-x="606" 
d="M260 -10q-81 2 -214 18v115q73 -13 109 -17q54 -9 105 -9v166h-19q-208 0 -208 170v34q0 77 54 116.5t173 46.5v72h94v-70q108 -5 187 -13v-107q-130 16 -187 17v-148h13q110 0 158 -41t48 -125v-30q0 -90 -56 -135.5t-163 -55.5v-134h-94v130zM260 528q-44 -3 -60.5 -13
t-16.5 -34v-56q0 -42 77 -44v147zM422 153v56q0 25 -14.5 38t-53.5 16v-161q68 11 68 51z" />
    <glyph glyph-name="percent" unicode="%" horiz-adv-x="855" 
d="M549 659h87l-324 -669h-87zM108.5 288.5q-35.5 9.5 -53.5 34t-18 71.5v119q0 32 10 57t26 39q14 12 37 19.5t46 10.5q26 2 48 2q31 0 50.5 -2t41.5 -9q24 -8 39 -21t25 -37t10 -59v-119q0 -47 -17.5 -71.5t-53 -34t-95.5 -9.5t-95.5 9.5zM259 384v147q0 34 -55 34
q-56 0 -56 -34v-147q0 -17 13 -23t43 -6q55 0 55 29zM556.5 -0.5q-35.5 9.5 -53.5 34t-18 71.5v119q0 32 10 57t26 39q14 12 37 19.5t46 10.5q26 2 48 2q31 0 50.5 -2t41.5 -9q24 -8 39 -21t25 -37t10 -59v-119q0 -47 -17.5 -71.5t-53 -34t-95.5 -9.5t-95.5 9.5zM707 95v147
q0 34 -55 34q-56 0 -56 -34v-147q0 -29 56 -29q55 0 55 29z" />
    <glyph glyph-name="ampersand" unicode="&#x26;" horiz-adv-x="656" 
d="M115.5 22.5q-65.5 32.5 -65.5 99.5v121q0 80 130 120l-30 32q-31 34 -31 72v79q0 56 50 84.5t142 28.5q62 0 166 -17v-99q-91 21 -160 21q-57 0 -57 -31v-39q0 -22 9 -33l210 -231v149h132v-161q0 -56 -36 -94l19 -21q8 -8 18 -8h44v-95h-92q-48 0 -68 21l-7 7
q-74 -38 -193 -38q-115 0 -180.5 32.5zM423 99l-190 206q-33 -12 -33 -38v-122q0 -29 24 -44t90 -15q80 0 109 13z" />
    <glyph glyph-name="quotesingle" unicode="'" horiz-adv-x="256" 
d="M69 649h118v-250h-118v250z" />
    <glyph glyph-name="parenleft" unicode="(" horiz-adv-x="348" 
d="M70 276q0 113 32 209.5t99 193.5h136q-124 -205 -124 -403q0 -204 125 -403h-137q-131 184 -131 403z" />
    <glyph glyph-name="parenright" unicode=")" horiz-adv-x="348" 
d="M125 276q0 198 -124 403h136q67 -97 99 -193.5t32 -209.5q0 -219 -131 -403h-137q125 199 125 403z" />
    <glyph glyph-name="asterisk" unicode="*" horiz-adv-x="446" 
d="M79 372l77 85l-112 24l34 100l105 -44l-11 112h106l-10 -111l101 43l32 -100l-109 -24l75 -86l-89 -59l-55 95l-56 -95z" />
    <glyph glyph-name="plus" unicode="+" 
d="M239 264h-169v101h169v179h101v-179h170v-101h-170v-180h-101v180z" />
    <glyph glyph-name="comma" unicode="," horiz-adv-x="256" 
d="M65 138h152l-94 -250h-104z" />
    <glyph glyph-name="hyphen" unicode="-" horiz-adv-x="388" 
d="M40 342h308v-112h-308v112z" />
    <glyph glyph-name="period" unicode="." horiz-adv-x="256" 
d="M50 138h156v-138h-156v138z" />
    <glyph glyph-name="slash" unicode="/" horiz-adv-x="431" 
d="M334 659h87l-324 -669h-87z" />
    <glyph glyph-name="zero" unicode="0" 
d="M217 -7q-28 3 -61 12q-34 10 -55 28.5t-35 53.5q-15 34 -15 82v311q0 46 14 81t36 55q19 17 52 27.5t66 13.5q38 2 70 2q45 0 72 -2.5t60 -12.5q36 -11 57 -29t36 -52t15 -83v-311q0 -46 -14.5 -81t-36.5 -54q-20 -17 -54.5 -28t-65.5 -13q-28 -3 -69 -3q-44 0 -72 3z
M351 89.5q18 5.5 24 20.5t6 49v331q0 34 -6 49t-24 20.5t-60 5.5q-43 0 -61.5 -5.5t-24.5 -20.5t-6 -49v-331q0 -34 6 -49t24.5 -20.5t61.5 -5.5q42 0 60 5.5z" />
    <glyph glyph-name="one" unicode="1" 
d="M262 496l-177 -98v123l205 128h118v-649h-146v496z" />
    <glyph glyph-name="two" unicode="2" 
d="M58 148q0 54 30 94t78 61q38 17 89 34t79 36t28 45v83q0 31 -25 41q-27 11 -84 11q-69 0 -182 -25v110q100 21 209 21q118 0 175.5 -36t57.5 -120v-90q0 -51 -30.5 -88.5t-78.5 -56.5q-45 -19 -92 -34q-51 -18 -80.5 -40t-29.5 -52v-33h312v-109h-456v148z" />
    <glyph glyph-name="three" unicode="3" 
d="M47 5v116l32 -6q19 -4 21 -5l34 -6q12 -2 51 -6q30 -3 61 -3q58 0 80.5 14t22.5 53v75q0 47 -101 47h-118v100h118q78 0 78 57v63q0 21 -8 32.5t-28.5 16.5t-60.5 5q-57 0 -176 -12v104q136 9 192 9q122 0 176.5 -28t54.5 -99v-107q0 -29 -17.5 -49.5t-44.5 -27.5
q88 -31 88 -97v-106q0 -83 -57 -119t-180 -36q-84 0 -218 15z" />
    <glyph glyph-name="four" unicode="4" 
d="M326 131h-300v115l267 403h165v-413h70v-105h-70v-131h-132v131zM326 236v275l-175 -275h175z" />
    <glyph glyph-name="five" unicode="5" 
d="M61 1v121q124 -23 187 -23q55 0 80 12.5t25 39.5v97q0 27 -18 38.5t-59 11.5h-200v351h410v-112h-264v-132h102q58 0 113 -22q30 -13 48 -40t18 -63v-136q0 -39 -15 -69.5t-38 -46.5q-20 -15 -53.5 -24t-64.5 -12q-36 -2 -64 -2q-69 0 -207 11z" />
    <glyph glyph-name="six" unicode="6" 
d="M216 -7q-28 3 -59 13q-34 11 -54 29t-34 52q-14 36 -14 82v302q0 48 16.5 85.5t42.5 57.5q22 17 59 28.5t72 14.5q38 2 69 2q43 0 180 -10v-107q-135 16 -193 16q-48 0 -68 -5t-26.5 -19.5t-6.5 -51.5v-77h107q54 0 78 -1.5t54 -9.5q32 -8 47.5 -22.5t27.5 -43.5
q11 -30 11 -71v-88q0 -46 -14 -80.5t-36 -53.5q-20 -18 -52.5 -29t-64.5 -13q-28 -3 -69 -3q-45 0 -73 3zM352.5 92q17.5 5 22.5 19.5t5 50.5v94q0 24 -6 34.5t-24.5 14.5t-59.5 4h-90v-148q0 -34 5.5 -49t24 -20t61.5 -5q44 0 61.5 5z" />
    <glyph glyph-name="seven" unicode="7" 
d="M355 535h-315v114h476v-100l-249 -549h-162z" />
    <glyph glyph-name="eight" unicode="8" 
d="M101.5 22q-59.5 32 -59.5 111v112q0 32 32 60t76 38v4q-34 4 -60 28t-26 55v93q0 70 51.5 103t174.5 33t174.5 -33t51.5 -103v-93q0 -31 -26 -55t-60 -28v-4q44 -10 76 -38t32 -60v-112q0 -81 -61 -112t-187 -31q-129 0 -188.5 32zM351.5 394.5q17.5 12.5 17.5 40.5v75
q0 29 -17.5 41.5t-61.5 12.5t-61.5 -12.5t-17.5 -41.5v-75q0 -26 17 -40q16 -13 62 -13q44 0 61.5 12.5zM352.5 90q19.5 5 26 17t6.5 38v88q0 29 -17 43q-17 13 -77 13q-57 0 -76.5 -12.5t-19.5 -43.5v-88q0 -26 6.5 -38t26 -17t62.5 -5t62.5 5z" />
    <glyph glyph-name="nine" unicode="9" 
d="M86 0v104q128 -14 183 -14q51 0 74 7t30.5 26t7.5 60v61h-108q-54 0 -78 1.5t-54 9.5q-31 8 -47 23t-28 44q-11 30 -11 70v88q0 46 14 80.5t36 54.5q20 17 52.5 28t64.5 14q38 2 69 2q47 0 74.5 -2.5t58.5 -12.5q33 -11 53.5 -29.5t34.5 -52.5q14 -36 14 -82v-302
q0 -101 -60.5 -144.5t-194.5 -43.5q-86 0 -185 10zM381 341v152q0 34 -5.5 47t-23 17t-63.5 4q-42 0 -59.5 -4.5t-23.5 -18t-6 -45.5v-99q0 -24 6 -34.5t24.5 -14.5t59.5 -4h91z" />
    <glyph glyph-name="colon" unicode=":" horiz-adv-x="256" 
d="M50 484h156v-138h-156v138zM50 138h156v-138h-156v138z" />
    <glyph glyph-name="semicolon" unicode=";" horiz-adv-x="256" 
d="M50 484h156v-138h-156v138zM65 138h152l-94 -250h-104z" />
    <glyph glyph-name="less" unicode="&#x3c;" 
d="M70 259v112l440 153v-111l-326 -98l326 -98v-111z" />
    <glyph glyph-name="equal" unicode="=" 
d="M70 465h440v-101h-440v101zM70 265h440v-101h-440v101z" />
    <glyph glyph-name="greater" unicode="&#x3e;" 
d="M70 217l326 98l-326 98v111l440 -153v-112l-440 -153v111z" />
    <glyph glyph-name="question" unicode="?" horiz-adv-x="529" 
d="M181 246q0 37 15 65.5t40 46.5q18 13 46 30q55 34 55 75v47q0 28 -19 38t-79 10q-46 0 -199 -24v109q124 16 218 16q51 0 82.5 -2.5t60.5 -10.5q30 -9 48 -23.5t29 -39.5q11 -27 11 -60v-96q0 -28 -16.5 -52.5t-43.5 -42.5q-34 -22 -51 -32q-61 -38 -61 -67v-45h-136v58z
M171 138h156v-138h-156v138z" />
    <glyph glyph-name="at" unicode="@" horiz-adv-x="787" 
d="M56 166v307q0 38 16.5 69.5t45.5 51.5q58 40 135 53q69 12 135 12q56 0 107 -7t108 -24q60 -18 95 -58t35 -96v-243q0 -83 -129 -83h-31q-37 0 -68 10t-36 25q-16 -37 -94 -37q-60 0 -91 10t-44.5 35.5t-13.5 76.5v113q0 49 15 75t50.5 36t103.5 10t101 -10t45.5 -35
t12.5 -76v-143q0 -14 8.5 -19t30.5 -5t29.5 4.5t7.5 19.5v233q0 110 -241 110q-37 0 -61.5 -1.5t-55.5 -7.5q-35 -7 -56 -18.5t-36 -31.5q-16 -22 -16 -51v-297q0 -108 226 -108q66 0 240 24v-77q-176 -23 -242 -23q-332 0 -332 176zM397 214q26 0 36.5 3.5t14 14.5t3.5 39
v104q0 30 -4 42.5t-15.5 16.5t-39.5 4q-27 0 -38.5 -4.5t-15.5 -17t-4 -41.5v-114q0 -24 3 -33t12.5 -11.5t36.5 -2.5h11z" />
    <glyph glyph-name="A" unicode="A" horiz-adv-x="668" 
d="M242 649h190l234 -649h-158l-58 171h-237l-57 -171h-154zM416 275l-82 244h-4l-82 -244h168z" />
    <glyph glyph-name="B" unicode="B" horiz-adv-x="635" 
d="M70 649h263q93 0 143.5 -13.5t71.5 -43t21 -82.5v-80q0 -27 -21.5 -51t-50.5 -33v-5q38 -4 69.5 -32.5t31.5 -63.5v-100q0 -79 -63 -112t-195 -33h-270v649zM333 385q37 0 55 6t24.5 19.5t6.5 39.5v32q0 23 -6 34.5t-24.5 16.5t-58.5 5h-104v-153h107zM337 111
q57 0 81 13t24 42v52q0 36 -18.5 51t-65.5 15h-132v-173h111z" />
    <glyph glyph-name="C" unicode="C" horiz-adv-x="597" 
d="M278.5 -6q-34.5 4 -75.5 15q-46 12 -76 31.5t-50 54.5q-21 35 -21 83v285q0 196 301 196q77 0 206 -22v-117q-116 28 -204 28q-37 0 -57.5 -2t-42.5 -10q-47 -16 -47 -71v-276q0 -88 161 -88q69 0 194 29v-118q-107 -22 -210 -22q-44 0 -78.5 4z" />
    <glyph glyph-name="D" unicode="D" horiz-adv-x="710" 
d="M70 649h276q114 0 180 -17.5t97 -60.5t31 -119v-264q0 -74 -29 -114.5t-95 -57t-183 -16.5h-277v649zM340 111q64 0 96.5 5.5t47 21.5t14.5 50v267q0 46 -36.5 64.5t-116.5 18.5h-119v-427h114z" />
    <glyph glyph-name="E" unicode="E" horiz-adv-x="610" 
d="M70 649h495v-111h-339v-149h306v-111h-306v-167h349v-111h-505v649z" />
    <glyph glyph-name="F" unicode="F" horiz-adv-x="610" 
d="M70 649h505v-111h-349v-159h316v-111h-316v-268h-156v649z" />
    <glyph glyph-name="G" unicode="G" horiz-adv-x="705" 
d="M280 -5q-43 5 -85 17q-45 12 -74 32.5t-47 53.5q-18 35 -18 80v270q0 49 20 88.5t54 62.5q32 21 76.5 36t87.5 20q36 4 87 4q138 0 264 -21v-118q-116 28 -264 28q-169 0 -169 -98v-261q0 -48 45.5 -68t137.5 -20q49 0 105 15v151h-106v102h255v-337q-50 -18 -127.5 -30
t-142.5 -12q-56 0 -99 5z" />
    <glyph glyph-name="H" unicode="H" horiz-adv-x="728" 
d="M70 649h156v-260h276v260h156v-649h-156v278h-276v-278h-156v649z" />
    <glyph glyph-name="I" unicode="I" horiz-adv-x="296" 
d="M70 649h156v-649h-156v649z" />
    <glyph glyph-name="J" unicode="J" horiz-adv-x="445" 
d="M19 0v114q71 -13 123 -13q79 0 79 71v477h156v-472q0 -102 -55 -144.5t-168 -42.5q-68 0 -135 10z" />
    <glyph glyph-name="K" unicode="K" horiz-adv-x="682" 
d="M70 649h156v-649h-156v649zM230 344l243 305h183l-246 -302l273 -347h-190z" />
    <glyph glyph-name="L" unicode="L" 
d="M70 649h156v-538h319v-111h-475v649z" />
    <glyph glyph-name="M" unicode="M" horiz-adv-x="889" 
d="M70 649h222l160 -464l158 464h209v-649h-141v480h-3l-164 -480h-125l-169 480h-4v-480h-143v649z" />
    <glyph glyph-name="N" unicode="N" horiz-adv-x="751" 
d="M70 649h158l314 -443v443h139v-649h-158l-314 450v-450h-139v649z" />
    <glyph glyph-name="O" unicode="O" horiz-adv-x="728" 
d="M263.5 -3q-45.5 7 -94.5 24q-53 18 -83 58.5t-30 98.5v284q0 48 21.5 86t55.5 60q30 19 74 32t82 16q35 3 74 3q46 0 80 -3.5t76 -14.5q48 -14 79 -34t52 -56q22 -37 22 -89v-284q0 -54 -28.5 -93t-78.5 -59q-90 -36 -202 -36q-54 0 -99.5 7zM420.5 103.5
q22.5 2.5 46.5 9.5t36.5 23.5t12.5 41.5v285q0 46 -37 65.5t-115 19.5t-115 -19t-37 -66v-285q0 -25 13 -41.5t38 -23.5q24 -7 46.5 -9.5t55.5 -2.5t55.5 2.5z" />
    <glyph glyph-name="P" unicode="P" horiz-adv-x="627" 
d="M70 649h260q95 0 150.5 -13t81 -45.5t25.5 -90.5v-123q0 -64 -27.5 -100t-87 -51t-160.5 -15h-86v-211h-156v649zM325 318q61 0 86 14.5t25 49.5v104q0 32 -24 42q-23 10 -89 10h-97v-220h99z" />
    <glyph glyph-name="Q" unicode="Q" horiz-adv-x="740" 
d="M263.5 -3q-45.5 7 -94.5 24q-53 18 -83 58.5t-30 98.5v284q0 48 21.5 86t55.5 60q30 19 74 32t82 16q35 3 74 3q46 0 80 -3.5t76 -14.5q48 -14 79 -34t52 -56q22 -37 22 -89v-177q0 -148 -82 -173h142v-112h-213q-11 0 -68 -5t-88 -5q-54 0 -99.5 7zM420.5 103.5
q22.5 2.5 46.5 9.5t36.5 23.5t12.5 41.5v285q0 46 -37 65.5t-115 19.5t-115 -19t-37 -66v-285q0 -25 13 -41.5t38 -23.5q24 -7 46.5 -9.5t55.5 -2.5t55.5 2.5z" />
    <glyph glyph-name="R" unicode="R" horiz-adv-x="668" 
d="M70 649h292q130 0 188 -31.5t58 -105.5v-114q0 -57 -40.5 -89.5t-107.5 -41.5l188 -267h-180l-170 255h-72v-255h-156v649zM360 358q55 0 75 14.5t20 56.5v46q0 36 -21.5 49.5t-73.5 13.5h-134v-180h134z" />
    <glyph glyph-name="S" unicode="S" horiz-adv-x="606" 
d="M50 8v119q170 -26 232 -26q130 0 130 67v42q0 32 -18.5 49t-66.5 17h-76q-214 0 -214 170v48q0 85 71 125t225 40q80 0 203 -13v-116q-151 18 -208 18q-79 0 -106 -13q-29 -14 -29 -44v-46q0 -51 86 -51h78q111 0 161 -41t50 -125v-43q0 -116 -83 -157
q-40 -21 -88.5 -29.5t-116.5 -8.5q-93 0 -230 18z" />
    <glyph glyph-name="T" unicode="T" horiz-adv-x="595" 
d="M220 538h-200v111h555v-111h-199v-538h-156v538z" />
    <glyph glyph-name="U" unicode="U" horiz-adv-x="699" 
d="M68 178v471h156v-471q0 -44 28.5 -60.5t98.5 -16.5q69 0 96.5 16.5t27.5 60.5v471h156v-471q0 -188 -282 -188q-281 0 -281 188z" />
    <glyph glyph-name="V" unicode="V" horiz-adv-x="664" 
d="M0 649h158l174 -519h4l174 519h154l-240 -649h-191z" />
    <glyph glyph-name="W" unicode="W" horiz-adv-x="985" 
d="M8 649h162l126 -474l126 474h145l136 -474l116 474h158l-208 -649h-154l-124 471l-128 -471h-154z" />
    <glyph glyph-name="X" unicode="X" horiz-adv-x="677" 
d="M249 331l-229 318h180l139 -216l138 216h180l-229 -318l240 -331h-181l-148 230l-149 -230h-180z" />
    <glyph glyph-name="Y" unicode="Y" horiz-adv-x="644" 
d="M243 260l-235 389h177l137 -254l136 254h178l-237 -387v-262h-156v260z" />
    <glyph glyph-name="Z" unicode="Z" horiz-adv-x="612" 
d="M40 95l338 443h-328v111h520v-94l-338 -443h344v-112h-536v95z" />
    <glyph glyph-name="bracketleft" unicode="[" horiz-adv-x="372" 
d="M100 736h262v-87h-119v-752h119v-87h-262v926z" />
    <glyph glyph-name="backslash" unicode="\" horiz-adv-x="431" 
d="M10 659h87l324 -669h-87z" />
    <glyph glyph-name="bracketright" unicode="]" horiz-adv-x="372" 
d="M10 -103h119v752h-119v87h262v-926h-262v87z" />
    <glyph glyph-name="asciicircum" unicode="^" horiz-adv-x="341" 
d="M76 680h187l58 -227h-98l-53 187l-52 -187h-98z" />
    <glyph glyph-name="underscore" unicode="_" 
d="M71 -60h438v-101h-438v101z" />
    <glyph glyph-name="grave" unicode="`" horiz-adv-x="449" 
d="M100 680h159l90 -127h-124z" />
    <glyph glyph-name="a" unicode="a" horiz-adv-x="564" 
d="M99.5 2.5q-33.5 12.5 -47 45t-13.5 97.5q0 58 14.5 91t47 47.5t89.5 14.5h164v33q0 31 -8.5 46t-31 21t-67.5 6q-62 0 -170 -12v92q79 10 185 10q93 0 143.5 -14t72.5 -48t22 -99v-333h-143v44q-17 -29 -46 -41q-29 -13 -110 -13q-68 0 -101.5 12.5zM321 84q14 2 19.5 6
t9.5 13q4 7 4 21v94h-100q-34 0 -48 -4.5t-19 -18t-5 -47.5q0 -33 5 -46t19.5 -17t51.5 -4q44 0 63 3z" />
    <glyph glyph-name="b" unicode="b" horiz-adv-x="610" 
d="M163.5 9q-53.5 19 -76.5 58.5t-23 104.5v528h146v-264q13 33 48 45.5t109 12.5q63 0 101.5 -10t58.5 -32q19 -22 26 -48.5t7 -72.5v-159q0 -98 -59 -140t-192 -42q-92 0 -145.5 19zM376 87q22 6 30 21t8 45v179q0 33 -7 47.5t-28 19.5t-69 5q-41 0 -62.5 -7t-29.5 -22
t-8 -43v-179q0 -30 7.5 -45t29 -21t64.5 -6t65 6z" />
    <glyph glyph-name="c" unicode="c" horiz-adv-x="482" 
d="M240 -8.5q-22 1.5 -54 5.5t-52.5 14t-42.5 30q-41 34 -41 116v161q0 66 30 110q11 16 32.5 29.5t43.5 21.5q18 6 48 10t53 5h53q56 0 147 -18v-96q-103 24 -158 24q-101 0 -101 -68v-178q0 -77 111 -77q54 0 155 22v-96q-91 -17 -164 -17q-38 0 -60 1.5z" />
    <glyph glyph-name="d" unicode="d" horiz-adv-x="608" 
d="M123 2.5q-41 12.5 -57 47.5t-16 109v189q0 80 45.5 113t147.5 33q48 0 75.5 -5.5t44.5 -19t35 -39.5v270h146v-700h-141v55q-18 -29 -32.5 -40.5t-40.5 -17.5q-27 -7 -80 -7q-86 0 -127 12.5zM359 86q23 5 31 18.5t8 40.5v195q0 25 -8.5 38.5t-30 19.5t-64.5 6
q-46 0 -66 -5.5t-26.5 -19t-6.5 -44.5v-185q0 -28 6.5 -42.5t25.5 -20.5t59 -6q49 0 72 5z" />
    <glyph glyph-name="e" unicode="e" horiz-adv-x="559" 
d="M50 147v174q0 91 58.5 132t180.5 41q115 0 168.5 -39.5t53.5 -133.5v-118h-314v-44q0 -42 30 -60t108 -18q72 0 162 21v-93q-89 -19 -190 -19q-257 0 -257 157zM372 286v70q0 24 -19.5 36t-65.5 12q-53 0 -71 -12q-19 -13 -19 -36v-70h175z" />
    <glyph glyph-name="f" unicode="f" horiz-adv-x="388" 
d="M101 394h-91v90h91v73q0 59 19.5 92.5t60 47t108.5 13.5q37 0 109 -8v-90q-64 8 -86 8q-37 0 -51 -11.5t-14 -43.5v-81h133v-90h-133v-394h-146v394z" />
    <glyph glyph-name="g" unicode="g" horiz-adv-x="608" 
d="M85 -213v98q94 -13 175 -13q74 0 106 24t32 80v78q-18 -26 -35 -39.5t-44.5 -19t-75.5 -5.5q-71 0 -113 13.5t-61 45t-19 87.5v189q0 67 17.5 103t60 51t122.5 15q52 0 80 -6q27 -6 41 -18t32 -41v55h141v-510q0 -103 -70.5 -148.5t-213.5 -45.5q-118 0 -175 7zM359.5 87
q21.5 6 30 19.5t8.5 38.5v195q0 27 -8 40.5t-31 18.5t-72 5q-40 0 -59 -6t-25.5 -20.5t-6.5 -42.5v-185q0 -31 6.5 -44.5t26.5 -19t66 -5.5q43 0 64.5 6z" />
    <glyph glyph-name="h" unicode="h" horiz-adv-x="595" 
d="M64 700h146v-275q14 69 153 69q93 0 130.5 -33.5t37.5 -105.5v-355h-146v338q0 28 -5.5 41.5t-21.5 19t-51 5.5q-43 0 -63 -5t-27 -18.5t-7 -42.5v-338h-146v700z" />
    <glyph glyph-name="i" unicode="i" horiz-adv-x="282" 
d="M68 659h146v-118h-146v118zM68 484h146v-484h-146v484z" />
    <glyph glyph-name="j" unicode="j" horiz-adv-x="274" 
d="M64 659h146v-118h-146v118zM-38 -218v95q4 -1 18 -1q38 0 55 5.5t23 22.5t6 56v524h146v-557q0 -83 -48.5 -115t-152.5 -32z" />
    <glyph glyph-name="k" unicode="k" horiz-adv-x="540" 
d="M64 700h146v-700h-146v700zM216 272l159 212h167l-168 -211l182 -273h-165z" />
    <glyph glyph-name="l" unicode="l" horiz-adv-x="282" 
d="M68 700h146v-700h-146v700z" />
    <glyph glyph-name="m" unicode="m" horiz-adv-x="876" 
d="M64 484h146v-59q14 69 143 69q68 0 103 -17.5t47 -54.5q12 38 46.5 55t104.5 17q63 0 97 -14.5t47.5 -44.5t13.5 -80v-355h-146v335q0 32 -4 45.5t-17.5 18.5t-46.5 5q-41 0 -58.5 -5t-23 -18.5t-5.5 -45.5v-335h-146v335q0 32 -4 45.5t-17.5 18.5t-46.5 5
q-41 0 -58.5 -5t-23 -18.5t-5.5 -45.5v-335h-146v484z" />
    <glyph glyph-name="n" unicode="n" horiz-adv-x="595" 
d="M64 484h144v-59q17 69 155 69q93 0 130.5 -33.5t37.5 -105.5v-355h-146v336q0 28 -5.5 42t-22 20t-50.5 6q-43 0 -63 -5.5t-27 -19.5t-7 -43v-336h-146v484z" />
    <glyph glyph-name="o" unicode="o" horiz-adv-x="592" 
d="M222 -7q-29 3 -62 12q-36 10 -58 28.5t-37 52.5q-15 33 -15 80v143q0 48 15 84t39 56q21 17 55.5 28.5t67.5 14.5q38 2 69 2q46 0 73.5 -2.5t60.5 -12.5q36 -11 58.5 -30t38.5 -54q15 -36 15 -86v-143q0 -45 -14.5 -79t-37.5 -53q-20 -17 -54.5 -27.5t-67.5 -13.5
q-30 -3 -72 -3q-45 0 -74 3zM358 87.5q21 6.5 29.5 20.5t8.5 41v183q0 40 -21 56t-79 16t-79 -16t-21 -56v-183q0 -27 8.5 -41t29.5 -20.5t62 -6.5t62 6.5z" />
    <glyph glyph-name="p" unicode="p" horiz-adv-x="609" 
d="M64 484h138v-48q13 32 51 45t113 13q63 0 101.5 -10t58.5 -32q19 -22 26 -48.5t7 -72.5v-159q0 -72 -21 -111t-64.5 -55t-118.5 -16q-72 0 -104 12t-41 47v-257h-146v692zM375 87q22 6 30 21t8 45v179q0 33 -7 47.5t-28 19.5t-69 5q-41 0 -62.5 -7t-29 -22t-7.5 -43v-179
q0 -30 7.5 -45t28.5 -21t64 -6t65 6z" />
    <glyph glyph-name="q" unicode="q" horiz-adv-x="608" 
d="M398 55q-17 -29 -32 -42t-40.5 -18t-75.5 -5q-86 0 -127 12.5t-57 47.5t-16 109v169q0 69 20.5 103.5t72 48.5t154.5 14q63 0 103.5 -4t66.5 -15q30 -13 44.5 -25.5t21.5 -34.5q7 -24 9 -44t2 -61v-518h-146v263zM359 86q23 5 31 18.5t8 40.5v192q0 25 -8.5 39.5
t-30.5 21t-64 6.5q-46 0 -66 -5t-26.5 -18.5t-6.5 -43.5v-187q0 -28 6.5 -42.5t25.5 -20.5t59 -6q49 0 72 5z" />
    <glyph glyph-name="r" unicode="r" horiz-adv-x="397" 
d="M64 484h139v-85q0 23 19 45t48.5 36t58.5 14h52v-121h-50q-62 0 -91.5 -19t-29.5 -63v-291h-146v484z" />
    <glyph glyph-name="s" unicode="s" horiz-adv-x="525" 
d="M54 5v97q139 -21 193 -21q46 0 68 9t22 33v30q0 25 -14 35.5t-55 10.5h-63q-77 0 -119 30.5t-42 89.5v59q0 63 60 89.5t181 26.5q48 0 172 -9v-93q-156 12 -176 12q-59 0 -77 -8q-16 -9 -16 -33v-26q0 -13 13 -22.5t38 -9.5h64q178 0 178 -116v-61q0 -35 -13 -61t-34 -41
q-20 -14 -51.5 -22t-65.5 -11q-31 -3 -72 -3q-78 0 -191 15z" />
    <glyph glyph-name="t" unicode="t" horiz-adv-x="407" 
d="M244 -7q-25 3 -50 12q-28 9 -45.5 25t-28.5 44q-12 29 -12 67v253h-98v90h98v140h146v-140h133v-90h-133v-228q0 -35 6 -52.5t23 -25t52 -7.5q14 0 52 5v-91q-47 -5 -81 -5q-37 0 -62 3z" />
    <glyph glyph-name="u" unicode="u" horiz-adv-x="595" 
d="M101.5 23.5q-37.5 33.5 -37.5 105.5v355h146v-335q0 -28 5.5 -42t22 -20t50.5 -6q43 0 63 5.5t27 19.5t7 43v335h146v-484h-144v59q-16 -69 -155 -69q-93 0 -130.5 33.5z" />
    <glyph glyph-name="v" unicode="v" horiz-adv-x="510" 
d="M0 484h155l106 -335l102 335h147l-178 -484h-148z" />
    <glyph glyph-name="w" unicode="w" horiz-adv-x="822" 
d="M8 484h149l90 -351l96 351h143l100 -351l86 351h142l-158 -484h-148l-96 327l-94 -327h-148z" />
    <glyph glyph-name="x" unicode="x" horiz-adv-x="568" 
d="M200 248l-180 236h169l95 -139l96 139h169l-181 -236l191 -248h-169l-106 152l-105 -152h-169z" />
    <glyph glyph-name="y" unicode="y" horiz-adv-x="534" 
d="M201 4l-193 480h159l109 -342l99 342h151l-265 -692h-148z" />
    <glyph glyph-name="z" unicode="z" horiz-adv-x="512" 
d="M40 78l244 311h-234v95h420v-78l-244 -311h250v-95h-436v78z" />
    <glyph glyph-name="braceleft" unicode="{" horiz-adv-x="384" 
d="M203 -184q-24 6 -49 23q-26 18 -40 54t-14 89v190q0 41 -4 56t-17 20t-48 5h-23v92h23q35 0 48 5t17 20t4 56v138q0 53 14 89t40 54q25 17 49 23t58 6h103v-87h-60q-26 0 -43.5 -17.5t-17.5 -47.5v-143q0 -62 -17 -93.5t-62 -46.5v-4q45 -15 62 -46t17 -94v-195
q0 -30 17.5 -47.5t43.5 -17.5h60v-87h-103q-34 0 -58 6z" />
    <glyph glyph-name="bar" unicode="|" horiz-adv-x="265" 
d="M104 659h57v-669h-57v669z" />
    <glyph glyph-name="braceright" unicode="}" horiz-adv-x="384" 
d="M20 -103h60q26 0 43.5 17.5t17.5 47.5v195q0 63 17 94t62 46v4q-45 15 -62 46.5t-17 93.5v143q0 30 -17.5 47.5t-43.5 17.5h-60v87h103q34 0 59 -6t49 -23q53 -36 53 -143v-138q0 -41 4 -56t17 -20t48 -5h23v-92h-23q-35 0 -48 -5t-17 -20t-4 -56v-190q0 -107 -53 -143
q-24 -17 -49 -23t-59 -6h-103v87z" />
    <glyph glyph-name="asciitilde" unicode="~" 
d="M68 326q38 45 122 45q37 0 109 -29q71 -30 94 -30q81 0 119 62v-101q-36 -46 -123 -46q-31 0 -102 30q-72 29 -101 29q-42 0 -69.5 -14.5t-48.5 -46.5v101z" />
    <glyph glyph-name="uni00A0" unicode="&#xa0;" horiz-adv-x="230" 
 />
    <glyph glyph-name="exclamdown" unicode="&#xa1;" horiz-adv-x="295" 
d="M70 484h156v-138h-156v138zM103 296h89l43 -461h-175z" />
    <glyph glyph-name="cent" unicode="&#xa2;" horiz-adv-x="464" 
d="M244 73q-39 1 -65 4.5t-55 12.5q-30 10 -48.5 27.5t-30.5 48.5q-13 30 -13 74v161q0 109 66 145q32 17 64.5 23.5t81.5 7.5v82h82v-84q46 -3 113 -16v-97q-103 24 -167 24q-43 0 -61 -3.5t-24.5 -16t-6.5 -40.5v-208q0 -35 20 -43q20 -9 82 -9q63 0 164 22v-98
q-58 -11 -120 -15v-85h-82v83z" />
    <glyph glyph-name="sterling" unicode="&#xa3;" 
d="M42 111h101v172h-101v102h101v75q0 62 15 102t47 61q31 20 68.5 28t97.5 8q47 0 119 -8v-101q-59 9 -95 9q-52 0 -72.5 -5t-27 -21.5t-6.5 -57.5v-90h171v-102h-171v-172h249v-111h-496v111z" />
    <glyph glyph-name="currency" unicode="&#xa4;" horiz-adv-x="520" 
d="M100 148l-54 -54l-26 26l54 54q-62 77 -62 163t62 163l-54 54l26 26l54 -54q77 59 158 59q90 0 163 -57l54 54l26 -26l-54 -54q62 -77 62 -163t-62 -163l54 -54l-26 -26l-54 54q-77 -61 -163 -61q-81 0 -158 59zM366 157.5q48 28.5 75.5 76.5t27.5 105q0 55 -28 102.5
t-75.5 75.5t-102.5 28q-58 0 -106.5 -27t-76.5 -75t-28 -106q0 -57 28 -104.5t76.5 -75.5t105.5 -28q56 0 104 28.5z" />
    <glyph glyph-name="yen" unicode="&#xa5;" horiz-adv-x="647" 
d="M247 95h-192v101h192v67h-192v101h130l-175 285h177l137 -254l136 254h178l-177 -285h132v-101h-193v-67h193v-101h-193v-95h-153v95z" />
    <glyph glyph-name="brokenbar" unicode="&#xa6;" horiz-adv-x="265" 
d="M105 649h55v-351h-55v351zM105 161h55v-351h-55v351z" />
    <glyph glyph-name="section" unicode="&#xa7;" 
d="M68 -101v109q122 -21 206 -21q42 0 70 6q33 6 33 33v48q0 14 -8 24q-11 13 -53 13h-87q-90 0 -140.5 32t-50.5 94v80q0 25 20 49.5t46 33.5q-19 10 -32.5 30.5t-13.5 40.5v66q0 65 63.5 93.5t190.5 28.5q23 0 185 -9v-102q-161 12 -189 12q-47 0 -73 -6q-25 -6 -28 -11
q-4 -4 -4 -14v-51q0 -29 62 -29h95q88 0 135 -33.5t47 -99.5v-47q0 -35 -20.5 -67t-46.5 -41q20 -6 33.5 -26.5t13.5 -42.5v-62q0 -47 -21 -77.5t-60 -44.5q-39 -13 -76.5 -18t-92.5 -5q-78 0 -204 14zM342 216q35 0 45 7q10 6 10 22v72q0 28 -71 28h-109q-34 0 -34 -26v-84
q0 -19 55 -19h104z" />
    <glyph glyph-name="dieresis" unicode="&#xa8;" horiz-adv-x="516" 
d="M100 683h126v-118h-126v118zM290 683h126v-118h-126v118z" />
    <glyph glyph-name="copyright" unicode="&#xa9;" horiz-adv-x="777" 
d="M306 -6q-40 4 -85 15q-52 12 -87.5 31t-58.5 50q-25 32 -25 76v307q0 39 17 70t47 51q62 40 140 53q73 12 138 12q46 0 84.5 -4t83.5 -15q52 -13 86 -32.5t57 -52.5q24 -34 24 -81v-308q0 -41 -23 -74.5t-61 -52.5q-35 -17 -82.5 -29.5t-88.5 -15.5q-36 -4 -80 -4
q-46 0 -86 4zM451 73.5q21 1.5 53 6.5q36 5 58 15.5t39 30.5t17 48v297q0 110 -225 110q-235 0 -235 -110v-297q0 -102 236 -102q36 0 57 1.5zM297 163q-34 11 -49 37t-15 73v116q0 62 38 91.5t121 29.5q82 0 115.5 -26t33.5 -85v-27h-103v19q0 20 -3 28.5t-13 11.5t-33 3
q-28 0 -38 -10.5t-10 -42.5v-100q0 -24 3.5 -35t13 -14.5t31.5 -3.5q24 0 33.5 2.5t12.5 11t3 29.5v20h103v-28q0 -59 -32.5 -85t-116.5 -26q-61 0 -95 11z" />
    <glyph glyph-name="ordfeminine" unicode="&#xaa;" horiz-adv-x="327" 
d="M57 423q-20 16 -20 61q0 42 20 59.5t65 17.5h82v31q0 12 -8 16.5t-30 4.5l-110 -4v46q75 4 117 4q63 0 89 -18t26 -63v-166h-82v22q-9 -16 -24.5 -21.5t-53.5 -5.5q-51 0 -71 16zM195 451q9 3 9 18v52h-50q-23 0 -29.5 -7t-6.5 -31t6.5 -29.5t32.5 -5.5q28 0 38 3z
M39 376h248v-66h-248v66z" />
    <glyph glyph-name="guillemotleft" unicode="&#xab;" horiz-adv-x="526" 
d="M40 262l100 192h126l-92 -192l92 -192h-126zM260 262l100 192h126l-92 -192l92 -192h-126z" />
    <glyph glyph-name="logicalnot" unicode="&#xac;" 
d="M409 264h-339v101h440v-281h-101v180z" />
    <glyph glyph-name="uni00AD" unicode="&#xad;" horiz-adv-x="388" 
d="M40 342h308v-112h-308v112z" />
    <glyph glyph-name="registered" unicode="&#xae;" horiz-adv-x="777" 
d="M306 -6q-40 4 -85 15q-52 12 -87.5 31t-58.5 50q-25 32 -25 76v307q0 39 17 70t47 51q62 40 140 53q73 12 138 12q46 0 84.5 -4t83.5 -15q52 -13 86 -32.5t57 -52.5q24 -34 24 -81v-308q0 -41 -23 -74.5t-61 -52.5q-35 -17 -82.5 -29.5t-88.5 -15.5q-36 -4 -80 -4
q-46 0 -86 4zM451 73.5q21 1.5 53 6.5q36 5 58 15.5t39 30.5t17 48v297q0 110 -225 110q-235 0 -235 -110v-297q0 -102 236 -102q36 0 57 1.5zM251 509h147q55 0 84 -7t41 -23t12 -46v-65q0 -34 -16.5 -49.5t-54.5 -25.5l85 -153h-106l-72 146h-22v-146h-98v369zM396 344
q27 0 34 7t7 32v34q0 21 -7.5 27.5t-28.5 6.5h-52v-107h47z" />
    <glyph glyph-name="macron" unicode="&#xaf;" horiz-adv-x="478" 
d="M100 649h278v-89h-278v89z" />
    <glyph glyph-name="degree" unicode="&#xb0;" horiz-adv-x="454" 
d="M154.5 323q-28.5 4 -56.5 15q-58 23 -58 96v109q0 31 12.5 55.5t30.5 37.5q15 10 43.5 16.5t50.5 7.5q12 1 50 1q36 0 53 -1t45 -7q30 -6 46.5 -17.5t29.5 -34.5t13 -58v-109q0 -73 -57 -96q-28 -11 -57 -15t-73 -4t-72.5 4zM288 404q15 8 15 30v107q0 27 -15 35.5
t-61 8.5t-61 -8.5t-15 -35.5v-107q0 -23 16 -30q15 -9 60 -9t61 9z" />
    <glyph glyph-name="plusminus" unicode="&#xb1;" 
d="M239 264h-169v101h169v179h101v-179h170v-101h-170v-130h-101v130zM70 101h440v-101h-440v101z" />
    <glyph glyph-name="uni00B2" unicode="&#xb2;" horiz-adv-x="378" 
d="M27 361q0 32 19 56t48 37q32 13 56 21q33 11 50 20.5t17 22.5v38q0 21 -55 21q-25 0 -127 -17v82q77 13 145 13q81 0 120 -22.5t39 -75.5v-42q0 -37 -28.5 -64t-68.5 -37q-42 -10 -70 -24.5t-28 -31.5v-5h196v-80h-313v88z" />
    <glyph glyph-name="uni00B3" unicode="&#xb3;" horiz-adv-x="378" 
d="M51 276q-8 0 -15 1l-14 1v88l30 -6q62 -13 107 -13q30 0 41 6t11 24v34q0 18 -51 18h-87v75h87q36 0 36 25v28q0 14 -9 18q-10 5 -38 5q-40 0 -125 -8v78l42 2q37 3 92 3q85 0 122 -17.5t37 -64.5v-53q0 -24 -26 -44q42 -19 42 -57v-51q0 -53 -38.5 -76t-123.5 -23
q-68 0 -120 7z" />
    <glyph glyph-name="acute" unicode="&#xb4;" horiz-adv-x="449" 
d="M190 680h159l-125 -127h-124z" />
    <glyph glyph-name="uni00B5" unicode="&#xb5;" horiz-adv-x="595" 
d="M64 484h146v-335q0 -28 5.5 -42t22 -20t50.5 -6q43 0 63 5.5t27 19.5t7 43v335h146v-484h-144v59q-16 -69 -155 -69l-22 2v-200h-146v692z" />
    <glyph glyph-name="paragraph" unicode="&#xb6;" horiz-adv-x="459" 
d="M199 352q-69 0 -102 11.5t-45 42t-12 95.5q0 59 9.5 90.5t32.5 44.5t65 13h272v-16l-23 -17q-21 -16 -21 -37v-579h-53v606h-70v-606h-53v352z" />
    <glyph glyph-name="periodcentered" unicode="&#xb7;" horiz-adv-x="256" 
d="M50 400h147v-138h-147v138z" />
    <glyph glyph-name="cedilla" unicode="&#xb8;" horiz-adv-x="411" 
d="M100 -197l22 46q30 -18 62 -18q47 0 47 35q0 38 -75 38h-40q1 3 32 48t32 48h70l-36 -50q44 -3 70.5 -22.5t26.5 -56.5q0 -43 -35 -67t-85 -24q-56 0 -91 23z" />
    <glyph glyph-name="uni00B9" unicode="&#xb9;" horiz-adv-x="378" 
d="M153 536l-111 -57v92l137 78h93v-376h-119v263z" />
    <glyph glyph-name="ordmasculine" unicode="&#xba;" horiz-adv-x="347" 
d="M126 409.5q-19 2.5 -40 10.5q-46 17 -46 75v71q0 61 47 80q21 8 40 10.5t47 2.5t47.5 -2.5t40.5 -10.5q46 -18 46 -80v-71q0 -58 -46 -75q-21 -8 -40 -10.5t-48 -2.5t-48 2.5zM214 457.5q10 6.5 10 25.5v97q0 21 -10 28.5t-40 7.5q-29 0 -39.5 -7.5t-10.5 -28.5v-97
q0 -19 10 -25.5t40 -6.5t40 6.5zM50 376h248v-66h-248v66z" />
    <glyph glyph-name="guillemotright" unicode="&#xbb;" horiz-adv-x="526" 
d="M132 262l-92 192h126l100 -192l-100 -192h-126zM352 262l-92 192h126l100 -192l-100 -192h-126z" />
    <glyph glyph-name="onequarter" unicode="&#xbc;" horiz-adv-x="956" 
d="M225 536l-111 -57v92l137 78h93v-376h-119v263zM624 649h101l-392 -649h-101zM750 68h-188v76l173 232h125v-230h43v-78h-43v-68h-110v68zM750 146v121l-86 -121h86z" />
    <glyph glyph-name="onehalf" unicode="&#xbd;" horiz-adv-x="956" 
d="M225 536l-111 -57v92l137 78h93v-376h-119v263zM624 649h101l-392 -649h-101zM581 88q0 32 19 56t48 37q31 13 56 21q33 11 50 20.5t17 22.5v38q0 21 -55 21q-25 0 -127 -17v82q77 13 145 13q81 0 120 -22.5t39 -75.5v-42q0 -37 -28.5 -64t-68.5 -37q-42 -10 -70 -24.5
t-28 -31.5v-5h196v-80h-313v88z" />
    <glyph glyph-name="threequarters" unicode="&#xbe;" horiz-adv-x="956" 
d="M51 276q-8 0 -15 1l-14 1v88l30 -6q62 -13 107 -13q30 0 41 6t11 24v34q0 18 -51 18h-87v75h87q36 0 36 25v28q0 14 -9 18q-10 5 -38 5q-40 0 -125 -8v78l42 2q37 3 92 3q85 0 122 -17.5t37 -64.5v-53q0 -24 -26 -44q42 -19 42 -57v-51q0 -53 -38.5 -76t-123.5 -23
q-68 0 -120 7zM624 649h101l-392 -649h-101zM750 68h-188v76l173 232h125v-230h43v-78h-43v-68h-110v68zM750 146v121l-86 -121h86z" />
    <glyph glyph-name="questiondown" unicode="&#xbf;" horiz-adv-x="529" 
d="M202 484h156v-138h-156v138zM188.5 -172q-31.5 3 -59.5 11q-31 8 -49 22.5t-29 39.5q-11 27 -11 60v96q0 28 16.5 52t44.5 43l51 33q60 35 60 66v45h136v-58q0 -36 -15 -64.5t-40 -46.5q-25 -19 -46 -31q-55 -34 -55 -75v-47q0 -27 19 -37q20 -11 79 -11q46 0 199 24
v-109q-124 -16 -218 -16q-51 0 -82.5 3z" />
    <glyph glyph-name="Agrave" unicode="&#xc0;" horiz-adv-x="668" 
d="M242 649h190l234 -649h-158l-58 171h-237l-57 -171h-154zM416 275l-82 244h-4l-82 -244h168zM168 840h159l90 -127h-124z" />
    <glyph glyph-name="Aacute" unicode="&#xc1;" horiz-adv-x="668" 
d="M242 649h190l234 -649h-158l-58 171h-237l-57 -171h-154zM416 275l-82 244h-4l-82 -244h168zM374 840h159l-125 -127h-124z" />
    <glyph glyph-name="Acircumflex" unicode="&#xc2;" horiz-adv-x="668" 
d="M242 649h190l234 -649h-158l-58 171h-237l-57 -171h-154zM416 275l-82 244h-4l-82 -244h168zM239 840h187l58 -127h-98l-53 87l-52 -87h-98z" />
    <glyph glyph-name="Atilde" unicode="&#xc3;" horiz-adv-x="668" 
d="M242 649h190l234 -649h-158l-58 171h-237l-57 -171h-154zM416 275l-82 244h-4l-82 -244h168zM319 737l-42 20q-35 0 -36 -30h-73q1 57 30 81.5t86 24.5q29 0 66 -19t44 -19q33 0 33 35h72q-2 -114 -110 -114q-26 0 -70 21z" />
    <glyph glyph-name="Adieresis" unicode="&#xc4;" horiz-adv-x="668" 
d="M175 833h126v-118h-126v118zM365 833h126v-118h-126v118zM242 649h190l234 -649h-158l-58 171h-237l-57 -171h-154zM416 275l-82 244h-4l-82 -244h168z" />
    <glyph glyph-name="Aring" unicode="&#xc5;" horiz-adv-x="652" 
d="M214 571q-38 23 -38 78v32q0 71 51 90q25 9 47 11.5t61 2.5t61 -2.5t47 -11.5q51 -19 51 -90v-32q0 -53 -34 -75l207 -574h-158l-58 171h-237l-58 -171h-153zM391 610.5q14 7.5 14 31.5v37q0 20 -5 29t-19 12t-46 3t-46 -3t-19 -12t-5 -29v-37q0 -24 14 -31.5t56 -7.5
t56 7.5zM417 275l-82 244h-5l-82 -244h169z" />
    <glyph glyph-name="AE" unicode="&#xc6;" horiz-adv-x="990" 
d="M330 649h615v-111h-322v-149h289v-111h-289v-167h332v-111h-485v171h-225l-79 -171h-166zM470 275v263h-57l-121 -263h178z" />
    <glyph glyph-name="Ccedilla" unicode="&#xc7;" horiz-adv-x="597" 
d="M243 -197l22 46q30 -18 62 -18q47 0 47 35q0 38 -75 38h-40l12 20q4 5 26 37l20 30q-261 14 -261 187v285q0 196 301 196q77 0 206 -22v-117q-116 28 -204 28q-37 0 -57.5 -2t-42.5 -10q-47 -16 -47 -71v-276q0 -88 161 -88q69 0 194 29v-118q-108 -21 -181 -22l-29 -40
q44 -3 70.5 -22.5t26.5 -56.5q0 -43 -35 -67t-85 -24q-56 0 -91 23z" />
    <glyph glyph-name="Egrave" unicode="&#xc8;" horiz-adv-x="610" 
d="M70 649h495v-111h-339v-149h306v-111h-306v-167h349v-111h-505v649zM139 840h159l90 -127h-124z" />
    <glyph glyph-name="Eacute" unicode="&#xc9;" horiz-adv-x="610" 
d="M70 649h495v-111h-339v-149h306v-111h-306v-167h349v-111h-505v649zM345 840h159l-125 -127h-124z" />
    <glyph glyph-name="Ecircumflex" unicode="&#xca;" horiz-adv-x="610" 
d="M70 649h495v-111h-339v-149h306v-111h-306v-167h349v-111h-505v649zM210 840h187l58 -127h-98l-53 87l-52 -87h-98z" />
    <glyph glyph-name="Edieresis" unicode="&#xcb;" horiz-adv-x="610" 
d="M147 848h126v-118h-126v118zM337 848h126v-118h-126v118zM70 649h495v-111h-339v-149h306v-111h-306v-167h349v-111h-505v649z" />
    <glyph glyph-name="Igrave" unicode="&#xcc;" horiz-adv-x="296" 
d="M70 649h156v-649h-156v649zM-18 840h159l90 -127h-124z" />
    <glyph glyph-name="Iacute" unicode="&#xcd;" horiz-adv-x="296" 
d="M70 649h156v-649h-156v649zM188 840h159l-125 -127h-124z" />
    <glyph glyph-name="Icircumflex" unicode="&#xce;" horiz-adv-x="296" 
d="M54 845h187l58 -127h-98l-53 87l-52 -87h-98zM70 649h156v-649h-156v649z" />
    <glyph glyph-name="Idieresis" unicode="&#xcf;" horiz-adv-x="296" 
d="M-10 848h126v-118h-126v118zM180 848h126v-118h-126v118zM70 649h156v-649h-156v649z" />
    <glyph glyph-name="Eth" unicode="&#xd0;" horiz-adv-x="677" 
d="M70 284h-60v101h60v264h276q114 0 180 -17.5t97 -60.5t31 -119v-264q0 -74 -29 -114.5t-95 -57t-183 -16.5h-277v284zM340 111q64 0 96.5 5.5t47 21.5t14.5 50v267q0 46 -36.5 64.5t-116.5 18.5h-119v-153h122v-101h-122v-173h114z" />
    <glyph glyph-name="Ntilde" unicode="&#xd1;" horiz-adv-x="751" 
d="M231 775q7 28 32.5 53.5t58.5 25.5q23 0 62 -15q38 -15 54 -15q28 0 41 33l41 -24q-8 -29 -33 -55.5t-58 -26.5q-23 0 -65 17q-39 16 -51 16q-28 0 -42 -33zM70 649h158l314 -443v443h139v-649h-158l-314 450v-450h-139v649z" />
    <glyph glyph-name="Ograve" unicode="&#xd2;" horiz-adv-x="728" 
d="M263.5 -3q-45.5 7 -94.5 24q-53 18 -83 58.5t-30 98.5v284q0 48 21.5 86t55.5 60q30 19 74 32t82 16q35 3 74 3q46 0 80 -3.5t76 -14.5q48 -14 79 -34t52 -56q22 -37 22 -89v-284q0 -54 -28.5 -93t-78.5 -59q-90 -36 -202 -36q-54 0 -99.5 7zM420.5 103.5
q22.5 2.5 46.5 9.5t36.5 23.5t12.5 41.5v285q0 46 -37 65.5t-115 19.5t-115 -19t-37 -66v-285q0 -25 13 -41.5t38 -23.5q24 -7 46.5 -9.5t55.5 -2.5t55.5 2.5zM198 840h159l90 -127h-124z" />
    <glyph glyph-name="Oacute" unicode="&#xd3;" horiz-adv-x="728" 
d="M263.5 -3q-45.5 7 -94.5 24q-53 18 -83 58.5t-30 98.5v284q0 48 21.5 86t55.5 60q30 19 74 32t82 16q35 3 74 3q46 0 80 -3.5t76 -14.5q48 -14 79 -34t52 -56q22 -37 22 -89v-284q0 -54 -28.5 -93t-78.5 -59q-90 -36 -202 -36q-54 0 -99.5 7zM420.5 103.5
q22.5 2.5 46.5 9.5t36.5 23.5t12.5 41.5v285q0 46 -37 65.5t-115 19.5t-115 -19t-37 -66v-285q0 -25 13 -41.5t38 -23.5q24 -7 46.5 -9.5t55.5 -2.5t55.5 2.5zM404 840h159l-125 -127h-124z" />
    <glyph glyph-name="Ocircumflex" unicode="&#xd4;" horiz-adv-x="728" 
d="M263.5 -3q-45.5 7 -94.5 24q-53 18 -83 58.5t-30 98.5v284q0 48 21.5 86t55.5 60q30 19 74 32t82 16q35 3 74 3q46 0 80 -3.5t76 -14.5q48 -14 79 -34t52 -56q22 -37 22 -89v-284q0 -54 -28.5 -93t-78.5 -59q-90 -36 -202 -36q-54 0 -99.5 7zM420.5 103.5
q22.5 2.5 46.5 9.5t36.5 23.5t12.5 41.5v285q0 46 -37 65.5t-115 19.5t-115 -19t-37 -66v-285q0 -25 13 -41.5t38 -23.5q24 -7 46.5 -9.5t55.5 -2.5t55.5 2.5zM269 840h187l58 -127h-98l-53 87l-52 -87h-98z" />
    <glyph glyph-name="Otilde" unicode="&#xd5;" horiz-adv-x="728" 
d="M263.5 -3q-45.5 7 -94.5 24q-53 18 -83 58.5t-30 98.5v284q0 48 21.5 86t55.5 60q30 19 74 32t82 16q35 3 74 3q46 0 80 -3.5t76 -14.5q48 -14 79 -34t52 -56q22 -37 22 -89v-284q0 -54 -28.5 -93t-78.5 -59q-90 -36 -202 -36q-54 0 -99.5 7zM420.5 103.5
q22.5 2.5 46.5 9.5t36.5 23.5t12.5 41.5v285q0 46 -37 65.5t-115 19.5t-115 -19t-37 -66v-285q0 -25 13 -41.5t38 -23.5q24 -7 46.5 -9.5t55.5 -2.5t55.5 2.5zM349 737l-42 20q-35 0 -36 -30h-73q1 57 30 81.5t86 24.5q29 0 66 -19t44 -19q33 0 33 35h72q-2 -114 -110 -114
q-26 0 -70 21z" />
    <glyph glyph-name="Odieresis" unicode="&#xd6;" horiz-adv-x="728" 
d="M206 848h126v-118h-126v118zM396 848h126v-118h-126v118zM263.5 -3q-45.5 7 -94.5 24q-53 18 -83 58.5t-30 98.5v284q0 48 21.5 86t55.5 60q30 19 74 32t82 16q35 3 74 3q46 0 80 -3.5t76 -14.5q48 -14 79 -34t52 -56q22 -37 22 -89v-284q0 -54 -28.5 -93t-78.5 -59
q-90 -36 -202 -36q-54 0 -99.5 7zM420.5 103.5q22.5 2.5 46.5 9.5t36.5 23.5t12.5 41.5v285q0 46 -37 65.5t-115 19.5t-115 -19t-37 -66v-285q0 -25 13 -41.5t38 -23.5q24 -7 46.5 -9.5t55.5 -2.5t55.5 2.5z" />
    <glyph glyph-name="multiply" unicode="&#xd7;" 
d="M289 242l-147 -147l-72 71l148 148l-148 148l72 71l147 -148l149 149l71 -72l-148 -148l148 -148l-71 -72z" />
    <glyph glyph-name="Oslash" unicode="&#xd8;" horiz-adv-x="728" 
d="M263.5 -3q-45.5 7 -94.5 24q-53 18 -83 58.5t-30 98.5v284q0 48 21.5 86t55.5 60q30 19 74 32t82 16q35 3 74 3q46 0 80 -3.5t76 -14.5q48 -14 79 -34t52 -56q22 -37 22 -89v-284q0 -54 -28.5 -93t-78.5 -59q-90 -36 -202 -36q-54 0 -99.5 7zM468 533q-34 15 -104 15
q-78 0 -115 -19t-37 -66v-274zM420.5 103.5q22.5 2.5 46.5 9.5t36.5 23.5t12.5 41.5v285l-260 -348q36 -14 109 -14q33 0 55.5 2.5z" />
    <glyph glyph-name="Ugrave" unicode="&#xd9;" horiz-adv-x="699" 
d="M68 178v471h156v-471q0 -44 28.5 -60.5t98.5 -16.5q69 0 96.5 16.5t27.5 60.5v471h156v-471q0 -188 -282 -188q-281 0 -281 188zM184 840h159l90 -127h-124z" />
    <glyph glyph-name="Uacute" unicode="&#xda;" horiz-adv-x="699" 
d="M68 178v471h156v-471q0 -44 28.5 -60.5t98.5 -16.5q69 0 96.5 16.5t27.5 60.5v471h156v-471q0 -188 -282 -188q-281 0 -281 188zM390 840h159l-125 -127h-124z" />
    <glyph glyph-name="Ucircumflex" unicode="&#xdb;" horiz-adv-x="699" 
d="M255 845h187l58 -127h-98l-53 87l-52 -87h-98zM68 178v471h156v-471q0 -44 28.5 -60.5t98.5 -16.5q69 0 96.5 16.5t27.5 60.5v471h156v-471q0 -188 -282 -188q-281 0 -281 188z" />
    <glyph glyph-name="Udieresis" unicode="&#xdc;" horiz-adv-x="699" 
d="M191 848h126v-118h-126v118zM381 848h126v-118h-126v118zM68 178v471h156v-471q0 -44 28.5 -60.5t98.5 -16.5q69 0 96.5 16.5t27.5 60.5v471h156v-471q0 -188 -282 -188q-281 0 -281 188z" />
    <glyph glyph-name="Yacute" unicode="&#xdd;" horiz-adv-x="644" 
d="M243 260l-235 389h177l137 -254l136 254h178l-237 -387v-262h-156v260zM362 840h159l-125 -127h-124z" />
    <glyph glyph-name="Thorn" unicode="&#xde;" horiz-adv-x="627" 
d="M70 649h156v-110h104q58 0 99 -5.5t79 -19.5q79 -31 79 -119v-124q0 -166 -275 -166h-86v-105h-156v649zM325 208q111 0 111 63v119q0 30 -23 39q-24 8 -90 8h-97v-229h99z" />
    <glyph glyph-name="germandbls" unicode="&#xdf;" horiz-adv-x="639" 
d="M64 569q0 56 18.5 83t74.5 42q55 16 167 16q127 0 181.5 -34.5t54.5 -106.5v-119q0 -27 -21 -51t-50 -33l-1 -5q38 -4 69.5 -32.5t31.5 -63.5v-120q0 -79 -63 -112t-195 -33h-54v111h54q63 0 88 11q23 11 23 45v78q0 26 -7.5 38.5t-25.5 16.5t-57 4h-75v98h50
q52 0 72 12.5t20 45.5v95q0 31 -19.5 42.5t-75.5 11.5q-72 0 -93 -9q-21 -10 -21 -45v-555h-146v569z" />
    <glyph glyph-name="agrave" unicode="&#xe0;" horiz-adv-x="564" 
d="M99.5 2.5q-33.5 12.5 -47 45t-13.5 97.5q0 58 14.5 91t47 47.5t89.5 14.5h164v33q0 31 -8.5 46t-31 21t-67.5 6q-62 0 -170 -12v92q79 10 185 10q93 0 143.5 -14t72.5 -48t22 -99v-333h-143v44q-17 -29 -46 -41q-29 -13 -110 -13q-68 0 -101.5 12.5zM321 84q14 2 19.5 6
t9.5 13q4 7 4 21v94h-100q-34 0 -48 -4.5t-19 -18t-5 -47.5q0 -33 5 -46t19.5 -17t51.5 -4q44 0 63 3zM95 680h159l90 -127h-124z" />
    <glyph glyph-name="aacute" unicode="&#xe1;" horiz-adv-x="564" 
d="M99.5 2.5q-33.5 12.5 -47 45t-13.5 97.5q0 58 14.5 91t47 47.5t89.5 14.5h164v33q0 31 -8.5 46t-31 21t-67.5 6q-62 0 -170 -12v92q79 10 185 10q93 0 143.5 -14t72.5 -48t22 -99v-333h-143v44q-17 -29 -46 -41q-29 -13 -110 -13q-68 0 -101.5 12.5zM321 84q14 2 19.5 6
t9.5 13q4 7 4 21v94h-100q-34 0 -48 -4.5t-19 -18t-5 -47.5q0 -33 5 -46t19.5 -17t51.5 -4q44 0 63 3zM317 680h159l-125 -127h-124z" />
    <glyph glyph-name="acircumflex" unicode="&#xe2;" horiz-adv-x="564" 
d="M99.5 2.5q-33.5 12.5 -47 45t-13.5 97.5q0 58 14.5 91t47 47.5t89.5 14.5h164v33q0 31 -8.5 46t-31 21t-67.5 6q-62 0 -170 -12v92q79 10 185 10q93 0 143.5 -14t72.5 -48t22 -99v-333h-143v44q-17 -29 -46 -41q-29 -13 -110 -13q-68 0 -101.5 12.5zM321 84q14 2 19.5 6
t9.5 13q4 7 4 21v94h-100q-34 0 -48 -4.5t-19 -18t-5 -47.5q0 -33 5 -46t19.5 -17t51.5 -4q44 0 63 3zM187 680h187l58 -127h-98l-53 87l-52 -87h-98z" />
    <glyph glyph-name="atilde" unicode="&#xe3;" horiz-adv-x="564" 
d="M99.5 2.5q-33.5 12.5 -47 45t-13.5 97.5q0 58 14.5 91t47 47.5t89.5 14.5h164v33q0 31 -8.5 46t-31 21t-67.5 6q-62 0 -170 -12v92q79 10 185 10q93 0 143.5 -14t72.5 -48t22 -99v-333h-143v44q-17 -29 -46 -41q-29 -13 -110 -13q-68 0 -101.5 12.5zM321 84q14 2 19.5 6
t9.5 13q4 7 4 21v94h-100q-34 0 -48 -4.5t-19 -18t-5 -47.5q0 -33 5 -46t19.5 -17t51.5 -4q44 0 63 3zM137 580q7 28 32.5 53.5t58.5 25.5q23 0 62 -15q38 -15 54 -15q27 0 41 33l41 -24q-8 -29 -33 -55.5t-58 -26.5q-23 0 -65 17q-39 16 -51 16q-29 0 -42 -33z" />
    <glyph glyph-name="adieresis" unicode="&#xe4;" horiz-adv-x="564" 
d="M124 683h126v-118h-126v118zM314 683h126v-118h-126v118zM99.5 2.5q-33.5 12.5 -47 45t-13.5 97.5q0 58 14.5 91t47 47.5t89.5 14.5h164v33q0 31 -8.5 46t-31 21t-67.5 6q-62 0 -170 -12v92q79 10 185 10q93 0 143.5 -14t72.5 -48t22 -99v-333h-143v44q-17 -29 -46 -41
q-29 -13 -110 -13q-68 0 -101.5 12.5zM321 84q14 2 19.5 6t9.5 13q4 7 4 21v94h-100q-34 0 -48 -4.5t-19 -18t-5 -47.5q0 -33 5 -46t19.5 -17t51.5 -4q44 0 63 3z" />
    <glyph glyph-name="aring" unicode="&#xe5;" horiz-adv-x="564" 
d="M222.5 555.5q-21.5 2.5 -43.5 11.5q-46 17 -46 84v12q0 28 8 48.5t21 31.5q11 10 32 16t41 7q12 1 47 1q34 0 50.5 -1t36.5 -7q21 -6 33 -16.5t21 -30.5q8 -21 8 -49v-12q0 -67 -45 -84q-23 -9 -44.5 -11.5t-59.5 -2.5t-59.5 2.5zM338 612.5q14 7.5 14 31.5v27
q0 20 -5 29t-19 12t-46 3t-46 -3t-19 -12t-5 -29v-27q0 -24 14 -31.5t56 -7.5t56 7.5zM99.5 2.5q-33.5 12.5 -47 45t-13.5 97.5q0 58 14.5 91t47 47.5t89.5 14.5h164v33q0 31 -8.5 46t-31 21t-67.5 6q-62 0 -170 -12v92q79 10 185 10q93 0 143.5 -14t72.5 -48t22 -99v-333
h-143v44q-17 -29 -46 -41q-29 -13 -110 -13q-68 0 -101.5 12.5zM321 84q14 2 19.5 6t9.5 13q4 7 4 21v94h-100q-34 0 -48 -4.5t-19 -18t-5 -47.5q0 -33 5 -46t19.5 -17t51.5 -4q44 0 63 3z" />
    <glyph glyph-name="ae" unicode="&#xe6;" horiz-adv-x="845" 
d="M99.5 2.5q-33.5 12.5 -47 45t-13.5 97.5q0 58 14.5 91t47 47.5t89.5 14.5h164v33q0 31 -8.5 46t-31 21t-67.5 6q-62 0 -170 -12v92q79 10 185 10q112 0 161 -31q52 31 155 31q114 0 166.5 -39.5t52.5 -133.5v-118h-309v-44q0 -43 29 -60.5t107 -17.5q70 0 160 21v-93
q-89 -19 -188 -19q-174 0 -222 77q-16 -31 -35 -47.5t-50.5 -23t-87.5 -6.5q-68 0 -101.5 12.5zM659 286v70q0 25 -18.5 36.5t-64.5 11.5q-53 0 -70 -12q-18 -12 -18 -36v-70h171zM321 84q14 2 19.5 6t9.5 13q4 7 4 21v94h-100q-34 0 -48 -4.5t-19 -18t-5 -47.5q0 -33 5 -46
t19.5 -17t51.5 -4q44 0 63 3z" />
    <glyph glyph-name="ccedilla" unicode="&#xe7;" horiz-adv-x="482" 
d="M177 -197l22 46q30 -18 62 -18q47 0 47 35q0 38 -75 38h-40l12 19q4 6 10 15.5t16 22.5l20 30q-44 1 -75.5 8t-61.5 23q-64 34 -64 135v161q0 66 30 110q11 16 32.5 29.5t43.5 21.5q18 6 48 10t53 5h53q56 0 147 -18v-96q-103 24 -158 24q-101 0 -101 -68v-178
q0 -77 111 -77q54 0 155 22v-96q-79 -14 -144 -16l-29 -41q44 -3 70.5 -22.5t26.5 -56.5q0 -43 -35 -67t-85 -24q-56 0 -91 23z" />
    <glyph glyph-name="egrave" unicode="&#xe8;" horiz-adv-x="559" 
d="M50 147v174q0 91 58.5 132t180.5 41q115 0 168.5 -39.5t53.5 -133.5v-118h-314v-44q0 -42 30 -60t108 -18q72 0 162 21v-93q-89 -19 -190 -19q-257 0 -257 157zM372 286v70q0 24 -19.5 36t-65.5 12q-53 0 -71 -12q-19 -13 -19 -36v-70h175zM93 680h159l90 -127h-124z" />
    <glyph glyph-name="eacute" unicode="&#xe9;" horiz-adv-x="559" 
d="M50 147v174q0 91 58.5 132t180.5 41q115 0 168.5 -39.5t53.5 -133.5v-118h-314v-44q0 -42 30 -60t108 -18q72 0 162 21v-93q-89 -19 -190 -19q-257 0 -257 157zM372 286v70q0 24 -19.5 36t-65.5 12q-53 0 -71 -12q-19 -13 -19 -36v-70h175zM315 680h159l-125 -127h-124z
" />
    <glyph glyph-name="ecircumflex" unicode="&#xea;" horiz-adv-x="559" 
d="M50 147v174q0 91 58.5 132t180.5 41q115 0 168.5 -39.5t53.5 -133.5v-118h-314v-44q0 -42 30 -60t108 -18q72 0 162 21v-93q-89 -19 -190 -19q-257 0 -257 157zM372 286v70q0 24 -19.5 36t-65.5 12q-53 0 -71 -12q-19 -13 -19 -36v-70h175zM185 680h187l58 -127h-98
l-53 87l-52 -87h-98z" />
    <glyph glyph-name="edieresis" unicode="&#xeb;" horiz-adv-x="559" 
d="M121 683h126v-118h-126v118zM311 683h126v-118h-126v118zM50 147v174q0 91 58.5 132t180.5 41q115 0 168.5 -39.5t53.5 -133.5v-118h-314v-44q0 -42 30 -60t108 -18q72 0 162 21v-93q-89 -19 -190 -19q-257 0 -257 157zM372 286v70q0 24 -19.5 36t-65.5 12q-53 0 -71 -12
q-19 -13 -19 -36v-70h175z" />
    <glyph glyph-name="igrave" unicode="&#xec;" horiz-adv-x="282" 
d="M68 484h146v-484h-146v484zM-46 680h159l90 -127h-124z" />
    <glyph glyph-name="iacute" unicode="&#xed;" horiz-adv-x="282" 
d="M68 484h146v-484h-146v484zM176 680h159l-125 -127h-124z" />
    <glyph glyph-name="icircumflex" unicode="&#xee;" horiz-adv-x="282" 
d="M47 680h187l58 -127h-98l-53 87l-52 -87h-98zM68 484h146v-484h-146v484z" />
    <glyph glyph-name="idieresis" unicode="&#xef;" horiz-adv-x="282" 
d="M-17 683h126v-118h-126v118zM173 683h126v-118h-126v118zM68 484h146v-484h-146v484z" />
    <glyph glyph-name="eth" unicode="&#xf0;" horiz-adv-x="592" 
d="M222 -7q-29 3 -62 12q-36 10 -58 28.5t-37 52.5q-15 33 -15 80v143q0 48 15 84t39 56q21 17 55.5 28.5t67.5 14.5q38 2 69 2q48 0 80 -4q-25 46 -60 94l-97 -29v67l53 16q-13 15 -60 62h142q15 -14 29 -29l97 29v-67l-50 -15q112 -139 112 -297v-155q0 -45 -14.5 -79
t-37.5 -53q-20 -17 -54.5 -27.5t-67.5 -13.5q-30 -3 -72 -3q-45 0 -74 3zM358 87.5q21 6.5 29.5 20.5t8.5 41v183q0 40 -21 56t-79 16t-79 -16t-21 -56v-183q0 -27 8.5 -41t29.5 -20.5t62 -6.5t62 6.5z" />
    <glyph glyph-name="ntilde" unicode="&#xf1;" horiz-adv-x="595" 
d="M153 610q7 28 32.5 53.5t58.5 25.5q23 0 62 -15q37 -15 54 -15q28 0 41 33l41 -24q-8 -29 -33 -55.5t-58 -26.5q-23 0 -65 17q-39 16 -51 16q-28 0 -42 -33zM64 484h144v-59q17 69 155 69q93 0 130.5 -33.5t37.5 -105.5v-355h-146v336q0 28 -5.5 42t-22 20t-50.5 6
q-43 0 -63 -5.5t-27 -19.5t-7 -43v-336h-146v484z" />
    <glyph glyph-name="ograve" unicode="&#xf2;" horiz-adv-x="592" 
d="M222 -7q-29 3 -62 12q-36 10 -58 28.5t-37 52.5q-15 33 -15 80v143q0 48 15 84t39 56q21 17 55.5 28.5t67.5 14.5q38 2 69 2q46 0 73.5 -2.5t60.5 -12.5q36 -11 58.5 -30t38.5 -54q15 -36 15 -86v-143q0 -45 -14.5 -79t-37.5 -53q-20 -17 -54.5 -27.5t-67.5 -13.5
q-30 -3 -72 -3q-45 0 -74 3zM358 87.5q21 6.5 29.5 20.5t8.5 41v183q0 40 -21 56t-79 16t-79 -16t-21 -56v-183q0 -27 8.5 -41t29.5 -20.5t62 -6.5t62 6.5zM109 680h159l90 -127h-124z" />
    <glyph glyph-name="oacute" unicode="&#xf3;" horiz-adv-x="592" 
d="M222 -7q-29 3 -62 12q-36 10 -58 28.5t-37 52.5q-15 33 -15 80v143q0 48 15 84t39 56q21 17 55.5 28.5t67.5 14.5q38 2 69 2q46 0 73.5 -2.5t60.5 -12.5q36 -11 58.5 -30t38.5 -54q15 -36 15 -86v-143q0 -45 -14.5 -79t-37.5 -53q-20 -17 -54.5 -27.5t-67.5 -13.5
q-30 -3 -72 -3q-45 0 -74 3zM358 87.5q21 6.5 29.5 20.5t8.5 41v183q0 40 -21 56t-79 16t-79 -16t-21 -56v-183q0 -27 8.5 -41t29.5 -20.5t62 -6.5t62 6.5zM331 680h159l-125 -127h-124z" />
    <glyph glyph-name="ocircumflex" unicode="&#xf4;" horiz-adv-x="592" 
d="M222 -7q-29 3 -62 12q-36 10 -58 28.5t-37 52.5q-15 33 -15 80v143q0 48 15 84t39 56q21 17 55.5 28.5t67.5 14.5q38 2 69 2q46 0 73.5 -2.5t60.5 -12.5q36 -11 58.5 -30t38.5 -54q15 -36 15 -86v-143q0 -45 -14.5 -79t-37.5 -53q-20 -17 -54.5 -27.5t-67.5 -13.5
q-30 -3 -72 -3q-45 0 -74 3zM358 87.5q21 6.5 29.5 20.5t8.5 41v183q0 40 -21 56t-79 16t-79 -16t-21 -56v-183q0 -27 8.5 -41t29.5 -20.5t62 -6.5t62 6.5zM201 680h187l58 -127h-98l-53 87l-52 -87h-98z" />
    <glyph glyph-name="otilde" unicode="&#xf5;" horiz-adv-x="592" 
d="M222 -7q-29 3 -62 12q-36 10 -58 28.5t-37 52.5q-15 33 -15 80v143q0 48 15 84t39 56q21 17 55.5 28.5t67.5 14.5q38 2 69 2q46 0 73.5 -2.5t60.5 -12.5q36 -11 58.5 -30t38.5 -54q15 -36 15 -86v-143q0 -45 -14.5 -79t-37.5 -53q-20 -17 -54.5 -27.5t-67.5 -13.5
q-30 -3 -72 -3q-45 0 -74 3zM358 87.5q21 6.5 29.5 20.5t8.5 41v183q0 40 -21 56t-79 16t-79 -16t-21 -56v-183q0 -27 8.5 -41t29.5 -20.5t62 -6.5t62 6.5zM151 580q7 28 32.5 53.5t58.5 25.5q23 0 62 -15q38 -15 54 -15q27 0 41 33l41 -24q-8 -29 -33 -55.5t-58 -26.5
q-23 0 -65 17q-39 16 -51 16q-29 0 -42 -33z" />
    <glyph glyph-name="odieresis" unicode="&#xf6;" horiz-adv-x="592" 
d="M138 683h126v-118h-126v118zM328 683h126v-118h-126v118zM222 -7q-29 3 -62 12q-36 10 -58 28.5t-37 52.5q-15 33 -15 80v143q0 48 15 84t39 56q21 17 55.5 28.5t67.5 14.5q38 2 69 2q46 0 73.5 -2.5t60.5 -12.5q36 -11 58.5 -30t38.5 -54q15 -36 15 -86v-143
q0 -45 -14.5 -79t-37.5 -53q-20 -17 -54.5 -27.5t-67.5 -13.5q-30 -3 -72 -3q-45 0 -74 3zM358 87.5q21 6.5 29.5 20.5t8.5 41v183q0 40 -21 56t-79 16t-79 -16t-21 -56v-183q0 -27 8.5 -41t29.5 -20.5t62 -6.5t62 6.5z" />
    <glyph glyph-name="divide" unicode="&#xf7;" 
d="M222 554h136v-128h-136v128zM70 365h440v-101h-440v101zM222 198h136v-128h-136v128z" />
    <glyph glyph-name="oslash" unicode="&#xf8;" horiz-adv-x="597" 
d="M224 -7q-29 3 -63 12q-36 10 -58 28.5t-37 52.5q-16 32 -16 80v143q0 48 15.5 84t39.5 56q21 17 55.5 28.5t67.5 14.5q38 2 70 2q47 0 74.5 -2.5t60.5 -12.5q36 -11 58.5 -30t38.5 -54t16 -86v-143q0 -45 -15 -79t-38 -53q-20 -17 -55 -27.5t-68 -13.5q-30 -3 -72 -3
q-45 0 -74 3zM359 404q-20 7 -61 7q-59 0 -80.5 -16t-21.5 -57v-187zM361.5 80.5q21.5 5.5 30 19.5t8.5 41v189l-161 -250q18 -5 59 -5q42 0 63.5 5.5z" />
    <glyph glyph-name="ugrave" unicode="&#xf9;" horiz-adv-x="595" 
d="M101.5 23.5q-37.5 33.5 -37.5 105.5v355h146v-335q0 -28 5.5 -42t22 -20t50.5 -6q43 0 63 5.5t27 19.5t7 43v335h146v-484h-144v59q-16 -69 -155 -69q-93 0 -130.5 33.5zM111 680h159l90 -127h-124z" />
    <glyph glyph-name="uacute" unicode="&#xfa;" horiz-adv-x="595" 
d="M101.5 23.5q-37.5 33.5 -37.5 105.5v355h146v-335q0 -28 5.5 -42t22 -20t50.5 -6q43 0 63 5.5t27 19.5t7 43v335h146v-484h-144v59q-16 -69 -155 -69q-93 0 -130.5 33.5zM333 680h159l-125 -127h-124z" />
    <glyph glyph-name="ucircumflex" unicode="&#xfb;" horiz-adv-x="595" 
d="M203 680h187l58 -127h-98l-53 87l-52 -87h-98zM101.5 23.5q-37.5 33.5 -37.5 105.5v355h146v-335q0 -28 5.5 -42t22 -20t50.5 -6q43 0 63 5.5t27 19.5t7 43v335h146v-484h-144v59q-16 -69 -155 -69q-93 0 -130.5 33.5z" />
    <glyph glyph-name="udieresis" unicode="&#xfc;" horiz-adv-x="595" 
d="M139 683h126v-118h-126v118zM329 683h126v-118h-126v118zM101.5 23.5q-37.5 33.5 -37.5 105.5v355h146v-335q0 -28 5.5 -42t22 -20t50.5 -6q43 0 63 5.5t27 19.5t7 43v335h146v-484h-144v59q-16 -69 -155 -69q-93 0 -130.5 33.5z" />
    <glyph glyph-name="yacute" unicode="&#xfd;" horiz-adv-x="534" 
d="M201 4l-193 480h159l109 -342l99 342h151l-265 -692h-148zM302 680h159l-125 -127h-124z" />
    <glyph glyph-name="thorn" unicode="&#xfe;" horiz-adv-x="613" 
d="M64 700h146v-250q32 44 156 44q63 0 101.5 -10t58.5 -32q19 -22 26 -48.5t7 -72.5v-159q0 -72 -21 -111t-64.5 -55t-118.5 -16q-72 0 -104 12t-41 47v-258h-146v909zM375 87q22 6 30 21t8 45v179q0 33 -7 47.5t-28 19.5t-69 5q-41 0 -62.5 -7t-29 -22t-7.5 -43v-179
q0 -30 7.5 -45t28.5 -21t64 -6t65 6z" />
    <glyph glyph-name="ydieresis" unicode="&#xff;" horiz-adv-x="534" 
d="M201 4l-193 480h159l109 -342l99 342h151l-265 -692h-148zM109 683h126v-118h-126v118zM299 683h126v-118h-126v118z" />
    <glyph glyph-name="Amacron" unicode="&#x100;" horiz-adv-x="668" 
d="M195 814h278v-89h-278v89zM242 649h190l234 -649h-158l-58 171h-237l-57 -171h-154zM416 275l-82 244h-4l-82 -244h168z" />
    <glyph glyph-name="amacron" unicode="&#x101;" horiz-adv-x="564" 
d="M143 649h278v-89h-278v89zM99.5 2.5q-33.5 12.5 -47 45t-13.5 97.5q0 58 14.5 91t47 47.5t89.5 14.5h164v33q0 31 -8.5 46t-31 21t-67.5 6q-62 0 -170 -12v92q79 10 185 10q93 0 143.5 -14t72.5 -48t22 -99v-333h-143v44q-17 -29 -46 -41q-29 -13 -110 -13
q-68 0 -101.5 12.5zM321 84q14 2 19.5 6t9.5 13q4 7 4 21v94h-100q-34 0 -48 -4.5t-19 -18t-5 -47.5q0 -33 5 -46t19.5 -17t51.5 -4q44 0 63 3z" />
    <glyph glyph-name="Abreve" unicode="&#x102;" horiz-adv-x="668" 
d="M242 649h190l234 -649h-158l-58 171h-237l-57 -171h-154zM416 275l-82 244h-4l-82 -244h168zM236 747.5q-37 34.5 -40 92.5h81q6 -30 18.5 -42.5t38.5 -12.5q50 0 56 55h82q-4 -58 -41 -92.5t-97 -34.5q-61 0 -98 34.5z" />
    <glyph glyph-name="abreve" unicode="&#x103;" horiz-adv-x="564" 
d="M99.5 2.5q-33.5 12.5 -47 45t-13.5 97.5q0 58 14.5 91t47 47.5t89.5 14.5h164v33q0 31 -8.5 46t-31 21t-67.5 6q-62 0 -170 -12v92q79 10 185 10q93 0 143.5 -14t72.5 -48t22 -99v-333h-143v44q-17 -29 -46 -41q-29 -13 -110 -13q-68 0 -101.5 12.5zM321 84q14 2 19.5 6
t9.5 13q4 7 4 21v94h-100q-34 0 -48 -4.5t-19 -18t-5 -47.5q0 -33 5 -46t19.5 -17t51.5 -4q44 0 63 3zM184 587.5q-37 34.5 -40 92.5h81q6 -30 18.5 -42.5t38.5 -12.5q50 0 56 55h82q-4 -58 -41 -92.5t-97 -34.5q-61 0 -98 34.5z" />
    <glyph glyph-name="Aogonek" unicode="&#x104;" horiz-adv-x="668" 
d="M509.5 -165q-26.5 21 -26.5 59q0 59 25 106l-58 171h-237l-57 -171h-154l240 649h190l234 -649q-71 -26 -71 -86q0 -29 27 -29q12 0 30 6v-67q-20 -10 -70 -10q-46 0 -72.5 21zM416 275l-82 244h-4l-82 -244h168z" />
    <glyph glyph-name="aogonek" unicode="&#x105;" horiz-adv-x="564" 
d="M371 -167q-24 19 -24 61q0 16 5 56q5 38 5 50v44q-17 -29 -46 -41q-29 -13 -110 -13q-68 0 -101.5 12.5t-47 45t-13.5 97.5q0 58 14.5 91t47 47.5t89.5 14.5h164v33q0 31 -8.5 46t-31 21t-67.5 6q-62 0 -170 -12v92q79 10 185 10q93 0 143.5 -14t72.5 -48t22 -99v-333
q-28 -24 -40 -42.5t-12 -40.5q0 -16 8.5 -24t29.5 -8q12 0 30 6v-67q-20 -10 -70 -10q-51 0 -75 19zM321 84q14 2 19.5 6t9.5 13q4 7 4 21v94h-100q-34 0 -48 -4.5t-19 -18t-5 -47.5q0 -33 5 -46t19.5 -17t51.5 -4q44 0 63 3z" />
    <glyph glyph-name="Cacute" unicode="&#x106;" horiz-adv-x="597" 
d="M324 845h159l-125 -127h-124zM278.5 -6q-34.5 4 -75.5 15q-46 12 -76 31.5t-50 54.5q-21 35 -21 83v285q0 196 301 196q77 0 206 -22v-117q-116 28 -204 28q-37 0 -57.5 -2t-42.5 -10q-47 -16 -47 -71v-276q0 -88 161 -88q69 0 194 29v-118q-107 -22 -210 -22
q-44 0 -78.5 4z" />
    <glyph glyph-name="cacute" unicode="&#x107;" horiz-adv-x="482" 
d="M266 680h159l-125 -127h-124zM240 -8.5q-22 1.5 -54 5.5t-52.5 14t-42.5 30q-41 34 -41 116v161q0 66 30 110q11 16 32.5 29.5t43.5 21.5q18 6 48 10t53 5h53q56 0 147 -18v-96q-103 24 -158 24q-101 0 -101 -68v-178q0 -77 111 -77q54 0 155 22v-96q-91 -17 -164 -17
q-38 0 -60 1.5z" />
    <glyph glyph-name="Ccircumflex" unicode="&#x108;" horiz-adv-x="597" 
d="M244 845h187l58 -127h-98l-53 87l-52 -87h-98zM278.5 -6q-34.5 4 -75.5 15q-46 12 -76 31.5t-50 54.5q-21 35 -21 83v285q0 196 301 196q77 0 206 -22v-117q-116 28 -204 28q-37 0 -57.5 -2t-42.5 -10q-47 -16 -47 -71v-276q0 -88 161 -88q69 0 194 29v-118
q-107 -22 -210 -22q-44 0 -78.5 4z" />
    <glyph glyph-name="ccircumflex" unicode="&#x109;" horiz-adv-x="482" 
d="M186 680h187l58 -127h-98l-53 87l-52 -87h-98zM240 -8.5q-22 1.5 -54 5.5t-52.5 14t-42.5 30q-41 34 -41 116v161q0 66 30 110q11 16 32.5 29.5t43.5 21.5q18 6 48 10t53 5h53q56 0 147 -18v-96q-103 24 -158 24q-101 0 -101 -68v-178q0 -77 111 -77q54 0 155 22v-96
q-91 -17 -164 -17q-38 0 -60 1.5z" />
    <glyph glyph-name="Cdotaccent" unicode="&#x10a;" horiz-adv-x="597" 
d="M265 845h146v-115h-146v115zM278.5 -6q-34.5 4 -75.5 15q-46 12 -76 31.5t-50 54.5q-21 35 -21 83v285q0 196 301 196q77 0 206 -22v-117q-116 28 -204 28q-37 0 -57.5 -2t-42.5 -10q-47 -16 -47 -71v-276q0 -88 161 -88q69 0 194 29v-118q-107 -22 -210 -22
q-44 0 -78.5 4z" />
    <glyph glyph-name="cdotaccent" unicode="&#x10b;" horiz-adv-x="482" 
d="M208 680h146v-115h-146v115zM240 -8.5q-22 1.5 -54 5.5t-52.5 14t-42.5 30q-41 34 -41 116v161q0 66 30 110q11 16 32.5 29.5t43.5 21.5q18 6 48 10t53 5h53q56 0 147 -18v-96q-103 24 -158 24q-101 0 -101 -68v-178q0 -77 111 -77q54 0 155 22v-96q-91 -17 -164 -17
q-38 0 -60 1.5z" />
    <glyph glyph-name="Ccaron" unicode="&#x10c;" horiz-adv-x="597" 
d="M188 845h98l53 -87l52 87h98l-56 -127h-187zM278.5 -6q-34.5 4 -75.5 15q-46 12 -76 31.5t-50 54.5q-21 35 -21 83v285q0 196 301 196q77 0 206 -22v-117q-116 28 -204 28q-37 0 -57.5 -2t-42.5 -10q-47 -16 -47 -71v-276q0 -88 161 -88q69 0 194 29v-118
q-107 -22 -210 -22q-44 0 -78.5 4z" />
    <glyph glyph-name="ccaron" unicode="&#x10d;" horiz-adv-x="482" 
d="M130 680h98l53 -87l52 87h98l-56 -127h-187zM240 -8.5q-22 1.5 -54 5.5t-52.5 14t-42.5 30q-41 34 -41 116v161q0 66 30 110q11 16 32.5 29.5t43.5 21.5q18 6 48 10t53 5h53q56 0 147 -18v-96q-103 24 -158 24q-101 0 -101 -68v-178q0 -77 111 -77q54 0 155 22v-96
q-91 -17 -164 -17q-38 0 -60 1.5z" />
    <glyph glyph-name="Dcaron" unicode="&#x10e;" horiz-adv-x="710" 
d="M204 845h98l53 -87l52 87h98l-56 -127h-187zM70 649h276q114 0 180 -17.5t97 -60.5t31 -119v-264q0 -74 -29 -114.5t-95 -57t-183 -16.5h-277v649zM340 111q64 0 96.5 5.5t47 21.5t14.5 50v267q0 46 -36.5 64.5t-116.5 18.5h-119v-427h114z" />
    <glyph glyph-name="dcaron" unicode="&#x10f;" horiz-adv-x="700" 
d="M123 2.5q-41 12.5 -57 47.5t-16 109v189q0 80 45.5 113t147.5 33q48 0 75.5 -5.5t44.5 -19t35 -39.5v270h146v-700h-141v55q-18 -29 -32.5 -40.5t-40.5 -17.5q-27 -7 -80 -7q-86 0 -127 12.5zM605 700h134l-64 -163h-96zM359 86q23 5 31 18.5t8 40.5v195q0 25 -8.5 38.5
t-30 19.5t-64.5 6q-46 0 -66 -5.5t-26.5 -19t-6.5 -44.5v-185q0 -28 6.5 -42.5t25.5 -20.5t59 -6q49 0 72 5z" />
    <glyph glyph-name="Dcroat" unicode="&#x110;" horiz-adv-x="677" 
d="M70 284h-60v101h60v264h276q114 0 180 -17.5t97 -60.5t31 -119v-264q0 -74 -29 -114.5t-95 -57t-183 -16.5h-277v284zM340 111q64 0 96.5 5.5t47 21.5t14.5 50v267q0 46 -36.5 64.5t-116.5 18.5h-119v-153h122v-101h-122v-173h114z" />
    <glyph glyph-name="dcroat" unicode="&#x111;" horiz-adv-x="608" 
d="M589 553h-45v-553h-141v55q-18 -29 -32.5 -40.5t-40.5 -17.5q-27 -7 -80 -7q-86 0 -127 12.5t-57 47.5t-16 109v189q0 80 45.5 113t147.5 33q48 0 75.5 -5.5t44.5 -19t35 -39.5v123h-148v87h148v60h146v-60h45v-87zM398 340q0 25 -8.5 38.5t-30 19.5t-64.5 6
q-46 0 -66 -5.5t-26.5 -19t-6.5 -44.5v-185q0 -28 6.5 -42.5t25.5 -20.5t59 -6q49 0 72 5t31 18.5t8 40.5v195z" />
    <glyph glyph-name="Emacron" unicode="&#x112;" horiz-adv-x="610" 
d="M166 814h278v-89h-278v89zM70 649h495v-111h-339v-149h306v-111h-306v-167h349v-111h-505v649z" />
    <glyph glyph-name="emacron" unicode="&#x113;" horiz-adv-x="559" 
d="M140 649h278v-89h-278v89zM50 147v174q0 91 58.5 132t180.5 41q115 0 168.5 -39.5t53.5 -133.5v-118h-314v-44q0 -42 30 -60t108 -18q72 0 162 21v-93q-89 -19 -190 -19q-257 0 -257 157zM372 286v70q0 24 -19.5 36t-65.5 12q-53 0 -71 -12q-19 -13 -19 -36v-70h175z" />
    <glyph glyph-name="Ebreve" unicode="&#x114;" horiz-adv-x="610" 
d="M235 752.5q-37 34.5 -40 92.5h81q6 -30 18.5 -42.5t38.5 -12.5q50 0 56 55h82q-4 -58 -41 -92.5t-97 -34.5q-61 0 -98 34.5zM70 649h495v-111h-339v-149h306v-111h-306v-167h349v-111h-505v649z" />
    <glyph glyph-name="ebreve" unicode="&#x115;" horiz-adv-x="559" 
d="M186 587.5q-37 34.5 -40 92.5h81q6 -30 18.5 -42.5t38.5 -12.5q50 0 56 55h82q-4 -58 -41 -92.5t-97 -34.5q-61 0 -98 34.5zM50 147v174q0 91 58.5 132t180.5 41q115 0 168.5 -39.5t53.5 -133.5v-118h-314v-44q0 -42 30 -60t108 -18q72 0 162 21v-93q-89 -19 -190 -19
q-257 0 -257 157zM372 286v70q0 24 -19.5 36t-65.5 12q-53 0 -71 -12q-19 -13 -19 -36v-70h175z" />
    <glyph glyph-name="Edotaccent" unicode="&#x116;" horiz-adv-x="610" 
d="M252 845h146v-115h-146v115zM70 649h495v-111h-339v-149h306v-111h-306v-167h349v-111h-505v649z" />
    <glyph glyph-name="edotaccent" unicode="&#x117;" horiz-adv-x="559" 
d="M216 680h146v-115h-146v115zM50 147v174q0 91 58.5 132t180.5 41q115 0 168.5 -39.5t53.5 -133.5v-118h-314v-44q0 -42 30 -60t108 -18q72 0 162 21v-93q-89 -19 -190 -19q-257 0 -257 157zM372 286v70q0 24 -19.5 36t-65.5 12q-53 0 -71 -12q-19 -13 -19 -36v-70h175z
" />
    <glyph glyph-name="Eogonek" unicode="&#x118;" horiz-adv-x="610" 
d="M537 0q-30 -47 -30 -83q0 -16 8.5 -24t29.5 -8q12 0 30 6v-67q-20 -10 -70 -10t-74.5 19t-24.5 61q0 50 36 106h-372v649h495v-111h-339v-149h306v-111h-306v-167h349v-111h-38z" />
    <glyph glyph-name="eogonek" unicode="&#x119;" horiz-adv-x="559" 
d="M366.5 -167q-24.5 19 -24.5 61q0 46 30 97q-12 -1 -65 -1q-257 0 -257 157v174q0 91 58.5 132t180.5 41q115 0 168.5 -39.5t53.5 -133.5v-118h-314v-44q0 -42 30 -60t108 -18q72 0 162 21v-93l-34 -7q-20 -42 -20 -85q0 -16 8.5 -24t29.5 -8q12 0 30 6v-67
q-20 -10 -70 -10t-74.5 19zM372 286v70q0 24 -19.5 36t-65.5 12q-53 0 -71 -12q-19 -13 -19 -36v-70h175z" />
    <glyph glyph-name="Ecaron" unicode="&#x11a;" horiz-adv-x="610" 
d="M172 845h98l53 -87l52 87h98l-56 -127h-187zM70 649h495v-111h-339v-149h306v-111h-306v-167h349v-111h-505v649z" />
    <glyph glyph-name="ecaron" unicode="&#x11b;" horiz-adv-x="559" 
d="M129 680h98l53 -87l52 87h98l-56 -127h-187zM50 147v174q0 91 58.5 132t180.5 41q115 0 168.5 -39.5t53.5 -133.5v-118h-314v-44q0 -42 30 -60t108 -18q72 0 162 21v-93q-89 -19 -190 -19q-257 0 -257 157zM372 286v70q0 24 -19.5 36t-65.5 12q-53 0 -71 -12
q-19 -13 -19 -36v-70h175z" />
    <glyph glyph-name="Gcircumflex" unicode="&#x11c;" horiz-adv-x="641" 
d="M248 830h187l58 -127h-98l-53 87l-52 -87h-98zM281 -6q-36 4 -78 15q-47 12 -78.5 31.5t-52.5 54.5q-22 34 -22 83v285q0 48 21.5 86.5t56.5 59.5q30 19 75 32t84 16q34 3 74 3q97 0 226 -22v-111q-116 28 -224 28q-32 0 -49.5 -1t-39.5 -6q-25 -6 -39.5 -13.5
t-24.5 -23.5q-11 -17 -11 -39v-291q0 -25 16.5 -43.5t45.5 -27.5q52 -17 116 -17q22 0 75 5v169h-126v102h265v-357q-107 -22 -230 -22q-44 0 -80 4z" />
    <glyph glyph-name="gcircumflex" unicode="&#x11d;" horiz-adv-x="608" 
d="M209 680h187l58 -127h-98l-53 87l-52 -87h-98zM85 -213v98q94 -13 175 -13q74 0 106 24t32 80v78q-18 -26 -35 -39.5t-44.5 -19t-75.5 -5.5q-71 0 -113 13.5t-61 45t-19 87.5v189q0 67 17.5 103t60 51t122.5 15q52 0 80 -6q27 -6 41 -18t32 -41v55h141v-510
q0 -103 -70.5 -148.5t-213.5 -45.5q-118 0 -175 7zM359.5 87q21.5 6 30 19.5t8.5 38.5v195q0 27 -8 40.5t-31 18.5t-72 5q-40 0 -59 -6t-25.5 -20.5t-6.5 -42.5v-185q0 -31 6.5 -44.5t26.5 -19t66 -5.5q43 0 64.5 6z" />
    <glyph glyph-name="Gbreve" unicode="&#x11e;" horiz-adv-x="641" 
d="M259 738q-34 35 -37 92h68q6 -31 18.5 -44.5t38.5 -13.5q50 0 56 58h68q-4 -58 -37 -92.5t-87 -34.5t-88 35zM281 -6q-36 4 -78 15q-47 12 -78.5 31.5t-52.5 54.5q-22 34 -22 83v285q0 48 21.5 86.5t56.5 59.5q30 19 75 32t84 16q34 3 74 3q97 0 226 -22v-111
q-116 28 -224 28q-32 0 -49.5 -1t-39.5 -6q-25 -6 -39.5 -13.5t-24.5 -23.5q-11 -17 -11 -39v-291q0 -25 16.5 -43.5t45.5 -27.5q52 -17 116 -17q22 0 75 5v169h-126v102h265v-357q-107 -22 -230 -22q-44 0 -80 4z" />
    <glyph glyph-name="gbreve" unicode="&#x11f;" horiz-adv-x="608" 
d="M206 587.5q-37 34.5 -40 92.5h81q6 -30 18.5 -42.5t38.5 -12.5q50 0 56 55h82q-4 -58 -41 -92.5t-97 -34.5q-61 0 -98 34.5zM85 -213v98q94 -13 175 -13q74 0 106 24t32 80v78q-18 -26 -35 -39.5t-44.5 -19t-75.5 -5.5q-71 0 -113 13.5t-61 45t-19 87.5v189
q0 67 17.5 103t60 51t122.5 15q52 0 80 -6q27 -6 41 -18t32 -41v55h141v-510q0 -103 -70.5 -148.5t-213.5 -45.5q-118 0 -175 7zM359.5 87q21.5 6 30 19.5t8.5 38.5v195q0 27 -8 40.5t-31 18.5t-72 5q-40 0 -59 -6t-25.5 -20.5t-6.5 -42.5v-185q0 -31 6.5 -44.5t26.5 -19
t66 -5.5q43 0 64.5 6z" />
    <glyph glyph-name="Gdotaccent" unicode="&#x120;" horiz-adv-x="641" 
d="M286 830h146v-115h-146v115zM281 -6q-36 4 -78 15q-47 12 -78.5 31.5t-52.5 54.5q-22 34 -22 83v285q0 48 21.5 86.5t56.5 59.5q30 19 75 32t84 16q34 3 74 3q97 0 226 -22v-111q-116 28 -224 28q-32 0 -49.5 -1t-39.5 -6q-25 -6 -39.5 -13.5t-24.5 -23.5
q-11 -17 -11 -39v-291q0 -25 16.5 -43.5t45.5 -27.5q52 -17 116 -17q22 0 75 5v169h-126v102h265v-357q-107 -22 -230 -22q-44 0 -80 4z" />
    <glyph glyph-name="gdotaccent" unicode="&#x121;" horiz-adv-x="608" 
d="M231 680h146v-115h-146v115zM85 -213v98q94 -13 175 -13q74 0 106 24t32 80v78q-18 -26 -35 -39.5t-44.5 -19t-75.5 -5.5q-71 0 -113 13.5t-61 45t-19 87.5v189q0 67 17.5 103t60 51t122.5 15q52 0 80 -6q27 -6 41 -18t32 -41v55h141v-510q0 -103 -70.5 -148.5
t-213.5 -45.5q-118 0 -175 7zM359.5 87q21.5 6 30 19.5t8.5 38.5v195q0 27 -8 40.5t-31 18.5t-72 5q-40 0 -59 -6t-25.5 -20.5t-6.5 -42.5v-185q0 -31 6.5 -44.5t26.5 -19t66 -5.5q43 0 64.5 6z" />
    <glyph glyph-name="Gcommaaccent" unicode="&#x122;" horiz-adv-x="705" 
d="M280 -5q-43 5 -85 17q-45 12 -74 32.5t-47 53.5q-18 35 -18 80v270q0 49 20 88.5t54 62.5q32 21 76.5 36t87.5 20q36 4 87 4q138 0 264 -21v-118q-116 28 -264 28q-169 0 -169 -98v-261q0 -48 45.5 -68t137.5 -20q49 0 105 15v151h-106v102h255v-337q-50 -18 -127.5 -30
t-142.5 -12q-56 0 -99 5zM309 -46h133l-83 -162h-96z" />
    <glyph glyph-name="gcommaaccent" unicode="&#x123;" horiz-adv-x="608" 
d="M298 700h96l-46 -162h-133zM85 -213v98q94 -13 175 -13q74 0 106 24t32 80v78q-18 -26 -35 -39.5t-44.5 -19t-75.5 -5.5q-71 0 -113 13.5t-61 45t-19 87.5v189q0 67 17.5 103t60 51t122.5 15q52 0 80 -6q27 -6 41 -18t32 -41v55h141v-510q0 -103 -70.5 -148.5
t-213.5 -45.5q-118 0 -175 7zM359.5 87q21.5 6 30 19.5t8.5 38.5v195q0 27 -8 40.5t-31 18.5t-72 5q-40 0 -59 -6t-25.5 -20.5t-6.5 -42.5v-185q0 -31 6.5 -44.5t26.5 -19t66 -5.5q43 0 64.5 6z" />
    <glyph glyph-name="Hcircumflex" unicode="&#x124;" horiz-adv-x="728" 
d="M269 845h187l58 -127h-98l-53 87l-52 -87h-98zM70 649h156v-260h276v260h156v-649h-156v278h-276v-278h-156v649z" />
    <glyph glyph-name="hcircumflex" unicode="&#x125;" horiz-adv-x="595" 
d="M37 871h187l58 -127h-98l-53 87l-52 -87h-98zM64 700h146v-275q14 69 153 69q93 0 130.5 -33.5t37.5 -105.5v-355h-146v338q0 28 -5.5 41.5t-21.5 19t-51 5.5q-43 0 -63 -5t-27 -18.5t-7 -42.5v-338h-146v700z" />
    <glyph glyph-name="Hbar" unicode="&#x126;" horiz-adv-x="728" 
d="M70 649h156v-164h276v164h156v-649h-156v208h-276v-208h-156v649zM502 310v73h-276v-73h276z" />
    <glyph glyph-name="hbar" unicode="&#x127;" horiz-adv-x="595" 
d="M64 553h-45v87h45v60h146v-60h148v-87h-148v-128q14 69 153 69q93 0 130.5 -33.5t37.5 -105.5v-355h-146v338q0 28 -5.5 41.5t-21.5 19t-51 5.5q-43 0 -63 -5t-27 -18.5t-7 -42.5v-338h-146v553z" />
    <glyph glyph-name="Itilde" unicode="&#x128;" horiz-adv-x="296" 
d="M70 649h156v-649h-156v649zM133 737l-42 20q-35 0 -36 -30h-73q1 57 30 81.5t86 24.5q29 0 66 -19t44 -19q33 0 33 35h72q-2 -114 -110 -114q-26 0 -70 21z" />
    <glyph glyph-name="itilde" unicode="&#x129;" horiz-adv-x="282" 
d="M68 484h146v-484h-146v484zM-4 580q7 28 32.5 53.5t58.5 25.5q23 0 62 -15q38 -15 54 -15q27 0 41 33l41 -24q-8 -29 -33 -55.5t-58 -26.5q-23 0 -65 17q-39 16 -51 16q-29 0 -42 -33z" />
    <glyph glyph-name="Imacron" unicode="&#x12a;" horiz-adv-x="296" 
d="M9 814h278v-89h-278v89zM70 649h156v-649h-156v649z" />
    <glyph glyph-name="imacron" unicode="&#x12b;" horiz-adv-x="282" 
d="M2 649h278v-89h-278v89zM68 484h146v-484h-146v484z" />
    <glyph glyph-name="Ibreve" unicode="&#x12c;" horiz-adv-x="296" 
d="M50 752.5q-37 34.5 -40 92.5h81q6 -30 18.5 -42.5t38.5 -12.5q50 0 56 55h82q-4 -58 -41 -92.5t-97 -34.5q-61 0 -98 34.5zM70 649h156v-649h-156v649z" />
    <glyph glyph-name="ibreve" unicode="&#x12d;" horiz-adv-x="282" 
d="M43 587.5q-37 34.5 -40 92.5h81q6 -30 18.5 -42.5t38.5 -12.5q50 0 56 55h82q-4 -58 -41 -92.5t-97 -34.5q-61 0 -98 34.5zM68 484h146v-484h-146v484z" />
    <glyph glyph-name="Iogonek" unicode="&#x12e;" horiz-adv-x="296" 
d="M63.5 -167q-24.5 19 -24.5 61q0 59 31 106v649h156v-649q-35 -12 -60.5 -36t-25.5 -47q0 -16 8.5 -24t29.5 -8q12 0 30 6v-67q-20 -10 -70 -10t-74.5 19z" />
    <glyph glyph-name="iogonek" unicode="&#x12f;" horiz-adv-x="286" 
d="M41 -106q0 60 29 106v484h146v-484q-64 -33 -64 -83q0 -16 8.5 -24t29.5 -8q12 0 30 6v-67q-20 -10 -70 -10q-109 0 -109 80z" />
    <glyph glyph-name="Idotaccent" unicode="&#x130;" horiz-adv-x="296" 
d="M75 845h146v-115h-146v115zM70 649h156v-649h-156v649z" />
    <glyph glyph-name="dotlessi" unicode="&#x131;" horiz-adv-x="282" 
d="M68 484h146v-484h-146v484z" />
    <glyph glyph-name="IJ" unicode="&#x132;" horiz-adv-x="741" 
d="M70 649h156v-649h-156v649zM315 0v114q71 -13 123 -13q79 0 79 71v477h156v-472q0 -102 -55 -144.5t-168 -42.5q-68 0 -135 10z" />
    <glyph glyph-name="ij" unicode="&#x133;" horiz-adv-x="556" 
d="M68 659h146v-118h-146v118zM346 659h146v-118h-146v118zM68 484h146v-484h-146v484zM244 -218v95q4 -1 18 -1q38 0 55 5.5t23 22.5t6 56v524h146v-557q0 -83 -48.5 -115t-152.5 -32z" />
    <glyph glyph-name="Jcircumflex" unicode="&#x134;" horiz-adv-x="445" 
d="M204 845h187l58 -127h-98l-53 87l-52 -87h-98zM19 0v114q71 -13 123 -13q79 0 79 71v477h156v-472q0 -102 -55 -144.5t-168 -42.5q-68 0 -135 10z" />
    <glyph glyph-name="jcircumflex" unicode="&#x135;" horiz-adv-x="274" 
d="M43 680h187l58 -127h-98l-53 87l-52 -87h-98zM-38 -218v95q4 -1 18 -1q38 0 55 5.5t23 22.5t6 56v524h146v-557q0 -83 -48.5 -115t-152.5 -32z" />
    <glyph glyph-name="Kcommaaccent" unicode="&#x136;" horiz-adv-x="682" 
d="M70 649h156v-649h-156v649zM230 344l243 305h183l-246 -302l273 -347h-190zM297 -46h133l-83 -162h-96z" />
    <glyph glyph-name="kcommaaccent" unicode="&#x137;" horiz-adv-x="540" 
d="M64 700h146v-700h-146v700zM216 272l159 212h167l-168 -211l182 -273h-165zM226 -46h133l-83 -162h-96z" />
    <glyph glyph-name="kgreenlandic" unicode="&#x138;" horiz-adv-x="540" 
d="M64 484h146v-484h-146v484zM216 262l159 222h167l-168 -221l182 -263h-165z" />
    <glyph glyph-name="Lacute" unicode="&#x139;" 
d="M182 845h159l-125 -127h-124zM70 649h156v-538h319v-111h-475v649z" />
    <glyph glyph-name="lacute" unicode="&#x13a;" horiz-adv-x="282" 
d="M169 874h159l-125 -127h-124zM68 700h146v-700h-146v700z" />
    <glyph glyph-name="Lcommaaccent" unicode="&#x13b;" 
d="M70 649h156v-538h319v-111h-475v649zM246 -46h133l-83 -162h-96z" />
    <glyph glyph-name="lcommaaccent" unicode="&#x13c;" horiz-adv-x="282" 
d="M68 700h146v-700h-146v700zM78 -46h133l-83 -162h-96z" />
    <glyph glyph-name="Lcaron" unicode="&#x13d;" 
d="M70 649h156v-538h319v-111h-475v649zM283 649h134l-64 -163h-96z" />
    <glyph glyph-name="lcaron" unicode="&#x13e;" horiz-adv-x="364" 
d="M68 700h146v-700h-146v700zM269 700h134l-64 -163h-96z" />
    <glyph glyph-name="Ldot" unicode="&#x13f;" 
d="M70 649h156v-538h319v-111h-475v649zM273 403h147v-138h-147v138z" />
    <glyph glyph-name="ldot" unicode="&#x140;" horiz-adv-x="393" 
d="M68 700h146v-700h-146v700zM256 400h147v-138h-147v138z" />
    <glyph glyph-name="Lslash" unicode="&#x141;" 
d="M70 240l-60 -17v105l60 17v304h156v-259l130 38v-105l-130 -38v-174h319v-111h-475v240z" />
    <glyph glyph-name="lslash" unicode="&#x142;" horiz-adv-x="282" 
d="M68 305l-58 -22v101l58 22v294h146v-238l58 22v-101l-58 -22v-361h-146v305z" />
    <glyph glyph-name="Nacute" unicode="&#x143;" horiz-adv-x="751" 
d="M341 845h159l-125 -127h-124zM70 649h158l314 -443v443h139v-649h-158l-314 450v-450h-139v649z" />
    <glyph glyph-name="nacute" unicode="&#x144;" horiz-adv-x="595" 
d="M263 680h159l-125 -127h-124zM64 484h144v-59q17 69 155 69q93 0 130.5 -33.5t37.5 -105.5v-355h-146v336q0 28 -5.5 42t-22 20t-50.5 6q-43 0 -63 -5.5t-27 -19.5t-7 -43v-336h-146v484z" />
    <glyph glyph-name="Ncommaaccent" unicode="&#x145;" horiz-adv-x="751" 
d="M70 649h158l314 -443v443h139v-649h-158l-314 450v-450h-139v649zM332 -46h133l-83 -162h-96z" />
    <glyph glyph-name="ncommaaccent" unicode="&#x146;" horiz-adv-x="595" 
d="M64 484h144v-59q17 69 155 69q93 0 130.5 -33.5t37.5 -105.5v-355h-146v336q0 28 -5.5 42t-22 20t-50.5 6q-43 0 -63 -5.5t-27 -19.5t-7 -43v-336h-146v484zM254 -46h133l-83 -162h-96z" />
    <glyph glyph-name="Ncaron" unicode="&#x147;" horiz-adv-x="751" 
d="M218 830h98l53 -87l52 87h98l-56 -127h-187zM70 649h158l314 -443v443h139v-649h-158l-314 450v-450h-139v649z" />
    <glyph glyph-name="ncaron" unicode="&#x148;" horiz-adv-x="595" 
d="M147 680h98l53 -87l52 87h98l-56 -127h-187zM64 484h144v-59q17 69 155 69q93 0 130.5 -33.5t37.5 -105.5v-355h-146v336q0 28 -5.5 42t-22 20t-50.5 6q-43 0 -63 -5.5t-27 -19.5t-7 -43v-336h-146v484z" />
    <glyph glyph-name="napostrophe" unicode="&#x149;" horiz-adv-x="595" 
d="M111 700h134l-64 -163h-96zM64 484h144v-59q17 69 155 69q93 0 130.5 -33.5t37.5 -105.5v-355h-146v336q0 28 -5.5 42t-22 20t-50.5 6q-43 0 -63 -5.5t-27 -19.5t-7 -43v-336h-146v484z" />
    <glyph glyph-name="Eng" unicode="&#x14a;" horiz-adv-x="751" 
d="M422 -175v89q20 -5 52 -5q28 0 39.5 18t11.5 66v7l-316 450v-450h-139v649h158l314 -443v443h139v-681q0 -38 -8 -66t-22 -44q-12 -15 -34 -24t-47 -11q-22 -3 -57 -3q-63 0 -91 5z" />
    <glyph glyph-name="eng" unicode="&#x14b;" horiz-adv-x="573" 
d="M302 -215v89q20 -5 32 -5q28 0 39.5 18t11.5 66v384q0 28 -5.5 41.5t-21.5 19t-51 5.5q-43 0 -63 -5t-27 -18.5t-7 -42.5v-337h-146v484h146v-59q14 69 153 69q93 0 130.5 -33.5t37.5 -105.5v-427q0 -38 -8 -66t-22 -44q-12 -15 -34 -24t-47 -11q-22 -3 -57 -3
q-33 0 -61 5z" />
    <glyph glyph-name="Omacron" unicode="&#x14c;" horiz-adv-x="728" 
d="M225 814h278v-89h-278v89zM263.5 -3q-45.5 7 -94.5 24q-53 18 -83 58.5t-30 98.5v284q0 48 21.5 86t55.5 60q30 19 74 32t82 16q35 3 74 3q46 0 80 -3.5t76 -14.5q48 -14 79 -34t52 -56q22 -37 22 -89v-284q0 -54 -28.5 -93t-78.5 -59q-90 -36 -202 -36q-54 0 -99.5 7z
M420.5 103.5q22.5 2.5 46.5 9.5t36.5 23.5t12.5 41.5v285q0 46 -37 65.5t-115 19.5t-115 -19t-37 -66v-285q0 -25 13 -41.5t38 -23.5q24 -7 46.5 -9.5t55.5 -2.5t55.5 2.5z" />
    <glyph glyph-name="omacron" unicode="&#x14d;" horiz-adv-x="592" 
d="M157 649h278v-89h-278v89zM222 -7q-29 3 -62 12q-36 10 -58 28.5t-37 52.5q-15 33 -15 80v143q0 48 15 84t39 56q21 17 55.5 28.5t67.5 14.5q38 2 69 2q46 0 73.5 -2.5t60.5 -12.5q36 -11 58.5 -30t38.5 -54q15 -36 15 -86v-143q0 -45 -14.5 -79t-37.5 -53
q-20 -17 -54.5 -27.5t-67.5 -13.5q-30 -3 -72 -3q-45 0 -74 3zM358 87.5q21 6.5 29.5 20.5t8.5 41v183q0 40 -21 56t-79 16t-79 -16t-21 -56v-183q0 -27 8.5 -41t29.5 -20.5t62 -6.5t62 6.5z" />
    <glyph glyph-name="Obreve" unicode="&#x14e;" horiz-adv-x="728" 
d="M266 752.5q-37 34.5 -40 92.5h81q6 -30 18.5 -42.5t38.5 -12.5q50 0 56 55h82q-4 -58 -41 -92.5t-97 -34.5q-61 0 -98 34.5zM263.5 -3q-45.5 7 -94.5 24q-53 18 -83 58.5t-30 98.5v284q0 48 21.5 86t55.5 60q30 19 74 32t82 16q35 3 74 3q46 0 80 -3.5t76 -14.5
q48 -14 79 -34t52 -56q22 -37 22 -89v-284q0 -54 -28.5 -93t-78.5 -59q-90 -36 -202 -36q-54 0 -99.5 7zM420.5 103.5q22.5 2.5 46.5 9.5t36.5 23.5t12.5 41.5v285q0 46 -37 65.5t-115 19.5t-115 -19t-37 -66v-285q0 -25 13 -41.5t38 -23.5q24 -7 46.5 -9.5t55.5 -2.5
t55.5 2.5z" />
    <glyph glyph-name="obreve" unicode="&#x14f;" horiz-adv-x="592" 
d="M198 587.5q-37 34.5 -40 92.5h81q6 -30 18.5 -42.5t38.5 -12.5q50 0 56 55h82q-4 -58 -41 -92.5t-97 -34.5q-61 0 -98 34.5zM222 -7q-29 3 -62 12q-36 10 -58 28.5t-37 52.5q-15 33 -15 80v143q0 48 15 84t39 56q21 17 55.5 28.5t67.5 14.5q38 2 69 2q46 0 73.5 -2.5
t60.5 -12.5q36 -11 58.5 -30t38.5 -54q15 -36 15 -86v-143q0 -45 -14.5 -79t-37.5 -53q-20 -17 -54.5 -27.5t-67.5 -13.5q-30 -3 -72 -3q-45 0 -74 3zM358 87.5q21 6.5 29.5 20.5t8.5 41v183q0 40 -21 56t-79 16t-79 -16t-21 -56v-183q0 -27 8.5 -41t29.5 -20.5t62 -6.5
t62 6.5z" />
    <glyph glyph-name="Ohungarumlaut" unicode="&#x150;" horiz-adv-x="728" 
d="M277 845h96l-70 -128h-96zM424 845h96l-70 -128h-96zM263.5 -3q-45.5 7 -94.5 24q-53 18 -83 58.5t-30 98.5v284q0 48 21.5 86t55.5 60q30 19 74 32t82 16q35 3 74 3q46 0 80 -3.5t76 -14.5q48 -14 79 -34t52 -56q22 -37 22 -89v-284q0 -54 -28.5 -93t-78.5 -59
q-90 -36 -202 -36q-54 0 -99.5 7zM420.5 103.5q22.5 2.5 46.5 9.5t36.5 23.5t12.5 41.5v285q0 46 -37 65.5t-115 19.5t-115 -19t-37 -66v-285q0 -25 13 -41.5t38 -23.5q24 -7 46.5 -9.5t55.5 -2.5t55.5 2.5z" />
    <glyph glyph-name="ohungarumlaut" unicode="&#x151;" horiz-adv-x="592" 
d="M209 680h96l-70 -128h-96zM356 680h96l-70 -128h-96zM222 -7q-29 3 -62 12q-36 10 -58 28.5t-37 52.5q-15 33 -15 80v143q0 48 15 84t39 56q21 17 55.5 28.5t67.5 14.5q38 2 69 2q46 0 73.5 -2.5t60.5 -12.5q36 -11 58.5 -30t38.5 -54q15 -36 15 -86v-143
q0 -45 -14.5 -79t-37.5 -53q-20 -17 -54.5 -27.5t-67.5 -13.5q-30 -3 -72 -3q-45 0 -74 3zM358 87.5q21 6.5 29.5 20.5t8.5 41v183q0 40 -21 56t-79 16t-79 -16t-21 -56v-183q0 -27 8.5 -41t29.5 -20.5t62 -6.5t62 6.5z" />
    <glyph glyph-name="OE" unicode="&#x152;" horiz-adv-x="976" 
d="M56 188v264q0 197 290 197h585v-111h-322v-149h289v-111h-289v-167h332v-111h-615q-270 0 -270 188zM456 111v427h-99q-33 0 -52.5 -2t-44.5 -9q-55 -15 -55 -74v-265q0 -55 58 -67q27 -6 45 -8t50 -2h98z" />
    <glyph glyph-name="oe" unicode="&#x153;" horiz-adv-x="889" 
d="M222 -7q-29 3 -62 12q-36 10 -58 28.5t-37 52.5q-15 33 -15 80v143q0 48 15 84t39 56q21 17 55.5 28.5t67.5 14.5q38 2 69 2q105 0 160 -37q50 37 165 37t168.5 -39.5t53.5 -133.5v-118h-314v-44q0 -42 30 -60t108 -18q72 0 162 21v-93q-89 -19 -190 -19q-121 0 -180 36
q-54 -36 -163 -36q-45 0 -74 3zM358 87.5q21 6.5 29.5 20.5t8.5 41v183q0 40 -21 56t-79 16t-79 -16t-21 -56v-183q0 -27 8.5 -41t29.5 -20.5t62 -6.5t62 6.5zM704 286v70q0 24 -19.5 36t-65.5 12q-53 0 -71 -12q-19 -13 -19 -36v-70h175z" />
    <glyph glyph-name="Racute" unicode="&#x154;" horiz-adv-x="668" 
d="M299 845h159l-125 -127h-124zM120 649h292q130 0 188 -31.5t58 -105.5v-114q0 -57 -40.5 -89.5t-107.5 -41.5l188 -267h-180l-170 255h-72v-255h-156v649zM410 358q55 0 75 14.5t20 56.5v46q0 36 -21.5 49.5t-73.5 13.5h-134v-180h134z" />
    <glyph glyph-name="racute" unicode="&#x155;" horiz-adv-x="397" 
d="M164 680h159l-125 -127h-124zM64 484h139v-85q0 23 19 45t48.5 36t58.5 14h52v-121h-50q-62 0 -91.5 -19t-29.5 -63v-291h-146v484z" />
    <glyph glyph-name="Rcommaaccent" unicode="&#x156;" horiz-adv-x="668" 
d="M120 649h292q130 0 188 -31.5t58 -105.5v-114q0 -57 -40.5 -89.5t-107.5 -41.5l188 -267h-180l-170 255h-72v-255h-156v649zM410 358q55 0 75 14.5t20 56.5v46q0 36 -21.5 49.5t-73.5 13.5h-134v-180h134zM290 -46h133l-83 -162h-96z" />
    <glyph glyph-name="rcommaaccent" unicode="&#x157;" horiz-adv-x="397" 
d="M64 484h139v-85q0 23 19 45t48.5 36t58.5 14h52v-121h-50q-62 0 -91.5 -19t-29.5 -63v-291h-146v484zM80 -46h133l-83 -162h-96z" />
    <glyph glyph-name="Rcaron" unicode="&#x158;" horiz-adv-x="668" 
d="M183 845h98l53 -87l52 87h98l-56 -127h-187zM120 649h292q130 0 188 -31.5t58 -105.5v-114q0 -57 -40.5 -89.5t-107.5 -41.5l188 -267h-180l-170 255h-72v-255h-156v649zM410 358q55 0 75 14.5t20 56.5v46q0 36 -21.5 49.5t-73.5 13.5h-134v-180h134z" />
    <glyph glyph-name="rcaron" unicode="&#x159;" horiz-adv-x="397" 
d="M48 680h98l53 -87l52 87h98l-56 -127h-187zM64 484h139v-85q0 23 19 45t48.5 36t58.5 14h52v-121h-50q-62 0 -91.5 -19t-29.5 -63v-291h-146v484z" />
    <glyph glyph-name="Sacute" unicode="&#x15a;" horiz-adv-x="606" 
d="M268 845h159l-125 -127h-124zM50 8v119q170 -26 232 -26q130 0 130 67v42q0 32 -18.5 49t-66.5 17h-76q-214 0 -214 170v48q0 85 71 125t225 40q80 0 203 -13v-116q-151 18 -208 18q-79 0 -106 -13q-29 -14 -29 -44v-46q0 -51 86 -51h78q111 0 161 -41t50 -125v-43
q0 -116 -83 -157q-40 -21 -88.5 -29.5t-116.5 -8.5q-93 0 -230 18z" />
    <glyph glyph-name="sacute" unicode="&#x15b;" horiz-adv-x="525" 
d="M228 680h159l-125 -127h-124zM54 5v97q139 -21 193 -21q46 0 68 9t22 33v30q0 25 -14 35.5t-55 10.5h-63q-77 0 -119 30.5t-42 89.5v59q0 63 60 89.5t181 26.5q48 0 172 -9v-93q-156 12 -176 12q-59 0 -77 -8q-16 -9 -16 -33v-26q0 -13 13 -22.5t38 -9.5h64
q178 0 178 -116v-61q0 -35 -13 -61t-34 -41q-20 -14 -51.5 -22t-65.5 -11q-31 -3 -72 -3q-78 0 -191 15z" />
    <glyph glyph-name="Scircumflex" unicode="&#x15c;" horiz-adv-x="606" 
d="M208 845h187l58 -127h-98l-53 87l-52 -87h-98zM50 8v119q170 -26 232 -26q130 0 130 67v42q0 32 -18.5 49t-66.5 17h-76q-214 0 -214 170v48q0 85 71 125t225 40q80 0 203 -13v-116q-151 18 -208 18q-79 0 -106 -13q-29 -14 -29 -44v-46q0 -51 86 -51h78q111 0 161 -41
t50 -125v-43q0 -116 -83 -157q-40 -21 -88.5 -29.5t-116.5 -8.5q-93 0 -230 18z" />
    <glyph glyph-name="scircumflex" unicode="&#x15d;" horiz-adv-x="525" 
d="M168 680h187l58 -127h-98l-53 87l-52 -87h-98zM54 5v97q139 -21 193 -21q46 0 68 9t22 33v30q0 25 -14 35.5t-55 10.5h-63q-77 0 -119 30.5t-42 89.5v59q0 63 60 89.5t181 26.5q48 0 172 -9v-93q-156 12 -176 12q-59 0 -77 -8q-16 -9 -16 -33v-26q0 -13 13 -22.5t38 -9.5
h64q178 0 178 -116v-61q0 -35 -13 -61t-34 -41q-20 -14 -51.5 -22t-65.5 -11q-31 -3 -72 -3q-78 0 -191 15z" />
    <glyph glyph-name="Scedilla" unicode="&#x15e;" horiz-adv-x="606" 
d="M518 353q50 -41 50 -125v-43q0 -116 -83 -157q-59 -30 -144 -36l-30 -42q44 -3 70.5 -22.5t26.5 -56.5q0 -43 -35 -67t-85 -24q-56 0 -91 23l22 46q30 -18 62 -18q47 0 47 35q0 38 -75 38h-40q1 3 32 48l26 38q-91 2 -221 18v119q170 -26 232 -26q130 0 130 67v42
q0 32 -18.5 49t-66.5 17h-76q-214 0 -214 170v48q0 85 71 125t225 40q80 0 203 -13v-116q-151 18 -208 18q-79 0 -106 -13q-29 -14 -29 -44v-46q0 -51 86 -51h78q111 0 161 -41z" />
    <glyph glyph-name="scedilla" unicode="&#x15f;" horiz-adv-x="525" 
d="M481 189v-61q0 -35 -13 -61t-34 -41q-20 -14 -51.5 -22t-65.5 -11l-16 -1l-30 -42q44 -3 70.5 -22.5t26.5 -56.5q0 -43 -35 -67t-85 -24q-56 0 -91 23l22 46q30 -18 62 -18q47 0 47 35q0 38 -75 38h-40q1 3 32 48l26 38q-73 1 -177 15v97q139 -21 193 -21q46 0 68 9
t22 33v30q0 25 -14 35.5t-55 10.5h-63q-77 0 -119 30.5t-42 89.5v59q0 63 60 89.5t181 26.5q48 0 172 -9v-93q-156 12 -176 12q-59 0 -77 -8q-16 -9 -16 -33v-26q0 -13 13 -22.5t38 -9.5h64q178 0 178 -116z" />
    <glyph glyph-name="Scaron" unicode="&#x160;" horiz-adv-x="606" 
d="M152 845h98l53 -87l52 87h98l-56 -127h-187zM50 8v119q170 -26 232 -26q130 0 130 67v42q0 32 -18.5 49t-66.5 17h-76q-214 0 -214 170v48q0 85 71 125t225 40q80 0 203 -13v-116q-151 18 -208 18q-79 0 -106 -13q-29 -14 -29 -44v-46q0 -51 86 -51h78q111 0 161 -41
t50 -125v-43q0 -116 -83 -157q-40 -21 -88.5 -29.5t-116.5 -8.5q-93 0 -230 18z" />
    <glyph glyph-name="scaron" unicode="&#x161;" horiz-adv-x="525" 
d="M112 680h98l53 -87l52 87h98l-56 -127h-187zM54 5v97q139 -21 193 -21q46 0 68 9t22 33v30q0 25 -14 35.5t-55 10.5h-63q-77 0 -119 30.5t-42 89.5v59q0 63 60 89.5t181 26.5q48 0 172 -9v-93q-156 12 -176 12q-59 0 -77 -8q-16 -9 -16 -33v-26q0 -13 13 -22.5t38 -9.5
h64q178 0 178 -116v-61q0 -35 -13 -61t-34 -41q-20 -14 -51.5 -22t-65.5 -11q-31 -3 -72 -3q-78 0 -191 15z" />
    <glyph glyph-name="uni0162" unicode="&#x162;" horiz-adv-x="600" 
d="M327 0l-28 -39q44 -3 70.5 -22.5t26.5 -56.5q0 -43 -35 -67t-85 -24q-56 0 -91 23l22 46q30 -18 62 -18q47 0 47 35q0 38 -75 38h-40q1 3 32 48l25 37h-38v538h-200v111h555v-111h-199v-538h-49z" />
    <glyph glyph-name="uni0163" unicode="&#x163;" horiz-adv-x="600" 
d="M254 394v-228q0 -35 6 -52.5t23 -25t52 -7.5q14 0 52 5v-91q-47 -5 -81 -5h-16l-27 -38q44 -3 70.5 -22.5t26.5 -56.5q0 -43 -35 -67t-85 -24q-56 0 -91 23l22 46q30 -18 62 -18q47 0 47 35q0 38 -75 38h-40q1 3 32 48l29 42q-14 3 -32 9q-28 9 -45.5 25t-28.5 44
q-12 29 -12 67v253h-98v90h98v140h146v-140h133v-90h-133z" />
    <glyph glyph-name="Tcaron" unicode="&#x164;" horiz-adv-x="595" 
d="M147 845h98l53 -87l52 87h98l-56 -127h-187zM220 538h-200v111h555v-111h-199v-538h-156v538z" />
    <glyph glyph-name="tcaron" unicode="&#x165;" horiz-adv-x="407" 
d="M326 730h134l-64 -163h-96zM244 -7q-25 3 -50 12q-28 9 -45.5 25t-28.5 44q-12 29 -12 67v253h-98v90h98v140h146v-140h133v-90h-133v-228q0 -35 6 -52.5t23 -25t52 -7.5q14 0 52 5v-91q-47 -5 -81 -5q-37 0 -62 3z" />
    <glyph glyph-name="Tbar" unicode="&#x166;" horiz-adv-x="595" 
d="M220 281h-112v99h112v158h-200v111h555v-111h-199v-158h108v-99h-108v-281h-156v281z" />
    <glyph glyph-name="tbar" unicode="&#x167;" horiz-adv-x="407" 
d="M243.5 -4.5q-24.5 2.5 -50.5 11.5q-28 8 -45 23.5t-28 43.5q-12 29 -12 67v96h-98v87h98v73h-98v87h98v150h146v-150h133v-87h-133v-73h133v-87h-133v-71q0 -40 4.5 -56t21 -22t55.5 -6q14 0 52 5v-89q-47 -5 -81 -5q-38 0 -62.5 2.5z" />
    <glyph glyph-name="Utilde" unicode="&#x168;" horiz-adv-x="699" 
d="M68 178v471h156v-471q0 -44 28.5 -60.5t98.5 -16.5q69 0 96.5 16.5t27.5 60.5v471h156v-471q0 -188 -282 -188q-281 0 -281 188zM335 737l-42 20q-35 0 -36 -30h-73q1 57 30 81.5t86 24.5q29 0 66 -19t44 -19q33 0 33 35h72q-2 -114 -110 -114q-26 0 -70 21z" />
    <glyph glyph-name="utilde" unicode="&#x169;" horiz-adv-x="595" 
d="M101.5 23.5q-37.5 33.5 -37.5 105.5v355h146v-335q0 -28 5.5 -42t22 -20t50.5 -6q43 0 63 5.5t27 19.5t7 43v335h146v-484h-144v59q-16 -69 -155 -69q-93 0 -130.5 33.5zM153 580q7 28 32.5 53.5t58.5 25.5q23 0 62 -15q38 -15 54 -15q27 0 41 33l41 -24
q-8 -29 -33 -55.5t-58 -26.5q-23 0 -65 17q-39 16 -51 16q-29 0 -42 -33z" />
    <glyph glyph-name="Umacron" unicode="&#x16a;" horiz-adv-x="699" 
d="M210 814h278v-89h-278v89zM68 178v471h156v-471q0 -44 28.5 -60.5t98.5 -16.5q69 0 96.5 16.5t27.5 60.5v471h156v-471q0 -188 -282 -188q-281 0 -281 188z" />
    <glyph glyph-name="umacron" unicode="&#x16b;" horiz-adv-x="595" 
d="M158 649h278v-89h-278v89zM101.5 23.5q-37.5 33.5 -37.5 105.5v355h146v-335q0 -28 5.5 -42t22 -20t50.5 -6q43 0 63 5.5t27 19.5t7 43v335h146v-484h-144v59q-16 -69 -155 -69q-93 0 -130.5 33.5z" />
    <glyph glyph-name="Ubreve" unicode="&#x16c;" horiz-adv-x="699" 
d="M251 752.5q-37 34.5 -40 92.5h81q6 -30 18.5 -42.5t38.5 -12.5q50 0 56 55h82q-4 -58 -41 -92.5t-97 -34.5q-61 0 -98 34.5zM68 178v471h156v-471q0 -44 28.5 -60.5t98.5 -16.5q69 0 96.5 16.5t27.5 60.5v471h156v-471q0 -188 -282 -188q-281 0 -281 188z" />
    <glyph glyph-name="ubreve" unicode="&#x16d;" horiz-adv-x="595" 
d="M199 587.5q-37 34.5 -40 92.5h81q6 -30 18.5 -42.5t38.5 -12.5q50 0 56 55h82q-4 -58 -41 -92.5t-97 -34.5q-61 0 -98 34.5zM101.5 23.5q-37.5 33.5 -37.5 105.5v355h146v-335q0 -28 5.5 -42t22 -20t50.5 -6q43 0 63 5.5t27 19.5t7 43v335h146v-484h-144v59
q-16 -69 -155 -69q-93 0 -130.5 33.5z" />
    <glyph glyph-name="Uring" unicode="&#x16e;" horiz-adv-x="699" 
d="M289.5 720.5q-21.5 2.5 -43.5 11.5q-46 17 -46 84v12q0 28 8 48.5t21 31.5q11 10 32 16t41 7q12 1 47 1q34 0 50.5 -1t36.5 -7q21 -6 33 -16.5t21 -30.5q8 -21 8 -49v-12q0 -67 -45 -84q-23 -9 -44.5 -11.5t-59.5 -2.5t-59.5 2.5zM405 777.5q14 7.5 14 31.5v27
q0 20 -5 29t-19 12t-46 3t-46 -3t-19 -12t-5 -29v-27q0 -24 14 -31.5t56 -7.5t56 7.5zM68 178v471h156v-471q0 -44 28.5 -60.5t98.5 -16.5q69 0 96.5 16.5t27.5 60.5v471h156v-471q0 -188 -282 -188q-281 0 -281 188z" />
    <glyph glyph-name="uring" unicode="&#x16f;" horiz-adv-x="595" 
d="M237.5 555.5q-21.5 2.5 -43.5 11.5q-46 17 -46 84v12q0 28 8 48.5t21 31.5q11 10 32 16t41 7q12 1 47 1q34 0 50.5 -1t36.5 -7q21 -6 33 -16.5t21 -30.5q8 -21 8 -49v-12q0 -67 -45 -84q-23 -9 -44.5 -11.5t-59.5 -2.5t-59.5 2.5zM353 612.5q14 7.5 14 31.5v27
q0 20 -5 29t-19 12t-46 3t-46 -3t-19 -12t-5 -29v-27q0 -24 14 -31.5t56 -7.5t56 7.5zM101.5 23.5q-37.5 33.5 -37.5 105.5v355h146v-335q0 -28 5.5 -42t22 -20t50.5 -6q43 0 63 5.5t27 19.5t7 43v335h146v-484h-144v59q-16 -69 -155 -69q-93 0 -130.5 33.5z" />
    <glyph glyph-name="Uhungarumlaut" unicode="&#x170;" horiz-adv-x="699" 
d="M263 845h96l-70 -128h-96zM410 845h96l-70 -128h-96zM68 178v471h156v-471q0 -44 28.5 -60.5t98.5 -16.5q69 0 96.5 16.5t27.5 60.5v471h156v-471q0 -188 -282 -188q-281 0 -281 188z" />
    <glyph glyph-name="uhungarumlaut" unicode="&#x171;" horiz-adv-x="595" 
d="M211 680h96l-70 -128h-96zM358 680h96l-70 -128h-96zM101.5 23.5q-37.5 33.5 -37.5 105.5v355h146v-335q0 -28 5.5 -42t22 -20t50.5 -6q43 0 63 5.5t27 19.5t7 43v335h146v-484h-144v59q-16 -69 -155 -69q-93 0 -130.5 33.5z" />
    <glyph glyph-name="Uogonek" unicode="&#x172;" horiz-adv-x="703" 
d="M300.5 -167q-24.5 19 -24.5 61q0 47 30 98q-236 14 -236 186v471h149v-475q0 -42 31.5 -59.5t102.5 -17.5t101 17t30 60v475h149v-471q0 -170 -232 -186q-24 -38 -24 -75q0 -16 8.5 -24t29.5 -8q12 0 30 6v-67q-20 -10 -70 -10t-74.5 19z" />
    <glyph glyph-name="uogonek" unicode="&#x173;" horiz-adv-x="595" 
d="M385 -167q-24 19 -24 61q0 40 26 106v59q-16 -69 -155 -69q-93 0 -130.5 33.5t-37.5 105.5v355h146v-335q0 -28 5.5 -42t22 -20t50.5 -6q43 0 63 5.5t27 19.5t7 43v335h146v-484q-69 -44 -69 -83q0 -16 8.5 -24t29.5 -8q12 0 30 6v-67q-20 -10 -70 -10q-51 0 -75 19z" />
    <glyph glyph-name="Wcircumflex" unicode="&#x174;" horiz-adv-x="985" 
d="M398 845h187l58 -127h-98l-53 87l-52 -87h-98zM8 649h162l126 -474l126 474h145l136 -474l116 474h158l-208 -649h-154l-124 471l-128 -471h-154z" />
    <glyph glyph-name="wcircumflex" unicode="&#x175;" horiz-adv-x="822" 
d="M316 680h187l58 -127h-98l-53 87l-52 -87h-98zM8 484h149l90 -351l96 351h143l100 -351l86 351h142l-158 -484h-148l-96 327l-94 -327h-148z" />
    <glyph glyph-name="Ycircumflex" unicode="&#x176;" horiz-adv-x="644" 
d="M227 845h187l58 -127h-98l-53 87l-52 -87h-98zM243 260l-235 389h177l137 -254l136 254h178l-237 -387v-262h-156v260z" />
    <glyph glyph-name="ycircumflex" unicode="&#x177;" horiz-adv-x="534" 
d="M172 680h187l58 -127h-98l-53 87l-52 -87h-98zM201 4l-193 480h159l109 -342l99 342h151l-265 -692h-148z" />
    <glyph glyph-name="Ydieresis" unicode="&#x178;" horiz-adv-x="644" 
d="M164 848h126v-118h-126v118zM354 848h126v-118h-126v118zM243 260l-235 389h177l137 -254l136 254h178l-237 -387v-262h-156v260z" />
    <glyph glyph-name="Zacute" unicode="&#x179;" horiz-adv-x="612" 
d="M271 845h159l-125 -127h-124zM40 95l338 443h-328v111h520v-94l-338 -443h344v-112h-536v95z" />
    <glyph glyph-name="zacute" unicode="&#x17a;" horiz-adv-x="512" 
d="M221 680h159l-125 -127h-124zM40 78l244 311h-234v95h420v-78l-244 -311h250v-95h-436v78z" />
    <glyph glyph-name="Zdotaccent" unicode="&#x17b;" horiz-adv-x="612" 
d="M233 845h146v-115h-146v115zM40 95l338 443h-328v111h520v-94l-338 -443h344v-112h-536v95z" />
    <glyph glyph-name="zdotaccent" unicode="&#x17c;" horiz-adv-x="512" 
d="M183 680h146v-115h-146v115zM40 78l244 311h-234v95h420v-78l-244 -311h250v-95h-436v78z" />
    <glyph glyph-name="Zcaron" unicode="&#x17d;" horiz-adv-x="612" 
d="M155 845h98l53 -87l52 87h98l-56 -127h-187zM40 95l338 443h-328v111h520v-94l-338 -443h344v-112h-536v95z" />
    <glyph glyph-name="zcaron" unicode="&#x17e;" horiz-adv-x="512" 
d="M105 680h98l53 -87l52 87h98l-56 -127h-187zM40 78l244 311h-234v95h420v-78l-244 -311h250v-95h-436v78z" />
    <glyph glyph-name="longs" unicode="&#x17f;" horiz-adv-x="320" 
d="M101 394h-91v90h91v73q0 59 19.5 92.5t60 47t108.5 13.5q37 0 109 -8v-90q-64 8 -86 8q-37 0 -51 -11.5t-14 -43.5v-565h-146v394z" />
    <glyph glyph-name="florin" unicode="&#x192;" horiz-adv-x="408" 
d="M-1 -186v96q4 -1 18 -1q38 0 55 5.5t23 22.5t6 56v404h-91v87h91v58q0 59 19.5 92.5t60 47t108.5 13.5q37 0 109 -8v-94q-64 8 -76 8q-36 0 -51 -3.5t-19.5 -13.5t-4.5 -34v-66h141v-87h-141v-437q0 -83 -48.5 -115t-152.5 -32q-36 0 -47 1z" />
    <glyph glyph-name="Ohorn" unicode="&#x1a0;" horiz-adv-x="728" 
d="M672 462v-284q0 -54 -28.5 -93t-78.5 -59q-90 -36 -202 -36q-54 0 -99.5 7t-94.5 24q-53 18 -83 58.5t-30 98.5v284q0 48 21.5 86t55.5 60q30 19 74 32t82 16q35 3 74 3q73 0 120 -10q33 1 48 8t20.5 24.5t5.5 55.5l113 -1q0 -58 -9.5 -92.5t-38.5 -55.5q18 -20 28 -37
q22 -37 22 -89zM516 463q0 46 -37 65.5t-115 19.5t-115 -19t-37 -66v-285q0 -25 13 -41.5t38 -23.5q24 -7 46.5 -9.5t55.5 -2.5t55.5 2.5t46.5 9.5t36.5 23.5t12.5 41.5v285z" />
    <glyph glyph-name="ohorn" unicode="&#x1a1;" horiz-adv-x="592" 
d="M581 465q-14 -38 -60 -57l6 -13q15 -36 15 -86v-143q0 -45 -14.5 -79t-37.5 -53q-20 -17 -54.5 -27.5t-67.5 -13.5q-30 -3 -72 -3q-45 0 -74 3t-62 12q-36 10 -58 28.5t-37 52.5q-15 33 -15 80v143q0 48 15 84t39 56q21 17 55.5 28.5t67.5 14.5q38 2 69 2q39 0 63 -2
t51 -8q32 1 47 8t20 24.5t5 55.5l113 -1q0 -68 -14 -106zM396 332q0 40 -21 56t-79 16t-79 -16t-21 -56v-183q0 -27 8.5 -41t29.5 -20.5t62 -6.5t62 6.5t29.5 20.5t8.5 41v183z" />
    <glyph glyph-name="Uhorn" unicode="&#x1af;" horiz-adv-x="699" 
d="M735.5 650q-7.5 -33 -32 -55.5t-72.5 -32.5v-384q0 -188 -282 -188q-281 0 -281 188v471h156v-471q0 -44 28.5 -60.5t98.5 -16.5q69 0 96.5 16.5t27.5 60.5v471h59q45 0 63.5 5.5t25.5 23t7 59.5l113 -1q0 -53 -7.5 -86z" />
    <glyph glyph-name="uhorn" unicode="&#x1b0;" horiz-adv-x="595" 
d="M633 485.5q-7 -32.5 -31 -55t-71 -32.5v-398h-144v59q-16 -69 -155 -69q-93 0 -130.5 33.5t-37.5 105.5v355h146v-335q0 -28 5.5 -42t22 -20t50.5 -6q43 0 63 5.5t27 19.5t7 43v335h46q45 0 63.5 5.5t25.5 23t7 59.5l113 -1q0 -53 -7 -85.5z" />
    <glyph glyph-name="Scommaaccent" unicode="&#x218;" horiz-adv-x="606" 
d="M50 8v119q170 -26 232 -26q130 0 130 67v42q0 32 -18.5 49t-66.5 17h-76q-214 0 -214 170v48q0 85 71 125t225 40q80 0 203 -13v-116q-151 18 -208 18q-79 0 -106 -13q-29 -14 -29 -44v-46q0 -51 86 -51h78q111 0 161 -41t50 -125v-43q0 -116 -83 -157
q-40 -21 -88.5 -29.5t-116.5 -8.5q-93 0 -230 18zM255 -46h133l-83 -150h-96z" />
    <glyph glyph-name="scommaaccent" unicode="&#x219;" horiz-adv-x="525" 
d="M54 5v97q139 -21 193 -21q46 0 68 9t22 33v30q0 25 -14 35.5t-55 10.5h-63q-77 0 -119 30.5t-42 89.5v59q0 63 60 89.5t181 26.5q48 0 172 -9v-93q-156 12 -176 12q-59 0 -77 -8q-16 -9 -16 -33v-26q0 -13 13 -22.5t38 -9.5h64q178 0 178 -116v-61q0 -35 -13 -61t-34 -41
q-20 -14 -51.5 -22t-65.5 -11q-31 -3 -72 -3q-78 0 -191 15zM219 -46h133l-83 -162h-96z" />
    <glyph glyph-name="uni021A" unicode="&#x21a;" horiz-adv-x="593" 
d="M220 538h-200v111h555v-111h-199v-538h-156v538zM234 -43h133l-83 -150h-96z" />
    <glyph glyph-name="uni021B" unicode="&#x21b;" horiz-adv-x="407" 
d="M244 -7q-25 3 -50 12q-28 9 -45.5 25t-28.5 44q-12 29 -12 67v253h-98v90h98v140h146v-140h133v-90h-133v-228q0 -35 6 -52.5t23 -25t52 -7.5q14 0 52 5v-91q-47 -5 -81 -5q-37 0 -62 3zM160 -46h133l-83 -162h-96z" />
    <glyph glyph-name="uni0237" unicode="&#x237;" horiz-adv-x="274" 
d="M-38 -218v95q4 -1 18 -1q38 0 55 5.5t23 22.5t6 56v524h146v-557q0 -83 -48.5 -115t-152.5 -32z" />
    <glyph glyph-name="uni02BC" unicode="&#x2bc;" horiz-adv-x="210" 
d="M26 700h134l-64 -163h-96z" />
    <glyph glyph-name="circumflex" unicode="&#x2c6;" horiz-adv-x="600" 
d="M156 680h187l58 -127h-98l-53 87l-52 -87h-98z" />
    <glyph glyph-name="caron" unicode="&#x2c7;" horiz-adv-x="501" 
d="M100 680h98l53 -87l52 87h98l-56 -127h-187z" />
    <glyph glyph-name="uni02C9" unicode="&#x2c9;" horiz-adv-x="478" 
d="M100 649h278v-89h-278v89z" />
    <glyph glyph-name="breve" unicode="&#x2d8;" horiz-adv-x="600" 
d="M140 587.5q-37 34.5 -40 92.5h81q6 -30 18.5 -42.5t38.5 -12.5q50 0 56 55h82q-4 -58 -41 -92.5t-97 -34.5q-61 0 -98 34.5z" />
    <glyph glyph-name="dotaccent" unicode="&#x2d9;" horiz-adv-x="346" 
d="M100 680h146v-115h-146v115z" />
    <glyph glyph-name="ring" unicode="&#x2da;" horiz-adv-x="498" 
d="M189.5 555.5q-21.5 2.5 -43.5 11.5q-46 17 -46 84v12q0 28 8 48.5t21 31.5q11 10 32 16t41 7q12 1 47 1q34 0 50.5 -1t36.5 -7q21 -6 33 -16.5t21 -30.5q8 -21 8 -49v-12q0 -67 -45 -84q-23 -9 -44.5 -11.5t-59.5 -2.5t-59.5 2.5zM305 612.5q14 7.5 14 31.5v27
q0 20 -5 29t-19 12t-46 3t-46 -3t-19 -12t-5 -29v-27q0 -24 14 -31.5t56 -7.5t56 7.5z" />
    <glyph glyph-name="ogonek" unicode="&#x2db;" horiz-adv-x="369" 
d="M124 -167q-24 19 -24 61q0 50 36 106h95q-30 -47 -30 -83q0 -16 8.5 -24t29.5 -8q12 0 30 6v-67q-20 -10 -70 -10q-51 0 -75 19z" />
    <glyph glyph-name="tilde" unicode="&#x2dc;" horiz-adv-x="600" 
d="M100 580q7 28 32.5 53.5t58.5 25.5q23 0 62 -15q38 -15 54 -15q27 0 41 33l41 -24q-8 -29 -33 -55.5t-58 -26.5q-23 0 -65 17q-39 16 -51 16q-29 0 -42 -33z" />
    <glyph glyph-name="hungarumlaut" unicode="&#x2dd;" horiz-adv-x="513" 
d="M170 680h96l-70 -128h-96zM317 680h96l-70 -128h-96z" />
    <glyph glyph-name="gravecomb" unicode="&#x300;" horiz-adv-x="0" 
d="M-349 680h159l90 -127h-124z" />
    <glyph glyph-name="acutecomb" unicode="&#x301;" horiz-adv-x="0" 
d="M-259 680h159l-125 -127h-124z" />
    <glyph glyph-name="uni0302" unicode="&#x302;" horiz-adv-x="0" 
d="M-345 680h187l58 -127h-98l-53 87l-52 -87h-98z" />
    <glyph glyph-name="tildecomb" unicode="&#x303;" horiz-adv-x="0" 
d="M-389 580q7 28 32.5 53.5t58.5 25.5q23 0 62 -15q38 -15 54 -15q27 0 41 33l41 -24q-8 -29 -33 -55.5t-58 -26.5q-23 0 -65 17q-39 16 -51 16q-29 0 -42 -33z" />
    <glyph glyph-name="uni0304" unicode="&#x304;" horiz-adv-x="0" 
d="M-378 649h278v-89h-278v89z" />
    <glyph glyph-name="uni0306" unicode="&#x306;" horiz-adv-x="0" 
d="M-336 587.5q-37 34.5 -40 92.5h81q6 -30 18.5 -42.5t38.5 -12.5q50 0 56 55h82q-4 -58 -41 -92.5t-97 -34.5q-61 0 -98 34.5z" />
    <glyph glyph-name="uni0307" unicode="&#x307;" horiz-adv-x="0" 
d="M-196 680h146v-115h-146v115z" />
    <glyph glyph-name="uni0308" unicode="&#x308;" horiz-adv-x="0" 
d="M-416 683h126v-118h-126v118zM-226 683h126v-118h-126v118z" />
    <glyph glyph-name="hookabovecomb" unicode="&#x309;" horiz-adv-x="0" 
d="M-336 581q0 15 5 22t15 15q13 9 17 18t4 22q0 33 -39 33q-14 0 -24.5 -2t-20.5 -5v65q18 7 44 7q65 0 87 -21.5t22 -67.5q0 -25 -3 -37t-13 -20q-4 -3 -12.5 -9.5t-12.5 -13t-4 -15.5h-65v9z" />
    <glyph glyph-name="uni030B" unicode="&#x30b;" horiz-adv-x="0" 
d="M-343 680h96l-70 -128h-96zM-196 680h96l-70 -128h-96z" />
    <glyph glyph-name="uni031B" unicode="&#x31b;" horiz-adv-x="0" 
d="M-239 484q45 0 63.5 5.5t25.5 23t7 59.5l113 -1q0 -67 -13.5 -104t-59 -57.5t-138.5 -20.5z" />
    <glyph glyph-name="dotbelowcomb" unicode="&#x323;" horiz-adv-x="0" 
d="M-192 -64h129v-114h-129v114z" />
    <glyph glyph-name="uni0326" unicode="&#x326;" horiz-adv-x="0" 
d="M-233 -46h133l-83 -162h-96z" />
    <glyph glyph-name="uni0335" unicode="&#x335;" horiz-adv-x="0" 
d="M-388 485h288v-102h-288v102z" />
    <glyph glyph-name="uni0344" unicode="&#x344;" horiz-adv-x="0" 
d="M-45 710h159l-79 -157h-94zM-216 683h126v-118h-126v118zM122 683h126v-118h-126v118z" />
    <glyph glyph-name="uni0374" unicode="&#x374;" horiz-adv-x="343" 
d="M114 710h159l-129 -207h-94z" />
    <glyph glyph-name="uni0375" unicode="&#x375;" horiz-adv-x="343" 
d="M229 -187h-159l129 207h94z" />
    <glyph glyph-name="uni037E" unicode="&#x37e;" horiz-adv-x="256" 
d="M50 484h156v-138h-156v138zM65 138h152l-94 -250h-104z" />
    <glyph glyph-name="tonos" unicode="&#x384;" horiz-adv-x="393" 
d="M134 710h159l-99 -157h-94z" />
    <glyph glyph-name="dieresistonos" unicode="&#x385;" horiz-adv-x="664" 
d="M271 710h159l-79 -157h-94zM100 683h126v-118h-126v118zM438 683h126v-118h-126v118z" />
    <glyph glyph-name="Alphatonos" unicode="&#x386;" horiz-adv-x="668" 
d="M242 649h190l234 -649h-158l-58 171h-237l-57 -171h-154zM416 275l-82 244h-4l-82 -244h168zM28 649h159l-99 -157h-94z" />
    <glyph glyph-name="anoteleia" unicode="&#x387;" horiz-adv-x="256" 
d="M50 484h147v-138h-147v138z" />
    <glyph glyph-name="Epsilontonos" unicode="&#x388;" horiz-adv-x="610" 
d="M70 649h495v-111h-339v-149h306v-111h-306v-167h349v-111h-505v649zM-129 649h159l-99 -157h-94z" />
    <glyph glyph-name="Etatonos" unicode="&#x389;" horiz-adv-x="728" 
d="M70 649h156v-260h276v260h156v-649h-156v278h-276v-278h-156v649zM-129 649h159l-99 -157h-94z" />
    <glyph glyph-name="Iotatonos" unicode="&#x38a;" horiz-adv-x="296" 
d="M70 649h156v-649h-156v649zM-129 649h159l-99 -157h-94z" />
    <glyph glyph-name="Omicrontonos" unicode="&#x38c;" horiz-adv-x="728" 
d="M263.5 -3q-45.5 7 -94.5 24q-53 18 -83 58.5t-30 98.5v284q0 48 21.5 86t55.5 60q30 19 74 32t82 16q35 3 74 3q46 0 80 -3.5t76 -14.5q48 -14 79 -34t52 -56q22 -37 22 -89v-284q0 -54 -28.5 -93t-78.5 -59q-90 -36 -202 -36q-54 0 -99.5 7zM420.5 103.5
q22.5 2.5 46.5 9.5t36.5 23.5t12.5 41.5v285q0 46 -37 65.5t-115 19.5t-115 -19t-37 -66v-285q0 -25 13 -41.5t38 -23.5q24 -7 46.5 -9.5t55.5 -2.5t55.5 2.5zM-89 649h159l-99 -157h-94z" />
    <glyph glyph-name="Upsilontonos" unicode="&#x38e;" horiz-adv-x="644" 
d="M243 260l-235 389h177l137 -254l136 254h178l-237 -387v-262h-156v260zM-184 649h159l-99 -157h-94z" />
    <glyph glyph-name="Omegatonos" unicode="&#x38f;" horiz-adv-x="728" 
d="M56 101h116q-54 27 -85 74.5t-31 112.5v170q0 98 79 149.5t230 51.5t229 -51.5t78 -149.5v-170q0 -65 -30 -112.5t-84 -74.5h114v-101h-267v117q46 2 78.5 33t32.5 73v240q0 46 -37 65.5t-114 19.5q-80 0 -116.5 -19.5t-36.5 -65.5v-240q0 -42 33.5 -73t79.5 -33v-117
h-269v101zM-89 649h159l-99 -157h-94z" />
    <glyph glyph-name="iotadieresistonos" unicode="&#x390;" horiz-adv-x="363" 
d="M113.5 23.5q-49.5 33.5 -49.5 117.5v343h146v-318q0 -35 6 -52.5t23 -25t52 -7.5q14 0 52 5v-91q-47 -5 -81 -5q-99 0 -148.5 33.5zM94 710h159l-79 -157h-94zM-77 683h126v-118h-126v118zM261 683h126v-118h-126v118z" />
    <glyph glyph-name="Alpha" unicode="&#x391;" horiz-adv-x="668" 
d="M242 649h190l234 -649h-158l-58 171h-237l-57 -171h-154zM416 275l-82 244h-4l-82 -244h168z" />
    <glyph glyph-name="Beta" unicode="&#x392;" horiz-adv-x="635" 
d="M70 649h263q93 0 143.5 -13.5t71.5 -43t21 -82.5v-80q0 -27 -21.5 -51t-50.5 -33v-5q38 -4 69.5 -32.5t31.5 -63.5v-100q0 -79 -63 -112t-195 -33h-270v649zM333 385q37 0 55 6t24.5 19.5t6.5 39.5v32q0 23 -6 34.5t-24.5 16.5t-58.5 5h-104v-153h107zM337 111
q57 0 81 13t24 42v52q0 36 -18.5 51t-65.5 15h-132v-173h111z" />
    <glyph glyph-name="Gamma" unicode="&#x393;" horiz-adv-x="590" 
d="M70 649h485v-111h-329v-538h-156v649z" />
    <glyph glyph-name="uni0394" unicode="&#x394;" horiz-adv-x="651" 
d="M12 80l221 569h190l216 -569v-80h-627v80zM473 104l-148 415h-4l-149 -415h301z" />
    <glyph glyph-name="Epsilon" unicode="&#x395;" horiz-adv-x="610" 
d="M70 649h495v-111h-339v-149h306v-111h-306v-167h349v-111h-505v649z" />
    <glyph glyph-name="Zeta" unicode="&#x396;" horiz-adv-x="612" 
d="M40 95l338 443h-328v111h520v-94l-338 -443h344v-112h-536v95z" />
    <glyph glyph-name="Eta" unicode="&#x397;" horiz-adv-x="728" 
d="M70 649h156v-260h276v260h156v-649h-156v278h-276v-278h-156v649z" />
    <glyph glyph-name="Theta" unicode="&#x398;" horiz-adv-x="728" 
d="M263.5 -3q-45.5 7 -94.5 24q-53 18 -83 58.5t-30 98.5v284q0 48 21.5 86t55.5 60q30 19 74 32t82 16q35 3 74 3q46 0 80 -3.5t76 -14.5q48 -14 79 -34t52 -56q22 -37 22 -89v-284q0 -54 -28.5 -93t-78.5 -59q-90 -36 -202 -36q-54 0 -99.5 7zM420.5 103.5
q22.5 2.5 46.5 9.5t36.5 23.5t12.5 41.5v285q0 46 -37 65.5t-115 19.5t-115 -19t-37 -66v-285q0 -25 13 -41.5t38 -23.5q24 -7 46.5 -9.5t55.5 -2.5t55.5 2.5zM260 386h208v-111h-208v111z" />
    <glyph glyph-name="Iota" unicode="&#x399;" horiz-adv-x="296" 
d="M70 649h156v-649h-156v649z" />
    <glyph glyph-name="Kappa" unicode="&#x39a;" horiz-adv-x="682" 
d="M70 649h156v-649h-156v649zM230 344l243 305h183l-246 -302l273 -347h-190z" />
    <glyph glyph-name="Lambda" unicode="&#x39b;" horiz-adv-x="648" 
d="M232 649h190l224 -649h-158l-164 519h-4l-164 -519h-154z" />
    <glyph glyph-name="Mu" unicode="&#x39c;" horiz-adv-x="889" 
d="M70 649h222l160 -464l158 464h209v-649h-141v480h-3l-164 -480h-125l-169 480h-4v-480h-143v649z" />
    <glyph glyph-name="Nu" unicode="&#x39d;" horiz-adv-x="751" 
d="M70 649h158l314 -443v443h139v-649h-158l-314 450v-450h-139v649z" />
    <glyph glyph-name="Xi" unicode="&#x39e;" horiz-adv-x="645" 
d="M45 649h555v-111h-555v111zM99 389h448v-111h-448v111zM35 111h575v-111h-575v111z" />
    <glyph glyph-name="Omicron" unicode="&#x39f;" horiz-adv-x="728" 
d="M263.5 -3q-45.5 7 -94.5 24q-53 18 -83 58.5t-30 98.5v284q0 48 21.5 86t55.5 60q30 19 74 32t82 16q35 3 74 3q46 0 80 -3.5t76 -14.5q48 -14 79 -34t52 -56q22 -37 22 -89v-284q0 -54 -28.5 -93t-78.5 -59q-90 -36 -202 -36q-54 0 -99.5 7zM420.5 103.5
q22.5 2.5 46.5 9.5t36.5 23.5t12.5 41.5v285q0 46 -37 65.5t-115 19.5t-115 -19t-37 -66v-285q0 -25 13 -41.5t38 -23.5q24 -7 46.5 -9.5t55.5 -2.5t55.5 2.5z" />
    <glyph glyph-name="Pi" unicode="&#x3a0;" horiz-adv-x="708" 
d="M70 649h568v-649h-156v538h-256v-538h-156v649z" />
    <glyph glyph-name="Rho" unicode="&#x3a1;" horiz-adv-x="627" 
d="M70 649h260q95 0 150.5 -13t81 -45.5t25.5 -90.5v-123q0 -64 -27.5 -100t-87 -51t-160.5 -15h-86v-211h-156v649zM325 318q61 0 86 14.5t25 49.5v104q0 32 -24 42q-23 10 -89 10h-97v-220h99z" />
    <glyph glyph-name="Sigma" unicode="&#x3a3;" horiz-adv-x="612" 
d="M40 95l176 230l-176 230v94h536v-111h-339l143 -187v-38l-153 -201h349v-112h-536v95z" />
    <glyph glyph-name="Tau" unicode="&#x3a4;" horiz-adv-x="595" 
d="M220 538h-200v111h555v-111h-199v-538h-156v538z" />
    <glyph glyph-name="Upsilon" unicode="&#x3a5;" horiz-adv-x="644" 
d="M243 260l-235 389h177l137 -254l136 254h178l-237 -387v-262h-156v260z" />
    <glyph glyph-name="Phi" unicode="&#x3a6;" horiz-adv-x="820" 
d="M333 35q-134 0 -215.5 49t-81.5 146v218q0 103 82 153t215 50v73h154v-73q132 0 214.5 -50.5t82.5 -152.5v-218q0 -61 -38 -105t-105.5 -67t-153.5 -23v-75h-154v75zM338 548q-77 0 -111.5 -20t-34.5 -70v-236q0 -48 34.5 -65.5t111.5 -17.5v409zM593.5 156
q34.5 18 34.5 66v236q0 50 -34.5 70t-111.5 20v-410q77 0 111.5 18z" />
    <glyph glyph-name="Chi" unicode="&#x3a7;" horiz-adv-x="677" 
d="M249 331l-229 318h180l139 -216l138 216h180l-229 -318l240 -331h-181l-148 230l-149 -230h-180z" />
    <glyph glyph-name="Psi" unicode="&#x3a8;" horiz-adv-x="812" 
d="M328 149q-137 3 -198.5 61.5t-61.5 152.5v286h156v-278q0 -36 6.5 -58t29 -36.5t68.5 -17.5v390h156v-390q46 3 68.5 17.5t29 36.5t6.5 58v278h156v-286q0 -94 -61.5 -152.5t-198.5 -61.5v-149h-156v149z" />
    <glyph glyph-name="uni03A9" unicode="&#x3a9;" horiz-adv-x="728" 
d="M56 101h116q-54 27 -85 74.5t-31 112.5v170q0 98 79 149.5t230 51.5t229 -51.5t78 -149.5v-170q0 -65 -30 -112.5t-84 -74.5h114v-101h-267v117q46 2 78.5 33t32.5 73v240q0 46 -37 65.5t-114 19.5q-80 0 -116.5 -19.5t-36.5 -65.5v-240q0 -42 33.5 -73t79.5 -33v-117
h-269v101z" />
    <glyph glyph-name="Iotadieresis" unicode="&#x3aa;" horiz-adv-x="296" 
d="M70 649h156v-649h-156v649zM-10 853h126v-118h-126v118zM180 853h126v-118h-126v118z" />
    <glyph glyph-name="Upsilondieresis" unicode="&#x3ab;" horiz-adv-x="644" 
d="M243 260l-235 389h177l137 -254l136 254h178l-237 -387v-262h-156v260zM164 853h126v-118h-126v118zM354 853h126v-118h-126v118z" />
    <glyph glyph-name="alphatonos" unicode="&#x3ac;" horiz-adv-x="642" 
d="M122 2.5q-41 12.5 -56.5 47.5t-15.5 109v183q0 82 45 117t153 35q48 0 75.5 -5.5t44.5 -19t35 -39.5l5 54h135l1 -352q0 -32 10.5 -41t42.5 -9h15v-85q-29 -4 -60 -4q-64 0 -97.5 15t-45.5 52q-25 -39 -58.5 -54.5t-101.5 -15.5q-86 0 -127 12.5zM359 86q23 5 31 18.5
t8 40.5v195q0 25 -9 38.5t-31.5 19.5t-65.5 6q-45 0 -64.5 -5.5t-25.5 -19t-6 -44.5v-185q0 -28 6.5 -42.5t25.5 -20.5t59 -6q49 0 72 5zM252 710h159l-99 -157h-94z" />
    <glyph glyph-name="epsilontonos" unicode="&#x3ad;" horiz-adv-x="477" 
d="M119.5 2q-48.5 12 -71.5 42t-23 86v23q0 41 21.5 67.5t66.5 42.5q-30 8 -51 28t-21 55v21q0 49 22.5 76.5t70.5 39t128 11.5q94 0 170 -18l-1 -94q-98 22 -159 22q-44 0 -68 -10t-24 -38v-16q0 -23 21 -34t57 -11h109v-91h-109q-46 0 -68.5 -10.5t-22.5 -37.5v-22
q0 -31 26 -42.5t78 -11.5q45 0 81.5 5t86.5 18v-95q-45 -10 -86.5 -14t-100.5 -4q-84 0 -132.5 12zM247 710h159l-99 -157h-94z" />
    <glyph glyph-name="etatonos" unicode="&#x3ae;" horiz-adv-x="595" 
d="M64 484h144v-59q17 69 155 69q93 0 130.5 -33.5t37.5 -105.5v-563h-146v544q0 28 -5.5 42t-22 20t-50.5 6q-43 0 -63 -5.5t-27 -19.5t-7 -43v-336h-146v484zM252 710h159l-99 -157h-94z" />
    <glyph glyph-name="iotatonos" unicode="&#x3af;" horiz-adv-x="363" 
d="M113.5 23.5q-49.5 33.5 -49.5 117.5v343h146v-318q0 -35 6 -52.5t23 -25t52 -7.5q14 0 52 5v-91q-47 -5 -81 -5q-99 0 -148.5 33.5zM123 710h159l-99 -157h-94z" />
    <glyph glyph-name="upsilondieresistonos" unicode="&#x3b0;" horiz-adv-x="596" 
d="M156 17.5q-51 17.5 -71.5 49.5t-20.5 82v335h146v-335q0 -40 18.5 -54t69.5 -14t69.5 14t18.5 54v335h146v-335q0 -50 -20.5 -82t-71.5 -49.5t-142 -17.5t-142 17.5zM253 710h159l-79 -157h-94zM82 683h126v-118h-126v118zM420 683h126v-118h-126v118z" />
    <glyph glyph-name="alpha" unicode="&#x3b1;" horiz-adv-x="642" 
d="M122 2.5q-41 12.5 -56.5 47.5t-15.5 109v183q0 82 45 117t153 35q48 0 75.5 -5.5t44.5 -19t35 -39.5l5 54h135l1 -352q0 -32 10.5 -41t42.5 -9h15v-85q-29 -4 -60 -4q-64 0 -97.5 15t-45.5 52q-25 -39 -58.5 -54.5t-101.5 -15.5q-86 0 -127 12.5zM359 86q23 5 31 18.5
t8 40.5v195q0 25 -9 38.5t-31.5 19.5t-65.5 6q-45 0 -64.5 -5.5t-25.5 -19t-6 -44.5v-185q0 -28 6.5 -42.5t25.5 -20.5t59 -6q49 0 72 5z" />
    <glyph glyph-name="beta" unicode="&#x3b2;" horiz-adv-x="629" 
d="M64 535q0 67 25.5 104.5t79.5 54t146 16.5q127 0 181 -34t54 -105v-100q0 -31 -21.5 -56t-50.5 -34v-5q48 -10 74.5 -35t26.5 -61v-115q0 -68 -23 -106t-67.5 -53.5t-117.5 -15.5q-48 0 -77.5 3t-52.5 15.5t-31 40.5v-257h-146v743zM383 84q21 3 35.5 16.5t14.5 41.5v117
q0 32 -21 46t-68 14h-77v98h59q84 0 84 58v83q0 36 -21 49t-74 13q-43 0 -64.5 -5.5t-31 -19.5t-9.5 -43v-390q0 -36 8 -52.5t31.5 -22.5t76.5 -6q36 0 57 3z" />
    <glyph glyph-name="gamma" unicode="&#x3b3;" horiz-adv-x="510" 
d="M331 15v-193h-146v178l-185 484h155l104 -316l104 316h147z" />
    <glyph glyph-name="delta" unicode="&#x3b4;" horiz-adv-x="573" 
d="M111.5 29q-61.5 39 -61.5 144v114q0 60 18 92t47 45t76 20q-51 16 -78 47t-27 74v18q0 66 52 96t171 30q31 0 86.5 -2.5t89.5 -6.5v-91q-85 12 -176 12q-56 0 -82.5 -9.5t-26.5 -34.5v-13q0 -26 22.5 -39t76.5 -24l33 -7q80 -17 121 -44.5t54.5 -65t14.5 -95.5l1 -124
q1 -101 -59.5 -138t-172.5 -37q-118 0 -179.5 39zM366.5 94q20.5 13 20.5 50v182q0 37 -24.5 52.5t-72.5 15.5q-54 0 -79 -15.5t-25 -52.5v-182q0 -36 24 -49.5t81 -13.5q55 0 75.5 13z" />
    <glyph glyph-name="epsilon" unicode="&#x3b5;" horiz-adv-x="477" 
d="M119.5 2q-48.5 12 -71.5 42t-23 86v23q0 41 21.5 67.5t66.5 42.5q-30 8 -51 28t-21 55v21q0 49 22.5 76.5t70.5 39t128 11.5q94 0 170 -18l-1 -94q-98 22 -159 22q-44 0 -68 -10t-24 -38v-16q0 -23 21 -34t57 -11h109v-91h-109q-46 0 -68.5 -10.5t-22.5 -37.5v-22
q0 -31 26 -42.5t78 -11.5q45 0 81.5 5t86.5 18v-95q-45 -10 -86.5 -14t-100.5 -4q-84 0 -132.5 12z" />
    <glyph glyph-name="zeta" unicode="&#x3b6;" horiz-adv-x="496" 
d="M339 -187q2 5 7 22t8 32.5t3 30.5q0 24 -12 36.5t-40 12.5h-2q-253 0 -253 178v78q0 74 5 115.5t26.5 80.5t69.5 81l140 123h-236v96h415v-103l-150 -126q-62 -52 -88.5 -93.5t-31 -73t-4.5 -96.5v-75q0 -45 26.5 -62.5t80.5 -17.5h39q66 0 101 -32.5t35 -77.5
q0 -65 -34 -130z" />
    <glyph glyph-name="eta" unicode="&#x3b7;" horiz-adv-x="595" 
d="M64 484h144v-59q17 69 155 69q93 0 130.5 -33.5t37.5 -105.5v-563h-146v544q0 28 -5.5 42t-22 20t-50.5 6q-43 0 -63 -5.5t-27 -19.5t-7 -43v-336h-146v484z" />
    <glyph glyph-name="theta" unicode="&#x3b8;" horiz-adv-x="612" 
d="M445 694q52 -16 79.5 -60.5t27.5 -128.5v-319q0 -78 -28.5 -121t-81.5 -59t-136 -16q-82 0 -135 16t-82 58.5t-29 121.5v319q0 83 30 128t82.5 61t133.5 16q87 0 139 -16zM244 612q-21 -8 -29.5 -27.5t-8.5 -56.5v-124h200v124q0 37 -8.5 56.5t-29.5 27.5t-62 8t-62 -8z
M369 88.5q21 7.5 29 25.5t8 55v145h-200v-145q0 -37 8 -55t29 -25.5t63 -7.5t63 7.5z" />
    <glyph glyph-name="iota" unicode="&#x3b9;" horiz-adv-x="363" 
d="M113.5 23.5q-49.5 33.5 -49.5 117.5v343h146v-318q0 -35 6 -52.5t23 -25t52 -7.5q14 0 52 5v-91q-47 -5 -81 -5q-99 0 -148.5 33.5z" />
    <glyph glyph-name="kappa" unicode="&#x3ba;" horiz-adv-x="540" 
d="M64 484h146v-484h-146v484zM216 272l159 212h167l-168 -211l182 -273h-165z" />
    <glyph glyph-name="lambda" unicode="&#x3bb;" horiz-adv-x="547" 
d="M397 0l-114 305l-104 -305h-159l197 469l-47 113q-10 25 -22 32t-41 7h-15v85q29 4 60 4q62 0 92.5 -14.5t45.5 -52.5l257 -643h-150z" />
    <glyph glyph-name="uni03BC" unicode="&#x3bc;" horiz-adv-x="629" 
d="M64 485h146v-336q0 -28 5.5 -42t22 -20t50.5 -6q43 0 63 5.5t27 19.5t7 43v335h146v-352q0 -32 10.5 -41t42.5 -9h15v-85q-29 -4 -60 -4q-64 0 -97.5 15t-45.5 52q-14 -32 -50.5 -51t-81.5 -19q-20 0 -31 2.5t-23 7.5v-208h-146v693z" />
    <glyph glyph-name="nu" unicode="&#x3bd;" horiz-adv-x="510" 
d="M0 484h155l106 -335l102 335h147l-178 -484h-148z" />
    <glyph glyph-name="xi" unicode="&#x3be;" horiz-adv-x="536" 
d="M386 -165q5 17 8 32.5t3 30.5q0 24 -12 36.5t-40 12.5h-42q-253 0 -253 170v113q0 96 101 117v5q-34 9 -57.5 34t-23.5 56l-1 134q0 56 24.5 84.5t76 38.5t144.5 10q37 0 162 -9v-93q-81 12 -146 12q-47 0 -69.5 -3.5t-36 -18.5t-13.5 -48l-1 -99q0 -58 84 -58h147v-97
h-156q-47 0 -68 -14t-21 -46v-103q0 -45 26.5 -62.5t80.5 -17.5h79q66 0 101 -32.5t35 -77.5q0 -65 -34 -130l-105 1q2 5 7 22z" />
    <glyph glyph-name="omicron" unicode="&#x3bf;" horiz-adv-x="592" 
d="M222 -7q-29 3 -62 12q-36 10 -58 28.5t-37 52.5q-15 33 -15 80v143q0 48 15 84t39 56q21 17 55.5 28.5t67.5 14.5q38 2 69 2q46 0 73.5 -2.5t60.5 -12.5q36 -11 58.5 -30t38.5 -54q15 -36 15 -86v-143q0 -45 -14.5 -79t-37.5 -53q-20 -17 -54.5 -27.5t-67.5 -13.5
q-30 -3 -72 -3q-45 0 -74 3zM358 87.5q21 6.5 29.5 20.5t8.5 41v183q0 40 -21 56t-79 16t-79 -16t-21 -56v-183q0 -27 8.5 -41t29.5 -20.5t62 -6.5t62 6.5z" />
    <glyph glyph-name="pi" unicode="&#x3c0;" horiz-adv-x="681" 
d="M465.5 6.5q-32.5 13.5 -46.5 46t-14 94.5v242h-144v-389h-146v389h-85v95h611v-95h-90v-257q0 -32 10.5 -41t42.5 -9h35v-85q-29 -4 -80 -4q-61 0 -93.5 13.5z" />
    <glyph glyph-name="rho" unicode="&#x3c1;" horiz-adv-x="596" 
d="M54 303q0 70 24.5 111.5t79 60.5t147.5 19q97 0 150 -23.5t72 -65.5t19 -106v-127q0 -95 -54 -138.5t-167 -43.5q-57 0 -86.5 12t-38.5 47v-257h-146v511zM364 87q21 6 28.5 21t7.5 45v179q0 25 -6.5 40t-28.5 23.5t-66 8.5q-41 0 -62.5 -7t-29 -22t-7.5 -43v-179
q0 -30 7.5 -45t28.5 -21t64 -6t64 6z" />
    <glyph glyph-name="uni03C2" unicode="&#x3c2;" horiz-adv-x="496" 
d="M339 -187q2 5 7 22t8 32.5t3 30.5q0 24 -12 36.5t-40 12.5h-2q-239 0 -253 158v213q0 69 25 107t79 53t150 15q65 0 153 -17v-96q-103 24 -158 24q-101 0 -101 -68l-2 -205q0 -45 26.5 -62t80.5 -17h39q66 0 101 -32.5t35 -77.5q0 -65 -34 -130z" />
    <glyph glyph-name="sigma" unicode="&#x3c3;" horiz-adv-x="654" 
d="M111 30q-61 40 -61 142v122q0 106 62 148t184 42h318v-95h-114q20 -18 31 -42t11 -48v-133q0 -101 -62 -138.5t-184 -37.5q-124 0 -185 40zM358 87.5q21 6.5 29.5 20.5t8.5 41v164q0 40 -21 56t-79 16q-56 0 -78 -16t-22 -56v-164q0 -36 21 -52t79 -16q41 0 62 6.5z" />
    <glyph glyph-name="tau" unicode="&#x3c4;" horiz-adv-x="487" 
d="M207.5 23.5q-49.5 33.5 -49.5 117.5v248h-138v95h437v-95h-153v-223q0 -35 6 -52.5t23 -25t52 -7.5q14 0 52 5v-91q-47 -5 -81 -5q-99 0 -148.5 33.5z" />
    <glyph glyph-name="upsilon" unicode="&#x3c5;" horiz-adv-x="596" 
d="M156 17.5q-51 17.5 -71.5 49.5t-20.5 82v335h146v-335q0 -40 18.5 -54t69.5 -14t69.5 14t18.5 54v335h146v-335q0 -50 -20.5 -82t-71.5 -49.5t-142 -17.5t-142 17.5z" />
    <glyph glyph-name="phi" unicode="&#x3c6;" horiz-adv-x="762" 
d="M310 -8q-82 0 -135 10t-89 48.5t-36 117.5v139q0 78 32.5 118t87.5 53t140 14v132h141v-132q85 -1 140 -14t88 -53t33 -118v-139q0 -79 -36 -117.5t-89.5 -48.5t-135.5 -10v-200h-141v200zM315 403q-49 -1 -74.5 -9t-35.5 -26t-10 -52v-147q0 -35 10 -53.5t35 -26
t75 -7.5v321zM521 89.5q26 7.5 36 26t10 53.5v147q0 34 -10.5 52t-36 26t-74.5 9v-321q49 0 75 7.5z" />
    <glyph glyph-name="chi" unicode="&#x3c7;" horiz-adv-x="591" 
d="M407 -208l-115 222l-112 -222h-159l204 345l-205 347h169l113 -222l112 222h159l-205 -345l208 -347h-169z" />
    <glyph glyph-name="psi" unicode="&#x3c8;" horiz-adv-x="772" 
d="M708 484v-315q0 -77 -56 -123t-186 -46h-7v-207h-146v207h-7q-130 0 -186 46t-56 123v315h146v-315q0 -41 24 -64.5t72 -23.5h7v533h146v-533h7q48 0 72 23.5t24 64.5v315h146z" />
    <glyph glyph-name="omega" unicode="&#x3c9;" horiz-adv-x="815" 
d="M128.5 12.5q-42.5 22.5 -60.5 70t-18 126.5q0 98 10 152.5t44 122.5h144q-23 -57 -32.5 -87t-14.5 -74.5t-5 -120.5q0 -68 16 -94.5t54 -26.5q27 0 41.5 7t22 31t7.5 73v196h141v-196q0 -49 7.5 -73t22 -31t41.5 -7q38 0 54 26.5t16 94.5q0 76 -5 120.5t-14.5 74.5
t-32.5 87h144q34 -68 44 -122.5t10 -152.5q0 -79 -18 -126.5t-60.5 -70t-117.5 -22.5q-70 0 -104.5 20t-57.5 69q-23 -49 -57 -69t-104 -20q-75 0 -117.5 22.5z" />
    <glyph glyph-name="iotadieresis" unicode="&#x3ca;" horiz-adv-x="363" 
d="M113.5 23.5q-49.5 33.5 -49.5 117.5v343h146v-318q0 -35 6 -52.5t23 -25t52 -7.5q14 0 52 5v-91q-47 -5 -81 -5q-99 0 -148.5 33.5zM-19 683h126v-118h-126v118zM171 683h126v-118h-126v118z" />
    <glyph glyph-name="upsilondieresis" unicode="&#x3cb;" horiz-adv-x="596" 
d="M156 17.5q-51 17.5 -71.5 49.5t-20.5 82v335h146v-335q0 -40 18.5 -54t69.5 -14t69.5 14t18.5 54v335h146v-335q0 -50 -20.5 -82t-71.5 -49.5t-142 -17.5t-142 17.5zM140 683h126v-118h-126v118zM330 683h126v-118h-126v118z" />
    <glyph glyph-name="omicrontonos" unicode="&#x3cc;" horiz-adv-x="592" 
d="M222 -7q-29 3 -62 12q-36 10 -58 28.5t-37 52.5q-15 33 -15 80v143q0 48 15 84t39 56q21 17 55.5 28.5t67.5 14.5q38 2 69 2q46 0 73.5 -2.5t60.5 -12.5q36 -11 58.5 -30t38.5 -54q15 -36 15 -86v-143q0 -45 -14.5 -79t-37.5 -53q-20 -17 -54.5 -27.5t-67.5 -13.5
q-30 -3 -72 -3q-45 0 -74 3zM358 87.5q21 6.5 29.5 20.5t8.5 41v183q0 40 -21 56t-79 16t-79 -16t-21 -56v-183q0 -27 8.5 -41t29.5 -20.5t62 -6.5t62 6.5zM282 710h159l-99 -157h-94z" />
    <glyph glyph-name="upsilontonos" unicode="&#x3cd;" horiz-adv-x="596" 
d="M156 17.5q-51 17.5 -71.5 49.5t-20.5 82v335h146v-335q0 -40 18.5 -54t69.5 -14t69.5 14t18.5 54v335h146v-335q0 -50 -20.5 -82t-71.5 -49.5t-142 -17.5t-142 17.5zM282 710h159l-99 -157h-94z" />
    <glyph glyph-name="omegatonos" unicode="&#x3ce;" horiz-adv-x="815" 
d="M128.5 12.5q-42.5 22.5 -60.5 70t-18 126.5q0 98 10 152.5t44 122.5h144q-23 -57 -32.5 -87t-14.5 -74.5t-5 -120.5q0 -68 16 -94.5t54 -26.5q27 0 41.5 7t22 31t7.5 73v196h141v-196q0 -49 7.5 -73t22 -31t41.5 -7q38 0 54 26.5t16 94.5q0 76 -5 120.5t-14.5 74.5
t-32.5 87h144q34 -68 44 -122.5t10 -152.5q0 -79 -18 -126.5t-60.5 -70t-117.5 -22.5q-70 0 -104.5 20t-57.5 69q-23 -49 -57 -69t-104 -20q-75 0 -117.5 22.5zM389 710h159l-99 -157h-94z" />
    <glyph glyph-name="uni03CF" unicode="&#x3cf;" horiz-adv-x="682" 
d="M70 649h156v-649h-156v649zM473 649h183l-246 -302l273 -347l-185 -208h-212l207 208l-263 344z" />
    <glyph glyph-name="uni03D7" unicode="&#x3d7;" horiz-adv-x="540" 
d="M64 484h146v-484h-146v484zM375 484h167l-168 -211l182 -273l-185 -208h-167l198 199l-186 281z" />
    <glyph glyph-name="uni0400" unicode="&#x400;" horiz-adv-x="610" 
d="M70 649h495v-111h-339v-149h306v-111h-306v-167h349v-111h-505v649zM169 840h159l90 -127h-124z" />
    <glyph glyph-name="uni0401" unicode="&#x401;" horiz-adv-x="610" 
d="M70 649h495v-111h-339v-149h306v-111h-306v-167h349v-111h-505v649zM177 853h126v-118h-126v118zM367 853h126v-118h-126v118z" />
    <glyph glyph-name="uni0402" unicode="&#x402;" horiz-adv-x="759" 
d="M439 0v114q42 -10 61 -10q39 0 53.5 24t14.5 75q0 99 -85 99q-42 0 -82 -13t-65 -33v-256h-156v538h-160v111h555v-111h-239v-163q88 45 191 45q87 0 139.5 -54.5t52.5 -158.5q0 -105 -51.5 -161t-154.5 -56q-41 0 -74 10z" />
    <glyph glyph-name="uni0403" unicode="&#x403;" horiz-adv-x="523" 
d="M70 649h433v-111h-277v-538h-156v649zM365 840h159l-125 -127h-124z" />
    <glyph glyph-name="uni0404" unicode="&#x404;" horiz-adv-x="597" 
d="M149 27.5q-93 37.5 -93 150.5v285q0 196 301 196q77 0 206 -22v-117q-116 28 -204 28q-45 0 -74.5 -4.5t-51 -22.5t-21.5 -56v-76h268v-111h-268v-89q0 -88 161 -88q69 0 194 29v-118q-107 -22 -210 -22q-115 0 -208 37.5z" />
    <glyph glyph-name="uni0405" unicode="&#x405;" horiz-adv-x="606" 
d="M50 8v119q170 -26 232 -26q130 0 130 67v42q0 32 -18.5 49t-66.5 17h-76q-214 0 -214 170v48q0 85 71 125t225 40q80 0 203 -13v-116q-151 18 -208 18q-79 0 -106 -13q-29 -14 -29 -44v-46q0 -51 86 -51h78q111 0 161 -41t50 -125v-43q0 -116 -83 -157
q-40 -21 -88.5 -29.5t-116.5 -8.5q-93 0 -230 18z" />
    <glyph glyph-name="uni0406" unicode="&#x406;" horiz-adv-x="296" 
d="M70 649h156v-649h-156v649z" />
    <glyph glyph-name="uni0407" unicode="&#x407;" horiz-adv-x="296" 
d="M70 649h156v-649h-156v649zM-10 853h126v-118h-126v118zM180 853h126v-118h-126v118z" />
    <glyph glyph-name="uni0408" unicode="&#x408;" horiz-adv-x="445" 
d="M19 0v114q71 -13 123 -13q79 0 79 71v477h156v-472q0 -102 -55 -144.5t-168 -42.5q-68 0 -135 10z" />
    <glyph glyph-name="uni0409" unicode="&#x409;" horiz-adv-x="1074" 
d="M70 -4.5q-18 3.5 -26 4.5v122q22 -3 37 -3q50 0 77 28.5t39.5 113.5t12.5 258v130h472v-238h86q92 0 147 -8.5t87 -38t32 -88.5v-122q0 -154 -262 -154h-246v539h-175v-90q0 -185 -33.5 -286t-87 -136t-126.5 -35q-16 0 -34 3.5zM765 111q59 0 86 16.5t27 50.5v69
q0 31 -26 42t-85 11h-86v-189h84z" />
    <glyph glyph-name="uni040A" unicode="&#x40a;" horiz-adv-x="1050" 
d="M70 649h156v-260h276v260h156v-238h86q92 0 147 -8.5t87 -38t32 -88.5v-122q0 -154 -262 -154h-246v278h-276v-278h-156v649zM741 111q59 0 86 16.5t27 50.5v69q0 31 -26 42t-85 11h-86v-189h84z" />
    <glyph glyph-name="uni040B" unicode="&#x40b;" horiz-adv-x="779" 
d="M180 538h-160v111h555v-111h-239v-163q88 45 191 45q82 0 138.5 -42.5t56.5 -144.5v-233h-154v221q0 48 -23.5 64.5t-61.5 16.5q-42 0 -82 -13t-65 -33v-256h-156v538z" />
    <glyph glyph-name="uni040C" unicode="&#x40c;" horiz-adv-x="655" 
d="M70 649h156v-256q44 0 71 16.5t59 63.5l122 176h175l-140 -195q-32 -45 -58.5 -68.5t-65.5 -38.5v-2q50 -12 83.5 -43t65.5 -90l115 -212h-175l-106 191q-21 38 -40.5 57.5t-43.5 26.5t-62 7v-282h-156v649zM378 840h159l-125 -127h-124z" />
    <glyph glyph-name="uni040D" unicode="&#x40d;" horiz-adv-x="732" 
d="M70 649h156v-444l280 444h156v-649h-156v451l-280 -451h-156v649zM200 840h159l90 -127h-124z" />
    <glyph glyph-name="uni040E" unicode="&#x40e;" horiz-adv-x="608" 
d="M77 0v114q21 -5 41.5 -9t39.5 -4q28 0 47.5 13.5t33.5 41.5l14 29l-251 464h163l163 -326h4l129 326h157l-235 -521q-32 -72 -81 -105t-138 -33q-36 0 -87 10zM170 761.5q-51 43.5 -51 113.5h125q5 -43 22.5 -61t53.5 -18t53.5 18t22.5 61h125q0 -70 -51 -113.5
t-150 -43.5t-150 43.5z" />
    <glyph glyph-name="uni040F" unicode="&#x40f;" horiz-adv-x="712" 
d="M286 0h-216v649h156v-539h260v539h156v-649h-216v-168h-140v168z" />
    <glyph glyph-name="uni0410" unicode="&#x410;" horiz-adv-x="668" 
d="M242 649h190l234 -649h-158l-58 171h-237l-57 -171h-154zM416 275l-82 244h-4l-82 -244h168z" />
    <glyph glyph-name="uni0411" unicode="&#x411;" horiz-adv-x="618" 
d="M70 649h461v-111h-305v-147h97q90 0 144 -10.5t82.5 -40t28.5 -84.5v-102q0 -154 -262 -154h-246v649zM309 111q59 0 86 16.5t27 50.5v49q0 31 -26 42t-85 11h-86v-169h84z" />
    <glyph glyph-name="uni0412" unicode="&#x412;" horiz-adv-x="635" 
d="M70 649h263q93 0 143.5 -13.5t71.5 -43t21 -82.5v-80q0 -27 -21.5 -51t-50.5 -33v-5q38 -4 69.5 -32.5t31.5 -63.5v-100q0 -79 -63 -112t-195 -33h-270v649zM333 385q37 0 55 6t24.5 19.5t6.5 39.5v32q0 23 -6 34.5t-24.5 16.5t-58.5 5h-104v-153h107zM337 111
q57 0 81 13t24 42v52q0 36 -18.5 51t-65.5 15h-132v-173h111z" />
    <glyph glyph-name="uni0413" unicode="&#x413;" horiz-adv-x="523" 
d="M70 649h433v-111h-277v-538h-156v649z" />
    <glyph glyph-name="uni0414" unicode="&#x414;" horiz-adv-x="738" 
d="M15 111h14q41 0 66.5 31.5t39.5 115.5t14 238v153h472v-538h95v-262h-140v151h-421v-151h-140v262zM465 110v429h-176v-80q0 -253 -65 -349h241z" />
    <glyph glyph-name="uni0415" unicode="&#x415;" horiz-adv-x="610" 
d="M70 649h495v-111h-339v-149h306v-111h-306v-167h349v-111h-505v649z" />
    <glyph glyph-name="uni0416" unicode="&#x416;" horiz-adv-x="979" 
d="M120 212q32 59 65.5 90t83.5 43v2q-39 15 -62 37.5t-53 69.5l-124 195h173l107 -176q30 -49 50.5 -66t52.5 -17v259h153v-259q32 0 52.5 17t50.5 66l107 176h173l-124 -195q-30 -47 -53 -69.5t-62 -37.5v-2q50 -12 83.5 -43t65.5 -90l115 -212h-173l-106 191
q-23 42 -38 60.5t-35 26t-56 7.5v-285h-153v285q-36 0 -56 -7.5t-35 -26t-38 -60.5l-106 -191h-173z" />
    <glyph glyph-name="uni0417" unicode="&#x417;" horiz-adv-x="570" 
d="M30 12v118q70 -16 115 -22.5t98 -6.5q76 0 105 15.5t29 49.5v63q0 31 -30.5 40t-96.5 9h-129v111h129q44 0 66 6t30 17.5t8 33.5v51q0 31 -24 41t-87 10q-83 0 -200 -29v117q122 23 229 23q126 0 182 -28.5t56 -98.5v-104q0 -29 -20 -50.5t-48 -28.5v-3q91 -26 91 -97
v-105q0 -77 -67.5 -115.5t-198.5 -38.5q-134 0 -237 22z" />
    <glyph glyph-name="uni0418" unicode="&#x418;" horiz-adv-x="732" 
d="M70 649h156v-444l280 444h156v-649h-156v451l-280 -451h-156v649z" />
    <glyph glyph-name="uni0419" unicode="&#x419;" horiz-adv-x="732" 
d="M70 649h156v-444l280 444h156v-649h-156v451l-280 -451h-156v649zM217 761.5q-51 43.5 -51 113.5h125q5 -43 22.5 -61t53.5 -18t53.5 18t22.5 61h125q0 -70 -51 -113.5t-150 -43.5t-150 43.5z" />
    <glyph glyph-name="uni041A" unicode="&#x41a;" horiz-adv-x="655" 
d="M70 649h156v-256q44 0 71 16.5t59 63.5l122 176h175l-140 -195q-32 -45 -58.5 -68.5t-65.5 -38.5v-2q50 -12 83.5 -43t65.5 -90l115 -212h-175l-106 191q-21 38 -40.5 57.5t-43.5 26.5t-62 7v-282h-156v649z" />
    <glyph glyph-name="uni041B" unicode="&#x41b;" horiz-adv-x="752" 
d="M70 -4.5q-18 3.5 -26 4.5v122q22 -3 37 -3q50 0 77 28.5t39.5 113.5t12.5 258v130h472v-649h-156v539h-175v-90q0 -185 -33.5 -286t-87 -136t-126.5 -35q-16 0 -34 3.5z" />
    <glyph glyph-name="uni041C" unicode="&#x41c;" horiz-adv-x="889" 
d="M70 649h222l160 -464l158 464h209v-649h-141v480h-3l-164 -480h-125l-169 480h-4v-480h-143v649z" />
    <glyph glyph-name="uni041D" unicode="&#x41d;" horiz-adv-x="728" 
d="M70 649h156v-260h276v260h156v-649h-156v278h-276v-278h-156v649z" />
    <glyph glyph-name="uni041E" unicode="&#x41e;" horiz-adv-x="728" 
d="M263.5 -3q-45.5 7 -94.5 24q-53 18 -83 58.5t-30 98.5v284q0 48 21.5 86t55.5 60q30 19 74 32t82 16q35 3 74 3q46 0 80 -3.5t76 -14.5q48 -14 79 -34t52 -56q22 -37 22 -89v-284q0 -54 -28.5 -93t-78.5 -59q-90 -36 -202 -36q-54 0 -99.5 7zM420.5 103.5
q22.5 2.5 46.5 9.5t36.5 23.5t12.5 41.5v285q0 46 -37 65.5t-115 19.5t-115 -19t-37 -66v-285q0 -25 13 -41.5t38 -23.5q24 -7 46.5 -9.5t55.5 -2.5t55.5 2.5z" />
    <glyph glyph-name="uni041F" unicode="&#x41f;" horiz-adv-x="712" 
d="M70 649h572v-649h-156v539h-260v-539h-156v649z" />
    <glyph glyph-name="uni0420" unicode="&#x420;" horiz-adv-x="627" 
d="M70 649h260q95 0 150.5 -13t81 -45.5t25.5 -90.5v-123q0 -64 -27.5 -100t-87 -51t-160.5 -15h-86v-211h-156v649zM325 318q61 0 86 14.5t25 49.5v104q0 32 -24 42q-23 10 -89 10h-97v-220h99z" />
    <glyph glyph-name="uni0421" unicode="&#x421;" horiz-adv-x="597" 
d="M278.5 -6q-34.5 4 -75.5 15q-46 12 -76 31.5t-50 54.5q-21 35 -21 83v285q0 196 301 196q77 0 206 -22v-117q-116 28 -204 28q-37 0 -57.5 -2t-42.5 -10q-47 -16 -47 -71v-276q0 -88 161 -88q69 0 194 29v-118q-107 -22 -210 -22q-44 0 -78.5 4z" />
    <glyph glyph-name="uni0422" unicode="&#x422;" horiz-adv-x="595" 
d="M220 538h-200v111h555v-111h-199v-538h-156v538z" />
    <glyph glyph-name="uni0423" unicode="&#x423;" horiz-adv-x="608" 
d="M77 0v114q21 -5 41.5 -9t39.5 -4q28 0 47.5 13.5t33.5 41.5l14 29l-251 464h163l163 -326h4l129 326h157l-235 -521q-32 -72 -81 -105t-138 -33q-36 0 -87 10z" />
    <glyph glyph-name="uni0424" unicode="&#x424;" horiz-adv-x="774" 
d="M310 75q-109 0 -183 45.5t-74 139.5v158q0 100 75 146.5t182 46.5v83h154v-83q106 0 181.5 -47t75.5 -146v-158q0 -60 -36 -102t-94.5 -62.5t-126.5 -20.5v-85h-154v85zM312 508q-45 0 -74 -22t-29 -58v-176q0 -34 29.5 -53.5t73.5 -19.5v329zM535.5 198q29.5 20 29.5 54
v176q0 36 -29 58t-74 22v-330q44 0 73.5 20z" />
    <glyph glyph-name="uni0425" unicode="&#x425;" horiz-adv-x="677" 
d="M249 331l-229 318h180l139 -216l138 216h180l-229 -318l240 -331h-181l-148 230l-149 -230h-180z" />
    <glyph glyph-name="uni0426" unicode="&#x426;" horiz-adv-x="726" 
d="M564 0h-494v649h156v-539h226v539h156v-538h96v-262h-140v151z" />
    <glyph glyph-name="uni0427" unicode="&#x427;" horiz-adv-x="669" 
d="M443 248q-80 -45 -191 -45q-82 0 -138.5 42.5t-56.5 144.5v259h154v-247q0 -48 23.5 -64.5t61.5 -16.5q42 0 82 13t65 33v282h156v-649h-156v248z" />
    <glyph glyph-name="uni0428" unicode="&#x428;" horiz-adv-x="1016" 
d="M70 649h156v-539h204v539h156v-539h204v539h156v-649h-876v649z" />
    <glyph glyph-name="uni0429" unicode="&#x429;" horiz-adv-x="1064" 
d="M902 0h-832v649h156v-539h204v539h156v-539h204v539h156v-538h96v-262h-140v151z" />
    <glyph glyph-name="uni042A" unicode="&#x42a;" horiz-adv-x="767" 
d="M219 538h-199v111h355v-238h78q97 0 153.5 -9t88.5 -38.5t32 -88.5v-121q0 -154 -262 -154h-246v538zM458 111q59 0 86 16.5t27 50.5v68q0 31 -26 42t-85 11h-86v-188h84z" />
    <glyph glyph-name="uni042B" unicode="&#x42b;" horiz-adv-x="896" 
d="M70 649h156v-238h82q89 0 144 -9t87 -38.5t32 -87.5v-122q0 -154 -262 -154h-239v649zM670 649h156v-649h-156v649zM302 111q59 0 86 16.5t27 50.5v69q0 31 -26 42t-85 11h-79v-189h77z" />
    <glyph glyph-name="uni042C" unicode="&#x42c;" horiz-adv-x="618" 
d="M70 649h156v-238h78q96 0 152.5 -8.5t89 -38t32.5 -88.5v-122q0 -154 -262 -154h-246v649zM309 111q59 0 86 16.5t27 50.5v69q0 31 -26 42t-85 11h-86v-189h84z" />
    <glyph glyph-name="uni042D" unicode="&#x42d;" horiz-adv-x="597" 
d="M30 12v118q125 -29 194 -29q161 0 161 88v89h-267v111h267v76q0 38 -22 56t-52 22.5t-76 4.5q-70 0 -195 -29v117q123 23 210 23q100 0 161 -13.5t95.5 -56t34.5 -126.5v-285q0 -46 -20 -81.5t-52 -56.5q-42 -27 -103 -38.5t-126 -11.5q-103 0 -210 22z" />
    <glyph glyph-name="uni042E" unicode="&#x42e;" horiz-adv-x="1018" 
d="M445 30.5q-89 40.5 -89 147.5v100h-130v-278h-156v649h156v-260h130v73q0 118 92 157.5t210 39.5q122 0 213 -41t91 -156v-284q0 -101 -90 -144.5t-214 -43.5t-213 40.5zM768.5 116.5q37.5 15.5 37.5 61.5v285q0 46 -35 65.5t-112 19.5q-78 0 -112.5 -19t-34.5 -66v-285
q0 -45 38.5 -61t109.5 -16t108.5 15.5z" />
    <glyph glyph-name="uni042F" unicode="&#x42f;" horiz-adv-x="668" 
d="M190 252q-63 8 -94 40t-31 91v129q0 74 58 105.5t188 31.5h287v-649h-156v240h-92l-152 -240h-178zM442 343v195h-129q-52 0 -73.5 -13.5t-21.5 -49.5v-61q0 -42 20 -56.5t75 -14.5h129z" />
    <glyph glyph-name="uni0430" unicode="&#x430;" horiz-adv-x="564" 
d="M99.5 2.5q-33.5 12.5 -47 45t-13.5 97.5q0 58 14.5 91t47 47.5t89.5 14.5h164v33q0 31 -8.5 46t-31 21t-67.5 6q-62 0 -170 -12v92q79 10 185 10q93 0 143.5 -14t72.5 -48t22 -99v-333h-143v44q-17 -29 -46 -41q-29 -13 -110 -13q-68 0 -101.5 12.5zM321 84q14 2 19.5 6
t9.5 13q4 7 4 21v94h-100q-34 0 -48 -4.5t-19 -18t-5 -47.5q0 -33 5 -46t19.5 -17t51.5 -4q44 0 63 3z" />
    <glyph glyph-name="uni0431" unicode="&#x431;" horiz-adv-x="595" 
d="M164.5 2q-50.5 12 -79 54.5t-28.5 128.5v203q0 89 28.5 146t77 89t120.5 53l50 13q41 10 90 23.5t84 27.5v-124q-57 -28 -194 -58q-59 -13 -93.5 -30.5t-51.5 -47.5t-17 -79v-54h1q14 59 58 86t138 27q82 0 124.5 -22t57.5 -66t15 -121v-66q0 -71 -20 -112.5t-73 -62
t-151 -20.5q-86 0 -136.5 12zM367 89q20 8 26 24t6 48v124q0 37 -6 53.5t-25 23.5t-62 7q-45 0 -66.5 -8.5t-29 -27t-7.5 -53.5v-119q0 -31 7.5 -47.5t29 -24.5t63.5 -8q44 0 64 8z" />
    <glyph glyph-name="uni0432" unicode="&#x432;" horiz-adv-x="581" 
d="M64 484h268q79 0 119 -13t52.5 -37.5t12.5 -67.5v-17q0 -38 -21.5 -57t-68.5 -29v-4q55 -9 85 -35t30 -67v-29q0 -66 -49 -97t-161 -31h-267v484zM281 293q39 0 58 5t26 15.5t7 31.5v12q0 19 -17.5 29t-76.5 10h-70v-103h73zM284 88q61 0 86 13t25 41v18q0 19 -9.5 29
t-31.5 14t-65 4h-81v-119h76z" />
    <glyph glyph-name="uni0433" unicode="&#x433;" horiz-adv-x="437" 
d="M64 484h353v-96h-207v-388h-146v484z" />
    <glyph glyph-name="uni0434" unicode="&#x434;" horiz-adv-x="611" 
d="M20 96h29q20 0 39.5 27.5t33.5 98t14 189.5v73h376v-388h75v-230h-120v134h-314v-134h-133v230zM366 93v299h-110v-13q0 -101 -15 -174t-43 -112h168z" />
    <glyph glyph-name="uni0435" unicode="&#x435;" horiz-adv-x="559" 
d="M50 147v174q0 91 58.5 132t180.5 41q115 0 168.5 -39.5t53.5 -133.5v-118h-314v-44q0 -42 30 -60t108 -18q72 0 162 21v-93q-89 -19 -190 -19q-257 0 -257 157zM372 286v70q0 24 -19.5 36t-65.5 12q-53 0 -71 -12q-19 -13 -19 -36v-70h175z" />
    <glyph glyph-name="uni0436" unicode="&#x436;" horiz-adv-x="816" 
d="M121 185q36 58 76 77l-161 222h146l111 -172q10 -15 19.5 -21t25.5 -6v199h140v-199q16 0 25.5 6t19.5 21l111 172h146l-161 -222q40 -19 76 -77l116 -185h-162l-95 158q-16 28 -31.5 36t-44.5 8v-202h-140v202q-29 0 -44.5 -8t-31.5 -36l-95 -158h-162z" />
    <glyph glyph-name="uni0437" unicode="&#x437;" horiz-adv-x="500" 
d="M28 7v96q59 -13 96 -17.5t73 -4.5q47 0 71 4t34 15.5t10 33.5v20q0 29 -22.5 39.5t-80.5 10.5h-98v91h98q46 0 61.5 12t15.5 39v9q0 20 -6.5 30t-25 14.5t-57.5 4.5q-37 0 -69.5 -5.5t-86.5 -18.5v96q98 18 188 18q84 0 127 -10t59.5 -33.5t16.5 -68.5v-42q0 -30 -17 -50
t-45 -27v-5q42 -9 65 -33.5t23 -56.5v-41q0 -53 -26.5 -83t-81 -42t-143.5 -12t-179 17z" />
    <glyph glyph-name="uni0438" unicode="&#x438;" horiz-adv-x="611" 
d="M64 484h146v-316l191 316h146v-484h-146v325l-191 -325h-146v484z" />
    <glyph glyph-name="uni0439" unicode="&#x439;" horiz-adv-x="611" 
d="M64 484h146v-316l191 316h146v-484h-146v325l-191 -325h-146v484zM179 583q-47 40 -46 107h103q3 -40 20 -59t50 -19q34 0 50.5 18.5t19.5 59.5h103q2 -66 -45.5 -106.5t-127.5 -40.5t-127 40z" />
    <glyph glyph-name="uni043A" unicode="&#x43a;" horiz-adv-x="563" 
d="M64 484h146v-196q16 0 26 4.5t20 16.5l140 175h152l-194 -224q41 -19 80 -75l129 -185h-168l-107 158q-18 26 -34 33t-44 7v-198h-146v484z" />
    <glyph glyph-name="uni043B" unicode="&#x43b;" horiz-adv-x="610" 
d="M34 -2v108q12 -2 25 -2q37 0 60 23t35.5 90t12.5 194v73h379v-484h-146v391h-111v-12q0 -155 -27 -240t-71 -116t-105 -31q-22 0 -52 6z" />
    <glyph glyph-name="uni043C" unicode="&#x43c;" horiz-adv-x="733" 
d="M64 484h186l118 -334l125 334h176v-484h-132v312h-6l-117 -312h-103l-113 312h-6v-312h-128v484z" />
    <glyph glyph-name="uni043D" unicode="&#x43d;" horiz-adv-x="603" 
d="M64 484h146v-186h183v186h146v-484h-146v202h-183v-202h-146v484z" />
    <glyph glyph-name="uni043E" unicode="&#x43e;" horiz-adv-x="592" 
d="M222 -7q-29 3 -62 12q-36 10 -58 28.5t-37 52.5q-15 33 -15 80v143q0 48 15 84t39 56q21 17 55.5 28.5t67.5 14.5q38 2 69 2q46 0 73.5 -2.5t60.5 -12.5q36 -11 58.5 -30t38.5 -54q15 -36 15 -86v-143q0 -45 -14.5 -79t-37.5 -53q-20 -17 -54.5 -27.5t-67.5 -13.5
q-30 -3 -72 -3q-45 0 -74 3zM358 87.5q21 6.5 29.5 20.5t8.5 41v183q0 40 -21 56t-79 16t-79 -16t-21 -56v-183q0 -27 8.5 -41t29.5 -20.5t62 -6.5t62 6.5z" />
    <glyph glyph-name="uni043F" unicode="&#x43f;" horiz-adv-x="597" 
d="M64 484h469v-484h-146v391h-177v-391h-146v484z" />
    <glyph glyph-name="uni0440" unicode="&#x440;" horiz-adv-x="609" 
d="M64 484h138v-48q13 32 51 45t113 13q63 0 101.5 -10t58.5 -32q19 -22 26 -48.5t7 -72.5v-159q0 -72 -21 -111t-64.5 -55t-118.5 -16q-72 0 -104 12t-41 47v-257h-146v692zM375 87q22 6 30 21t8 45v179q0 33 -7 47.5t-28 19.5t-69 5q-41 0 -62.5 -7t-29 -22t-7.5 -43v-179
q0 -30 7.5 -45t28.5 -21t64 -6t65 6z" />
    <glyph glyph-name="uni0441" unicode="&#x441;" horiz-adv-x="482" 
d="M240 -8.5q-22 1.5 -54 5.5t-52.5 14t-42.5 30q-41 34 -41 116v161q0 66 30 110q11 16 32.5 29.5t43.5 21.5q18 6 48 10t53 5h53q56 0 147 -18v-96q-103 24 -158 24q-101 0 -101 -68v-178q0 -77 111 -77q54 0 155 22v-96q-91 -17 -164 -17q-38 0 -60 1.5z" />
    <glyph glyph-name="uni0442" unicode="&#x442;" horiz-adv-x="506" 
d="M180 388h-160v96h466v-96h-160v-388h-146v388z" />
    <glyph glyph-name="uni0443" unicode="&#x443;" horiz-adv-x="534" 
d="M201 4l-193 480h159l109 -342l99 342h151l-265 -692h-148z" />
    <glyph glyph-name="uni0444" unicode="&#x444;" horiz-adv-x="762" 
d="M311 -8q-82 0 -135.5 10t-89.5 48.5t-36 117.5v139q0 78 33 118t88 53t140 14v208h140v-208q85 -1 140 -14t88 -53t33 -118v-139q0 -79 -36 -117.5t-89.5 -48.5t-135.5 -10v-200h-140v200zM312 403q-49 -1 -73.5 -9t-34 -26t-9.5 -52v-147q0 -36 9 -54t33.5 -25.5
t74.5 -7.5v321zM524 89.5q25 7.5 34 25.5t9 54v147q0 34 -9.5 52t-34.5 26t-73 9v-321q49 0 74 7.5z" />
    <glyph glyph-name="uni0445" unicode="&#x445;" horiz-adv-x="568" 
d="M200 248l-180 236h169l95 -139l96 139h169l-181 -236l191 -248h-169l-106 152l-105 -152h-169z" />
    <glyph glyph-name="uni0446" unicode="&#x446;" horiz-adv-x="608" 
d="M464 0h-400v484h146v-391h153v391h146v-388h75v-230h-120v134z" />
    <glyph glyph-name="uni0447" unicode="&#x447;" horiz-adv-x="560" 
d="M350 214q-20 -70 -148 -70q-86 0 -121 36.5t-35 110.5v193h142v-171q0 -30 4 -46t18.5 -24t45.5 -8q43 0 63 8.5t25.5 24.5t5.5 48v168h146v-484h-146v214z" />
    <glyph glyph-name="uni0448" unicode="&#x448;" horiz-adv-x="832" 
d="M64 484h146v-391h133v391h146v-391h133v391h146v-484h-704v484z" />
    <glyph glyph-name="uni0449" unicode="&#x449;" horiz-adv-x="867" 
d="M723 0h-659v484h146v-391h133v391h146v-391h133v391h146v-388h75v-230h-120v134z" />
    <glyph glyph-name="uni044A" unicode="&#x44a;" horiz-adv-x="665" 
d="M180 388h-160v96h306v-162h56q101 0 150.5 -11t68 -39t18.5 -86v-57q0 -69 -57 -99t-177 -30h-205v388zM378 91q40 0 59 5.5t25 17.5t6 36v27q0 22 -7.5 33.5t-26 15.5t-54.5 4h-56v-139h54z" />
    <glyph glyph-name="uni044B" unicode="&#x44b;" horiz-adv-x="780" 
d="M64 484h146v-162h50q101 0 148.5 -11t65 -38.5t17.5 -86.5v-57q0 -70 -54.5 -99.5t-173.5 -29.5h-199v484zM570 484h146v-484h-146v484zM256 91q40 0 59 5.5t25 17.5t6 36v27q0 22 -7.5 33.5t-26 15.5t-54.5 4h-50v-139h48z" />
    <glyph glyph-name="uni044C" unicode="&#x44c;" horiz-adv-x="549" 
d="M64 484h146v-162h56q101 0 150.5 -11t68 -39t18.5 -86v-57q0 -69 -57 -99t-177 -30h-205v484zM262 91q40 0 59 5.5t25 17.5t6 36v27q0 22 -7.5 33.5t-26 15.5t-54.5 4h-56v-139h54z" />
    <glyph glyph-name="uni044D" unicode="&#x44d;" horiz-adv-x="492" 
d="M111.5 -6q-38.5 4 -83.5 13v96q55 -12 90.5 -17t72.5 -5q57 0 80 20.5t23 59.5v40h-198v91h198v29q0 46 -22.5 64.5t-77.5 18.5q-36 0 -68.5 -5t-90.5 -19v96q91 18 188 18q71 0 115.5 -9.5t74 -48t29.5 -118.5v-161q0 -75 -37 -112t-87.5 -46t-119.5 -9q-48 0 -86.5 4z
" />
    <glyph glyph-name="uni044E" unicode="&#x44e;" horiz-adv-x="837" 
d="M420.5 2.5q-51.5 12.5 -83.5 51t-32 112.5v36h-95v-202h-146v484h146v-186h95v11q0 84 36.5 124.5t86 50.5t118.5 10q73 0 124.5 -13t84 -53.5t32.5 -118.5v-143q0 -80 -36 -118.5t-85.5 -48t-119.5 -9.5q-74 0 -125.5 12.5zM621.5 95.5q19.5 14.5 19.5 53.5v183
q0 40 -20 56t-75 16t-75 -16t-20 -56v-183q0 -39 19.5 -53.5t75.5 -14.5t75.5 14.5z" />
    <glyph glyph-name="uni044F" unicode="&#x44f;" horiz-adv-x="586" 
d="M166 185q-57 6 -83 34t-26 84v52q0 71 46.5 100t155.5 29h263v-484h-146v174h-56l-126 -174h-174zM376 266v127h-77q-52 0 -74 -10.5t-22 -37.5v-35q0 -29 22 -36.5t63 -7.5h88z" />
    <glyph glyph-name="uni0450" unicode="&#x450;" horiz-adv-x="559" 
d="M50 147v174q0 91 58.5 132t180.5 41q115 0 168.5 -39.5t53.5 -133.5v-118h-314v-44q0 -42 30 -60t108 -18q72 0 162 21v-93q-89 -19 -190 -19q-257 0 -257 157zM372 286v70q0 24 -19.5 36t-65.5 12q-53 0 -71 -12q-19 -13 -19 -36v-70h175zM103 680h159l90 -127h-124z
" />
    <glyph glyph-name="uni0451" unicode="&#x451;" horiz-adv-x="559" 
d="M50 147v174q0 91 58.5 132t180.5 41q115 0 168.5 -39.5t53.5 -133.5v-118h-314v-44q0 -42 30 -60t108 -18q72 0 162 21v-93q-89 -19 -190 -19q-257 0 -257 157zM372 286v70q0 24 -19.5 36t-65.5 12q-53 0 -71 -12q-19 -13 -19 -36v-70h175zM132 683h126v-118h-126v118z
M322 683h126v-118h-126v118z" />
    <glyph glyph-name="uni0452" unicode="&#x452;" horiz-adv-x="632" 
d="M537 368.5q50 -59.5 50 -173.5q0 -106 -11 -170t-59.5 -119.5t-153.5 -89.5l-30 70q52 32 76 70t30.5 88.5t6.5 144.5q0 82 -22 116t-84 34q-41 0 -63.5 -9.5t-29.5 -31.5v-298h-146v505h-101v90h101v105h146v-105h183v-90h-183v-136q10 27 42 43t84 16q114 0 164 -59.5z
" />
    <glyph glyph-name="uni0453" unicode="&#x453;" horiz-adv-x="437" 
d="M64 484h353v-96h-207v-388h-146v484zM280 680h159l-125 -127h-124z" />
    <glyph glyph-name="uni0454" unicode="&#x454;" horiz-adv-x="492" 
d="M169 0.5q-52 10.5 -85.5 47t-33.5 109.5v161q0 102 60 139t167 37q55 0 84.5 -3t95.5 -15v-96q-103 24 -158 24q-101 0 -101 -68v-43h198v-93h-198v-42q0 -77 111 -77q54 0 155 22v-96q-91 -17 -164 -17q-79 0 -131 10.5z" />
    <glyph glyph-name="uni0455" unicode="&#x455;" horiz-adv-x="525" 
d="M54 5v97q139 -21 193 -21q46 0 68 9t22 33v30q0 25 -14 35.5t-55 10.5h-63q-77 0 -119 30.5t-42 89.5v59q0 63 60 89.5t181 26.5q48 0 172 -9v-93q-156 12 -176 12q-59 0 -77 -8q-16 -9 -16 -33v-26q0 -13 13 -22.5t38 -9.5h64q178 0 178 -116v-61q0 -35 -13 -61t-34 -41
q-20 -14 -51.5 -22t-65.5 -11q-31 -3 -72 -3q-78 0 -191 15z" />
    <glyph glyph-name="uni0456" unicode="&#x456;" horiz-adv-x="282" 
d="M68 659h146v-118h-146v118zM68 484h146v-484h-146v484z" />
    <glyph glyph-name="uni0457" unicode="&#x457;" horiz-adv-x="282" 
d="M-17 683h126v-118h-126v118zM173 683h126v-118h-126v118zM68 484h146v-484h-146v484z" />
    <glyph glyph-name="uni0458" unicode="&#x458;" horiz-adv-x="274" 
d="M64 659h146v-118h-146v118zM-38 -218v95q4 -1 18 -1q38 0 55 5.5t23 22.5t6 56v524h146v-557q0 -83 -48.5 -115t-152.5 -32z" />
    <glyph glyph-name="uni0459" unicode="&#x459;" horiz-adv-x="885" 
d="M34 -2v108q12 -2 25 -2q37 0 60 23t35.5 90t12.5 194v73h379v-162h56q101 0 150.5 -11t68 -39t18.5 -86v-57q0 -69 -57 -99t-177 -30h-205v391h-111v-12q0 -155 -27 -240t-71 -116t-105 -31q-22 0 -52 6zM598 91q40 0 59 5.5t25 17.5t6 36v27q0 22 -7.5 33.5t-26 15.5
t-54.5 4h-56v-139h54z" />
    <glyph glyph-name="uni045A" unicode="&#x45a;" horiz-adv-x="878" 
d="M64 484h146v-186h183v186h146v-162h56q101 0 150.5 -11t68 -39t18.5 -86v-57q0 -69 -57 -99t-177 -30h-205v202h-183v-202h-146v484zM591 91q40 0 59 5.5t25 17.5t6 36v27q0 22 -7.5 33.5t-26 15.5t-54.5 4h-56v-139h54z" />
    <glyph glyph-name="uni045B" unicode="&#x45b;" horiz-adv-x="632" 
d="M101 505h-101v90h101v105h146v-105h183v-90h-183v-130q14 69 153 69q93 0 130.5 -33.5t37.5 -105.5v-305h-146v288q0 28 -5.5 41.5t-21.5 19t-51 5.5q-43 0 -63 -5t-27 -18.5t-7 -42.5v-288h-146v505z" />
    <glyph glyph-name="uni045C" unicode="&#x45c;" horiz-adv-x="563" 
d="M64 484h146v-196q16 0 26 4.5t20 16.5l140 175h152l-194 -224q41 -19 80 -75l129 -185h-168l-107 158q-18 26 -34 33t-44 7v-198h-146v484zM317 680h159l-125 -127h-124z" />
    <glyph glyph-name="uni045D" unicode="&#x45d;" horiz-adv-x="611" 
d="M64 484h146v-316l191 316h146v-484h-146v325l-191 -325h-146v484zM119 680h159l90 -127h-124z" />
    <glyph glyph-name="uni045E" unicode="&#x45e;" horiz-adv-x="534" 
d="M201 4l-193 480h159l109 -342l99 342h151l-265 -692h-148zM150 583q-47 40 -46 107h103q3 -40 20 -59t50 -19q34 0 50.5 18.5t19.5 59.5h103q2 -66 -45.5 -106.5t-127.5 -40.5t-127 40z" />
    <glyph glyph-name="uni045F" unicode="&#x45f;" horiz-adv-x="597" 
d="M240 0h-176v484h146v-391h177v391h146v-484h-173v-144h-120v144z" />
    <glyph glyph-name="uni0462" unicode="&#x462;" horiz-adv-x="743" 
d="M195 460h-175v111h175v88h156v-88h204v-111h-204v-71h78q96 0 152.5 -8.5t89 -38t32.5 -88.5v-100q0 -154 -262 -154h-246v460zM434 111q59 0 86 16.5t27 50.5v47q0 31 -26 42t-85 11h-86v-167h84z" />
    <glyph glyph-name="uni0463" unicode="&#x463;" horiz-adv-x="648" 
d="M163 388h-143v96h143v216h146v-216h176v-96h-176v-73h56q101 0 150.5 -11t68 -39t18.5 -86v-50q0 -69 -57 -99t-177 -30h-205v388zM361 91q40 0 59 5.5t25 17.5t6 36v20q0 22 -7.5 33.5t-26 15.5t-54.5 4h-56v-132h54z" />
    <glyph glyph-name="uni046A" unicode="&#x46a;" horiz-adv-x="979" 
d="M120 212q40 73 88 115.5t126 42.5h6l-221 279h738l-221 -279h8q78 0 126.5 -42.5t88.5 -115.5l115 -212h-173l-106 191q-21 37 -36.5 55.5t-36.5 27t-56 8.5v-282h-153v282q-35 0 -56 -8.5t-36.5 -27t-36.5 -55.5l-106 -191h-173zM489 370l138 178h-278l138 -178h2z" />
    <glyph glyph-name="uni046B" unicode="&#x46b;" horiz-adv-x="817" 
d="M121 185q22 37 61.5 65t92.5 30l-161 204h589l-161 -204q53 -3 91.5 -31t61.5 -64l116 -185h-162l-95 158q-16 28 -31.5 36t-44.5 8v-202h-140v202q-29 0 -44.5 -8t-31.5 -36l-95 -158h-162zM503 399h-189l95 -119z" />
    <glyph glyph-name="uni0472" unicode="&#x472;" horiz-adv-x="728" 
d="M672 462v-284q0 -54 -28.5 -93t-78.5 -59q-90 -36 -202 -36q-54 0 -99.5 7t-94.5 24q-53 18 -83 58.5t-30 98.5v284q0 48 21.5 86t55.5 60q30 19 74 32t82 16q35 3 74 3q46 0 80 -3.5t76 -14.5q48 -14 79 -34t52 -56q22 -37 22 -89zM249 529q-37 -19 -37 -66v-74h304v74
q0 46 -37 65.5t-115 19.5t-115 -19zM503.5 136.5q12.5 16.5 12.5 41.5v100h-304v-100q0 -25 13 -41.5t38 -23.5q24 -7 46.5 -9.5t55.5 -2.5t55.5 2.5t46.5 9.5t36.5 23.5z" />
    <glyph glyph-name="uni0473" unicode="&#x473;" horiz-adv-x="592" 
d="M542 309v-143q0 -45 -14.5 -79t-37.5 -53q-20 -17 -54.5 -27.5t-67.5 -13.5q-30 -3 -72 -3q-45 0 -74 3t-62 12q-36 10 -58 28.5t-37 52.5q-15 33 -15 80v143q0 48 15 84t39 56q21 17 55.5 28.5t67.5 14.5q38 2 69 2q46 0 73.5 -2.5t60.5 -12.5q36 -11 58.5 -30t38.5 -54
q15 -36 15 -86zM217 388q-21 -16 -21 -56v-35h200v35q0 40 -21 56t-79 16t-79 -16zM358 87.5q21 6.5 29.5 20.5t8.5 41v53h-200v-53q0 -27 8.5 -41t29.5 -20.5t62 -6.5t62 6.5z" />
    <glyph glyph-name="uni0474" unicode="&#x474;" horiz-adv-x="738" 
d="M0 649h158l172 -519h4l95 290q32 98 60.5 149t63 70.5t86.5 19.5q40 0 99 -26l-25 -105q-35 7 -48 7q-21 0 -35 -10t-29.5 -40t-37.5 -92l-141 -393h-191z" />
    <glyph glyph-name="uni0475" unicode="&#x475;" horiz-adv-x="585" 
d="M0 484h155l106 -335l57 185q28 92 66 126t97 34q45 0 104 -23l-18 -95q-35 6 -51 6q-23 0 -38.5 -15t-31.5 -57l-114 -310h-148z" />
    <glyph glyph-name="uni048A" unicode="&#x48a;" horiz-adv-x="751" 
d="M277 752.5q-37 34.5 -40 92.5h81q6 -30 18.5 -42.5t38.5 -12.5q50 0 56 55h82q-4 -58 -41 -92.5t-97 -34.5q-61 0 -98 34.5zM564 0h-32v460l-294 -460h-168v649h149v-453l294 453h168v-538h64l-100 -277h-141z" />
    <glyph glyph-name="uni048B" unicode="&#x48b;" horiz-adv-x="643" 
d="M223 587.5q-37 34.5 -40 92.5h81q6 -30 18.5 -42.5t38.5 -12.5q50 0 56 55h82q-4 -58 -41 -92.5t-97 -34.5q-61 0 -98 34.5zM456 0h-12v350l-213 -350h-167v484h135v-341l213 341h167v-373h64l-100 -245h-141z" />
    <glyph glyph-name="uni048C" unicode="&#x48c;" horiz-adv-x="667" 
d="M10 576h60v73h156v-73h100v-101h-100v-71h116q46 0 61 -1q23 0 57 -3q28 -1 53 -7q59 -15 79 -40q30 -34 30 -85v-114q0 -154 -262 -154h-290v475h-60v101zM440 281q-26 11 -85 11h-129v-181h127q59 0 86 16.5t27 50.5v61q0 31 -26 42z" />
    <glyph glyph-name="uni048D" unicode="&#x48d;" horiz-adv-x="582" 
d="M10 576h54v124h146v-124h116v-101h-116v-158h92q146 0 193 -26t47 -110v-52q0 -69 -58.5 -99t-178.5 -30h-241v475h-54v101zM372 214.5q-19 10.5 -72 10.5h-90v-134h88q60 0 76 12q17 14 17 47v22q0 32 -19 42.5z" />
    <glyph glyph-name="uni048E" unicode="&#x48e;" horiz-adv-x="627" 
d="M463 223q-52 -12 -151 -12h-86v-211h-156v649h260q139 0 197 -31q60 -30 60 -118v-123q0 -90 -58 -127l67 -67l-46 -46zM426 518q-10 11 -34 15.5t-69 4.5h-97v-220h99q26 0 42 2l-47 47l47 47l62 -63q7 10 7 31v104q0 21 -10 32z" />
    <glyph glyph-name="uni048F" unicode="&#x48f;" horiz-adv-x="609" 
d="M502 20l50 -50l-46 -46l-72 72q-34 -6 -79 -6q-72 0 -104 12t-41 47v-257h-146v692h138v-48q13 32 51 45t113 13q63 0 101.5 -10t58.5 -33q19 -21 26 -47.5t7 -72.5v-159q0 -111 -57 -152zM395 391q-16 13 -86 13q-62 0 -81 -16q-18 -16 -18 -56v-179q0 -43 18 -58
q19 -14 82 -14q30 0 37 1l-71 72l47 47l85 -86q5 15 5 38v179q0 47 -18 59z" />
    <glyph glyph-name="uni0490" unicode="&#x490;" horiz-adv-x="523" 
d="M70 649h311v139h122v-250h-277v-538h-156v649z" />
    <glyph glyph-name="uni0491" unicode="&#x491;" horiz-adv-x="434" 
d="M64 484h234v120h116v-216h-204v-388h-146v484z" />
    <glyph glyph-name="uni0492" unicode="&#x492;" horiz-adv-x="560" 
d="M107 268h-87v111h87v270h433v-111h-277v-159h182v-111h-182v-268h-156v268z" />
    <glyph glyph-name="uni0493" unicode="&#x493;" horiz-adv-x="467" 
d="M94 191h-74v96h74v197h353v-96h-207v-101h123v-96h-123v-191h-146v191z" />
    <glyph glyph-name="uni0494" unicode="&#x494;" horiz-adv-x="649" 
d="M551 358.5q58 -61.5 58 -189.5q0 -95 -32.5 -163.5t-88.5 -104t-124 -35.5q-42 0 -75 10v114q42 -10 61 -10q55 0 81.5 45.5t26.5 128.5q0 75 -33.5 111.5t-95.5 36.5q-46 0 -103 -18v-284h-156v649h433v-111h-277v-143q87 25 160 25q107 0 165 -61.5z" />
    <glyph glyph-name="uni0495" unicode="&#x495;" horiz-adv-x="577" 
d="M481.5 259.5q55.5 -54.5 55.5 -154.5q0 -244 -248 -329l-30 70q59 25 88 57t39 77t10 119q0 68 -24.5 99t-81.5 31q-26 0 -46.5 -7.5t-33.5 -20.5v-201h-146v484h357v-96h-211v-115q16 20 45 30.5t68 10.5q103 0 158.5 -54.5z" />
    <glyph glyph-name="uni0496" unicode="&#x496;" horiz-adv-x="1036" 
d="M874 0h-68l-106 191q-23 42 -38 60.5t-35 26t-56 7.5v-285h-153v285q-36 0 -56 -7.5t-35 -26t-38 -60.5l-106 -191h-173l115 212q32 59 65.5 90t83.5 43v2q-39 15 -62 37.5t-53 69.5l-124 195h173l107 -176q30 -49 50.5 -66t52.5 -17v259h153v-259q32 0 52.5 17t50.5 66
l107 176h173l-124 -195q-30 -47 -53 -69.5t-62 -37.5v-2q50 -12 83.5 -43t65.5 -90l55 -101h95v-262h-140v151z" />
    <glyph glyph-name="uni0497" unicode="&#x497;" horiz-adv-x="850" 
d="M706 0h-57l-95 158q-16 28 -31.5 36t-44.5 8v-202h-140v202q-29 0 -44.5 -8t-31.5 -36l-95 -158h-162l116 185q36 58 76 77l-161 222h146l111 -172q10 -15 19.5 -21t25.5 -6v199h140v-199q16 0 25.5 6t19.5 21l111 172h146l-161 -222q40 -19 76 -77l56 -89h75v-230h-120
v134z" />
    <glyph glyph-name="uni0498" unicode="&#x498;" horiz-adv-x="570" 
d="M533 249v-105q0 -141 -225 -153q23 -35 35 -62.5t12 -53.5q0 -50 -28.5 -72.5t-88.5 -22.5q-27 0 -43 3t-29 9v78q20 -7 35 -7q25 0 35.5 9.5t10.5 29.5q0 38 -37 89q-93 3 -180 21v118q70 -16 115 -22.5t98 -6.5q76 0 105 15.5t29 49.5v63q0 31 -30.5 40t-96.5 9h-129
v111h129q44 0 66 6t30 17.5t8 33.5v51q0 31 -24 41t-87 10q-83 0 -200 -29v117q122 23 229 23q126 0 182 -28.5t56 -98.5v-104q0 -29 -20 -50.5t-48 -28.5v-3q91 -26 91 -97z" />
    <glyph glyph-name="uni0499" unicode="&#x499;" horiz-adv-x="500" 
d="M435 224.5q23 -24.5 23 -56.5v-41q0 -67 -43 -98t-138 -37q39 -59 39 -102q0 -47 -27 -68.5t-83 -21.5q-47 0 -68 12v74q17 -7 33 -7q24 0 34.5 9t10.5 27q0 33 -28 75q-74 2 -160 17v96q59 -13 96 -17.5t73 -4.5q47 0 71 4t34 15.5t10 33.5v20q0 29 -22.5 39.5
t-80.5 10.5h-98v91h98q46 0 61.5 12t15.5 39v9q0 20 -6.5 30t-25 14.5t-57.5 4.5q-37 0 -69.5 -5.5t-86.5 -18.5v96q98 18 188 18q84 0 127 -10t59.5 -33.5t16.5 -68.5v-42q0 -30 -17 -50t-45 -27v-5q42 -9 65 -33.5z" />
    <glyph glyph-name="uni049A" unicode="&#x49a;" horiz-adv-x="711" 
d="M549 0h-71l-106 191q-21 38 -40.5 57.5t-43.5 26.5t-62 7v-282h-156v649h156v-256q44 0 71 16.5t59 63.5l122 176h175l-140 -195q-32 -45 -58.5 -68.5t-65.5 -38.5v-2q50 -12 83.5 -43t65.5 -90l55 -101h96v-262h-140v151z" />
    <glyph glyph-name="uni049B" unicode="&#x49b;" horiz-adv-x="595" 
d="M451 0h-56l-107 158q-18 26 -34 33t-44 7v-198h-146v484h146v-196q16 0 26 4.5t20 16.5l140 175h152l-194 -224q41 -19 80 -75l62 -89h75v-230h-120v134z" />
    <glyph glyph-name="uni049C" unicode="&#x49c;" horiz-adv-x="705" 
d="M70 649h156v-256q35 0 50 1v138h92v-105q13 12 38 46l122 176h175l-140 -195q-32 -45 -58.5 -68.5t-65.5 -38.5v-2q50 -12 83.5 -43t65.5 -90l115 -212h-175l-106 191q-28 50 -54 68v-115h-92v137q-15 1 -50 1v-282h-156v649z" />
    <glyph glyph-name="uni049D" unicode="&#x49d;" horiz-adv-x="623" 
d="M64 484h146v-196h46v120h83v-93l117 169h152l-177 -221q41 -19 78 -78l114 -185h-168l-95 163q-9 14 -21 21v-106h-83v120h-46v-198h-146v484z" />
    <glyph glyph-name="uni049E" unicode="&#x49e;" horiz-adv-x="667" 
d="M223 471v-81q37 0 53 7t30 30l69 114q42 69 76 88q35 20 117 20h71v-111h-41q-50 0 -64 -8q-16 -9 -37 -44l-40 -65q-18 -29 -33.5 -43t-39.5 -23q26 -6 66.5 -44.5t80.5 -98.5l142 -212h-181l-124 191q-39 60 -67 75q-26 16 -78 16v-282h-153v471h-51v87h51v91h153v-91
h60v-87h-60z" />
    <glyph glyph-name="uni049F" unicode="&#x49f;" horiz-adv-x="554" 
d="M210 343v-53q22 0 31 4t18 21l47 77q40 67 64 80q23 12 113 12h48v-90h-16q-37 0 -54.5 -7.5t-33.5 -30.5l-28 -40q-25 -37 -49 -50q48 -19 96 -87l127 -179h-168l-92 135q-31 45 -48 55q-19 11 -55 11v-201h-146v343h-45v84h45v57h146v-57h43v-84h-43z" />
    <glyph glyph-name="uni04A0" unicode="&#x4a0;" horiz-adv-x="804" 
d="M219 538h-199v111h355v-256q44 0 71 16.5t59 63.5l122 176h175l-140 -195q-32 -45 -58.5 -68.5t-65.5 -38.5v-2q50 -12 83.5 -43t65.5 -90l115 -212h-175l-106 191q-21 38 -40.5 57.5t-43.5 26.5t-62 7v-282h-156v538z" />
    <glyph glyph-name="uni04A1" unicode="&#x4a1;" horiz-adv-x="679" 
d="M180 388h-160v96h306v-196q16 0 26 4.5t20 16.5l140 175h152l-194 -224q41 -19 80 -75l129 -185h-168l-107 158q-18 26 -34 33t-44 7v-198h-146v388z" />
    <glyph glyph-name="uni04A2" unicode="&#x4a2;" horiz-adv-x="776" 
d="M614 0h-112v278h-276v-278h-156v649h156v-260h276v260h156v-538h96v-262h-140v151z" />
    <glyph glyph-name="uni04A3" unicode="&#x4a3;" horiz-adv-x="638" 
d="M494 0h-101v202h-183v-202h-146v484h146v-186h183v186h146v-388h75v-230h-120v134z" />
    <glyph glyph-name="uni04A4" unicode="&#x4a4;" horiz-adv-x="955" 
d="M70 649h156v-260h276v260h433v-111h-277v-538h-156v278h-276v-278h-156v649z" />
    <glyph glyph-name="uni04A5" unicode="&#x4a5;" horiz-adv-x="766" 
d="M64 484h146v-186h183v186h353v-96h-207v-388h-146v202h-183v-202h-146v484z" />
    <glyph glyph-name="uni04A6" unicode="&#x4a6;" horiz-adv-x="1104" 
d="M652 369q40 25 123 25q138 0 217 -78q80 -77 80 -208q0 -159 -82 -243.5t-228 -84.5q-97 0 -167 44q-68 43 -79 114h115q12 -25 46.5 -40.5t81.5 -15.5q162 0 162 213q0 88 -49 137.5t-133 49.5q-49 0 -87 -20v-262h-156v538h-270v-538h-156v649h582v-280z" />
    <glyph glyph-name="uni04A7" unicode="&#x4a7;" horiz-adv-x="917" 
d="M546 0h-146v394h-190v-394h-146v484h482v-209q34 20 95 20q236 0 236 -246q0 -128 -71 -199q-70 -70 -185 -70q-94 0 -151.5 43.5t-65.5 118.5h122q12 -35 33 -50t62 -15q50 0 79.5 44.5t29.5 119.5q0 79 -31.5 118.5t-99.5 39.5q-30 0 -53 -17v-182z" />
    <glyph glyph-name="uni04A8" unicode="&#x4a8;" horiz-adv-x="700" 
d="M430 -8q-22 -2 -57 -2q-155 0 -245 93q-90 95 -90 246q0 145 94 238q94 94 243 94q108 0 199 -72l-80 -80q-58 55 -121 55q-82 0 -130.5 -63t-48.5 -171q0 -102 41 -166h-1q46 -65 120 -76q-36 77 -36 169q0 110 44.5 164t140.5 54q174 0 174 -213q0 -141 -114 -219
q60 -25 114 -25v-108q-163 10 -247 82zM503 378q-51 0 -51 -121q0 -83 29 -139q65 44 65 143q0 117 -43 117z" />
    <glyph glyph-name="uni04A9" unicode="&#x4a9;" horiz-adv-x="490" 
d="M299 -5q-18 -2 -43 -2q-108 0 -169 67t-61 182q0 116 60.5 184.5t169.5 68.5q76 0 150 -53l-82 -68q-36 33 -64 33q-104 0 -104 -162q0 -63 25 -110.5t62 -59.5q-42 72 -42 143q0 61 32.5 96t91.5 35q137 0 137 -136q0 -102 -58 -166q28 -20 58 -34v-105q-126 53 -163 87
zM325 263q-21 0 -21 -68q0 -37 24 -102q22 54 22 101q0 69 -25 69z" />
    <glyph glyph-name="uni04AA" unicode="&#x4aa;" horiz-adv-x="597" 
d="M567 12q-95 -19 -189 -22q23 -35 35 -62t12 -53q0 -50 -28.5 -72.5t-88.5 -22.5q-27 0 -43 3t-29 9v78q20 -7 35 -7q25 0 35.5 9.5t10.5 29.5q0 38 -39 92q-44 6 -75 15q-46 12 -76 31.5t-50 54.5q-21 35 -21 83v285q0 196 301 196q77 0 206 -22v-117q-116 28 -204 28
q-37 0 -57.5 -2t-42.5 -10q-47 -16 -47 -71v-276q0 -88 161 -88q69 0 194 29v-118z" />
    <glyph glyph-name="uni04AB" unicode="&#x4ab;" horiz-adv-x="482" 
d="M464 7q-81 -16 -146 -17q38 -58 38 -100q0 -47 -27 -68.5t-83 -21.5q-47 0 -68 12v74q17 -7 33 -7q24 0 34.5 9t10.5 27q0 35 -30 77l-40 5q-32 4 -52.5 14t-42.5 30q-41 34 -41 116v161q0 66 30 110q11 16 32.5 29.5t43.5 21.5q18 6 48 10t53 5h53q56 0 147 -18v-96
q-103 24 -158 24q-101 0 -101 -68v-178q0 -77 111 -77q54 0 155 22v-96z" />
    <glyph glyph-name="uni04AC" unicode="&#x4ac;" horiz-adv-x="595" 
d="M298 0h-78v538h-200v111h555v-111h-199v-427h63v-277h-141v166z" />
    <glyph glyph-name="uni04AD" unicode="&#x4ad;" horiz-adv-x="505" 
d="M261 0h-81v394h-150v90h445v-90h-149v-303h64v-225h-129v134z" />
    <glyph glyph-name="uni04AE" unicode="&#x4ae;" horiz-adv-x="644" 
d="M244 260l-236 389h177l138 -254l135 254h178l-236 -387v-262h-156v260z" />
    <glyph glyph-name="uni04AF" unicode="&#x4af;" horiz-adv-x="510" 
d="M185 0l-185 484h155l106 -335l102 335h147l-179 -484v-208h-146v208z" />
    <glyph glyph-name="uni04B0" unicode="&#x4b0;" horiz-adv-x="644" 
d="M244 260l-25 41h-160v111h92l-143 237h177l138 -254l135 254h178l-145 -237h94v-111h-161l-24 -39v-262h-156v260z" />
    <glyph glyph-name="uni04B1" unicode="&#x4b1;" horiz-adv-x="510" 
d="M185 0h-155v90h120l-150 394h155l106 -335l102 335h147l-146 -394h116v-90h-149v-208h-146v208z" />
    <glyph glyph-name="uni04B2" unicode="&#x4b2;" horiz-adv-x="677" 
d="M546 0h-59l-148 230l-149 -230h-180l239 331l-229 318h180l139 -216l138 216h180l-229 -318l159 -220h100v-277h-141v166z" />
    <glyph glyph-name="uni04B3" unicode="&#x4b3;" horiz-adv-x="568" 
d="M439 0h-49l-106 152l-105 -152h-169l190 248l-180 236h169l95 -139l96 139h169l-181 -236l121 -157h79v-225h-129v134z" />
    <glyph glyph-name="uni04B4" unicode="&#x4b4;" horiz-adv-x="858" 
d="M714 0h-514v538h-180v111h515v-111h-179v-427h246v538h156v-538h96v-262h-140v151z" />
    <glyph glyph-name="uni04B5" unicode="&#x4b5;" horiz-adv-x="695" 
d="M586 0h-426v394h-130v90h395v-90h-119v-301h179v391h146v-388h75v-230h-120v134z" />
    <glyph glyph-name="uni04B6" unicode="&#x4b6;" horiz-adv-x="717" 
d="M555 0h-112v248q-80 -45 -191 -45q-82 0 -138.5 42.5t-56.5 144.5v259h154v-247q0 -48 23.5 -64.5t61.5 -16.5q42 0 82 13t65 33v282h156v-538h96v-262h-140v151z" />
    <glyph glyph-name="uni04B7" unicode="&#x4b7;" horiz-adv-x="595" 
d="M451 0h-101v214q-20 -70 -148 -70q-86 0 -121 36.5t-35 110.5v193h142v-171q0 -30 4 -46t18.5 -24t45.5 -8q43 0 63 8.5t25.5 24.5t5.5 48v168h146v-388h75v-230h-120v134z" />
    <glyph glyph-name="uni04B8" unicode="&#x4b8;" horiz-adv-x="685" 
d="M459 253q-32 -18 -81 -30v-114h-92v100q-11 -1 -34 -1q-82 0 -138.5 42.5t-56.5 144.5v254h154v-242q0 -44 21 -61.5t54 -19.5v131h92v-121q56 15 81 36v277h156v-649h-156v253z" />
    <glyph glyph-name="uni04B9" unicode="&#x4b9;" horiz-adv-x="595" 
d="M385 224q-12 -36 -60 -55v-110h-83v95h-20q-94 0 -135 37t-41 110v183h142v-161q0 -32 12.5 -50.5t41.5 -24.5v141h83v-140q34 6 47 24.5t13 52.5v158h146v-484h-146v224z" />
    <glyph glyph-name="uni04BA" unicode="&#x4ba;" horiz-adv-x="654" 
d="M55 649h156v-248q80 45 191 45q82 0 138.5 -42.5t56.5 -144.5v-259h-154v247q0 48 -23.5 64.5t-61.5 16.5q-42 0 -82 -13t-65 -33v-282h-156v649z" />
    <glyph glyph-name="uni04BB" unicode="&#x4bb;" horiz-adv-x="595" 
d="M64 700h146v-275q14 69 153 69q93 0 130.5 -33.5t37.5 -105.5v-355h-146v338q0 28 -5.5 41.5t-21.5 19t-51 5.5q-43 0 -63 -5t-27 -18.5t-7 -42.5v-338h-146v700z" />
    <glyph glyph-name="uni04BC" unicode="&#x4bc;" horiz-adv-x="855" 
d="M134 290q-80 0 -113 33t-33 111q0 29 9 65l106 -16q-6 -19 -6 -39q0 -27 13.5 -38.5t45.5 -11.5h27v68q0 48 21.5 86t54.5 60q33 20 77 32q41 12 75 15.5t79 3.5q46 0 80.5 -3.5t75.5 -15.5q149 -37 153 -178v-175h-460v-78q0 -53 52 -80.5t149 -27.5q109 0 234 29v-118
q-107 -22 -250 -22q-65 0 -112.5 5.5t-91.5 19.5q-137 44 -137 183v92h-49zM643 389v74q0 46 -37 65.5t-115 19.5t-115 -19t-37 -66v-74h304z" />
    <glyph glyph-name="uni04BD" unicode="&#x4bd;" horiz-adv-x="653" 
d="M291 203v-44q0 -42 30 -60t108 -18q72 0 162 21v-93q-89 -19 -190 -19q-257 0 -257 157v56h-19q-63 0 -99.5 34t-36.5 89q0 29 9 65l96 -16q-6 -19 -6 -39q0 -26 13 -38t43 -12v35q0 91 58.5 132t180.5 41q115 0 168.5 -39.5t53.5 -133.5v-118h-314zM466 356
q0 24 -19.5 36t-65.5 12q-51 0 -70.5 -11.5t-19.5 -36.5v-70h175v70z" />
    <glyph glyph-name="uni04BE" unicode="&#x4be;" horiz-adv-x="855" 
d="M636 -6q-65 -4 -112 -4q-65 0 -112.5 5.5t-91.5 19.5q-137 44 -137 183v92h-49q-80 0 -113 33t-33 111q0 29 9 65l106 -16q-6 -19 -6 -39q0 -27 13.5 -38.5t45.5 -11.5h27v68q0 48 21.5 86t54.5 60q33 20 77 32q41 12 75 15.5t79 3.5q46 0 80.5 -3.5t75.5 -15.5
q149 -37 153 -178v-175h-460v-78q0 -53 52 -80.5t149 -27.5q109 0 234 29v-118l-48 -9q-21 -42 -21 -86q0 -16 8.5 -24t29.5 -8q12 0 30 6v-67q-20 -10 -70 -10t-74.5 19t-24.5 61q0 47 32 100zM643 389v74q0 46 -37 65.5t-115 19.5t-115 -19t-37 -66v-74h304z" />
    <glyph glyph-name="uni04BF" unicode="&#x4bf;" horiz-adv-x="653" 
d="M445 -167q-24 19 -24 61q0 46 30 97q-10 -1 -50 -1q-257 0 -257 157v56h-19q-63 0 -99.5 34t-36.5 89q0 29 9 65l96 -16q-6 -19 -6 -39q0 -26 13 -38t43 -12v35q0 91 58.5 132t180.5 41q115 0 168.5 -39.5t53.5 -133.5v-118h-314v-44q0 -42 30 -60t108 -18q72 0 162 21
v-93q-31 -7 -51 -10q-18 -41 -18 -82q0 -16 8.5 -24t29.5 -8q12 0 30 6v-67q-20 -10 -70 -10q-51 0 -75 19zM466 356q0 24 -19.5 36t-65.5 12q-51 0 -70.5 -11.5t-19.5 -36.5v-70h175v70z" />
    <glyph glyph-name="uni04C0" unicode="&#x4c0;" horiz-adv-x="296" 
d="M70 649h156v-649h-156v649z" />
    <glyph glyph-name="uni04C1" unicode="&#x4c1;" horiz-adv-x="1015" 
d="M409 752.5q-37 34.5 -40 92.5h81q6 -30 18.5 -42.5t38.5 -12.5q50 0 56 55h82q-4 -58 -41 -92.5t-97 -34.5q-61 0 -98 34.5zM136 212q40 60 80.5 98.5t66.5 44.5q-24 9 -39.5 23t-33.5 43l-40 65q-17 27 -26.5 36.5t-24 12.5t-50.5 3h-41v111h71q57 0 87.5 -8t53.5 -30
t52 -70l69 -114q11 -18 18.5 -25t19 -9.5t35.5 -2.5v259h147v-259q24 0 35.5 2.5t19 9.5t18.5 25l69 114q29 48 52 70t53.5 30t87.5 8h71v-111h-41q-36 0 -50.5 -3t-24 -12.5t-26.5 -36.5l-40 -65q-18 -29 -33.5 -43t-39.5 -23q26 -6 66.5 -44.5t80.5 -98.5l142 -212h-181
l-124 191q-27 43 -44.5 61.5t-36.5 24t-54 5.5v-282h-147v282q-35 0 -54 -5.5t-36.5 -24t-44.5 -61.5l-124 -191h-181z" />
    <glyph glyph-name="uni04C2" unicode="&#x4c2;" horiz-adv-x="808" 
d="M306 587.5q-37 34.5 -40 92.5h81q6 -30 18.5 -42.5t38.5 -12.5q50 0 56 55h82q-4 -58 -41 -92.5t-97 -34.5q-61 0 -98 34.5zM108 179q48 68 96 87q-24 13 -49 50l-28 40q-16 23 -33.5 30.5t-54.5 7.5h-16v90h48q66 0 90.5 -4.5t40.5 -21t46 -66.5l47 -77
q10 -16 17.5 -20.5t22.5 -4.5v194h139v-194q16 0 23 4t16 21l47 77q30 50 46 66.5t40.5 21t90.5 4.5h48v-90h-16q-37 0 -54.5 -7.5t-33.5 -30.5l-28 -40q-25 -37 -49 -50q48 -19 96 -87l127 -179h-168l-92 135q-24 35 -34.5 47t-22 15.5t-36.5 3.5v-201h-139v201
q-25 0 -36.5 -4t-22.5 -16t-35 -46l-92 -135h-168z" />
    <glyph glyph-name="uni04C3" unicode="&#x4c3;" horiz-adv-x="678" 
d="M430 384q98 -22 157 -92t59 -165q0 -171 -79.5 -259t-230.5 -88q-97 0 -167 44q-68 43 -79 114h115q12 -25 46.5 -40.5t81.5 -15.5q75 0 118.5 56t43.5 167q0 88 -44 132.5t-128 44.5h-100v-282h-153v649h153v-259q37 0 53 7t30 30l69 114q42 69 76 88q35 20 117 20h71
v-111h-41q-50 0 -64 -8q-16 -9 -37 -44l-40 -65q-13 -21 -27 -37z" />
    <glyph glyph-name="uni04C4" unicode="&#x4c4;" horiz-adv-x="554" 
d="M373 284q84 -23 126 -84.5t42 -150.5q0 -128 -71 -199q-70 -70 -185 -70q-94 0 -151.5 43.5t-65.5 118.5h122q12 -35 33 -50t62 -15q50 0 79.5 44.5t29.5 119.5q0 79 -31.5 118.5t-99.5 39.5h-53v-199h-146v484h146v-194q22 0 31 4t18 21l47 77q40 67 64 80q23 12 113 12
h48v-90h-16q-37 0 -54.5 -7.5t-33.5 -30.5l-28 -40q-12 -18 -26 -32z" />
    <glyph glyph-name="uni04C5" unicode="&#x4c5;" horiz-adv-x="761" 
d="M574 0h-39v538h-246v-397q0 -37 -10 -65.5t-27 -45.5q-15 -15 -42 -24q-25 -8 -48.5 -10.5t-60.5 -2.5q-53 0 -81 5v102q20 -5 52 -5q61 0 61 66v488h558v-538h64l-100 -277h-141z" />
    <glyph glyph-name="uni04C6" unicode="&#x4c6;" horiz-adv-x="611" 
d="M424 0h-22v394h-161v-253q0 -74 -30 -111q-22 -22 -54.5 -29.5t-83.5 -7.5q-33 0 -61 5v89q20 -5 32 -5q28 0 39.5 18t11.5 66v318h452v-373h64l-100 -245h-141z" />
    <glyph glyph-name="uni04C7" unicode="&#x4c7;" horiz-adv-x="728" 
d="M658 120q0 -81 -16 -143t-45 -100q-26 -36 -70 -59q-41 -21 -84.5 -29.5t-103.5 -8.5q-240 0 -275 149h156q18 -23 40 -33.5t76 -12.5q91 0 128 55q38 55 38 188v152h-276v-278h-156v649h156v-260h276v260h156v-529z" />
    <glyph glyph-name="uni04C8" unicode="&#x4c8;" horiz-adv-x="617" 
d="M553 40q0 -145 -66 -202q-64 -58 -188 -58q-196 0 -225 149h136q7 -19 31 -32.5t55 -13.5q66 0 88 31q23 31 23 132v156h-197v-202h-146v484h146v-187h197v187h146v-444z" />
    <glyph glyph-name="uni04C9" unicode="&#x4c9;" horiz-adv-x="728" 
d="M542 0h-40v278h-276v-278h-156v649h156v-260h276v260h156l1 -538h64l-100 -277h-141z" />
    <glyph glyph-name="uni04CA" unicode="&#x4ca;" horiz-adv-x="617" 
d="M431 0h-24v202h-197v-202h-146v484h146v-187h197v187h146l1 -373h64l-100 -245h-141z" />
    <glyph glyph-name="uni04CB" unicode="&#x4cb;" horiz-adv-x="669" 
d="M347 111h96v137q-80 -45 -191 -45q-82 0 -138.5 42.5t-56.5 144.5v259h154v-247q0 -48 23.5 -64.5t61.5 -16.5q42 0 82 13t65 33v282h156v-649h-112v-151h-140v262z" />
    <glyph glyph-name="uni04CC" unicode="&#x4cc;" horiz-adv-x="560" 
d="M275 96h75v118q-20 -70 -148 -70q-86 0 -121 36.5t-35 110.5v193h142v-171q0 -30 4 -46t18.5 -24t45.5 -8q43 0 63 8.5t25.5 24.5t5.5 48v168h146v-484h-101v-134h-120v230z" />
    <glyph glyph-name="uni04CD" unicode="&#x4cd;" horiz-adv-x="889" 
d="M702 0h-24v480h-3l-164 -480h-125l-169 480h-4v-480h-143v649h222l160 -464l158 464h209v-538h64l-100 -277h-141z" />
    <glyph glyph-name="uni04CE" unicode="&#x4ce;" horiz-adv-x="735" 
d="M548 0h-10v330h-5l-116 -330h-107l-112 330h-5v-330h-129v484h199l106 -326l113 326h189v-373h64l-100 -245h-141z" />
    <glyph glyph-name="uni04CF" unicode="&#x4cf;" horiz-adv-x="282" 
d="M68 700h146v-700h-146v700z" />
    <glyph glyph-name="uni04D0" unicode="&#x4d0;" horiz-adv-x="668" 
d="M242 649h190l234 -649h-158l-58 171h-237l-57 -171h-154zM416 275l-82 244h-4l-82 -244h168zM185 761.5q-51 43.5 -51 113.5h125q5 -43 22.5 -61t53.5 -18t53.5 18t22.5 61h125q0 -70 -51 -113.5t-150 -43.5t-150 43.5z" />
    <glyph glyph-name="uni04D1" unicode="&#x4d1;" horiz-adv-x="564" 
d="M99.5 2.5q-33.5 12.5 -47 45t-13.5 97.5q0 58 14.5 91t47 47.5t89.5 14.5h164v33q0 31 -8.5 46t-31 21t-67.5 6q-62 0 -170 -12v92q79 10 185 10q93 0 143.5 -14t72.5 -48t22 -99v-333h-143v44q-17 -29 -46 -41q-29 -13 -110 -13q-68 0 -101.5 12.5zM321 84q14 2 19.5 6
t9.5 13q4 7 4 21v94h-100q-34 0 -48 -4.5t-19 -18t-5 -47.5q0 -33 5 -46t19.5 -17t51.5 -4q44 0 63 3zM145 583q-47 40 -46 107h103q3 -40 20 -59t50 -19q34 0 50.5 18.5t19.5 59.5h103q2 -66 -45.5 -106.5t-127.5 -40.5t-127 40z" />
    <glyph glyph-name="uni04D2" unicode="&#x4d2;" horiz-adv-x="668" 
d="M242 649h190l234 -649h-158l-58 171h-237l-57 -171h-154zM416 275l-82 244h-4l-82 -244h168zM176 853h126v-118h-126v118zM366 853h126v-118h-126v118z" />
    <glyph glyph-name="uni04D3" unicode="&#x4d3;" horiz-adv-x="564" 
d="M99.5 2.5q-33.5 12.5 -47 45t-13.5 97.5q0 58 14.5 91t47 47.5t89.5 14.5h164v33q0 31 -8.5 46t-31 21t-67.5 6q-62 0 -170 -12v92q79 10 185 10q93 0 143.5 -14t72.5 -48t22 -99v-333h-143v44q-17 -29 -46 -41q-29 -13 -110 -13q-68 0 -101.5 12.5zM321 84q14 2 19.5 6
t9.5 13q4 7 4 21v94h-100q-34 0 -48 -4.5t-19 -18t-5 -47.5q0 -33 5 -46t19.5 -17t51.5 -4q44 0 63 3zM114 683h126v-118h-126v118zM304 683h126v-118h-126v118z" />
    <glyph glyph-name="uni04D4" unicode="&#x4d4;" horiz-adv-x="990" 
d="M330 649h615v-111h-322v-149h289v-111h-289v-167h332v-111h-485v171h-225l-79 -171h-166zM470 275v263h-57l-121 -263h178z" />
    <glyph glyph-name="uni04D5" unicode="&#x4d5;" horiz-adv-x="845" 
d="M99.5 2.5q-33.5 12.5 -47 45t-13.5 97.5q0 58 14.5 91t47 47.5t89.5 14.5h164v33q0 31 -8.5 46t-31 21t-67.5 6q-62 0 -170 -12v92q79 10 185 10q112 0 161 -31q52 31 155 31q114 0 166.5 -39.5t52.5 -133.5v-118h-309v-44q0 -43 29 -60.5t107 -17.5q70 0 160 21v-93
q-89 -19 -188 -19q-174 0 -222 77q-16 -31 -35 -47.5t-50.5 -23t-87.5 -6.5q-68 0 -101.5 12.5zM659 286v70q0 25 -18.5 36.5t-64.5 11.5q-53 0 -70 -12q-18 -12 -18 -36v-70h171zM321 84q14 2 19.5 6t9.5 13q4 7 4 21v94h-100q-34 0 -48 -4.5t-19 -18t-5 -47.5q0 -33 5 -46
t19.5 -17t51.5 -4q44 0 63 3z" />
    <glyph glyph-name="uni04D6" unicode="&#x4d6;" horiz-adv-x="610" 
d="M70 649h495v-111h-339v-149h306v-111h-306v-167h349v-111h-505v649zM186 761.5q-51 43.5 -51 113.5h125q5 -43 22.5 -61t53.5 -18t53.5 18t22.5 61h125q0 -70 -51 -113.5t-150 -43.5t-150 43.5z" />
    <glyph glyph-name="uni04D7" unicode="&#x4d7;" horiz-adv-x="559" 
d="M50 147v174q0 91 58.5 132t180.5 41q115 0 168.5 -39.5t53.5 -133.5v-118h-314v-44q0 -42 30 -60t108 -18q72 0 162 21v-93q-89 -19 -190 -19q-257 0 -257 157zM372 286v70q0 24 -19.5 36t-65.5 12q-53 0 -71 -12q-19 -13 -19 -36v-70h175zM163 583q-47 40 -46 107h103
q3 -40 20 -59t50 -19q34 0 50.5 18.5t19.5 59.5h103q2 -66 -45.5 -106.5t-127.5 -40.5t-127 40z" />
    <glyph glyph-name="uni04D8" unicode="&#x4d8;" horiz-adv-x="728" 
d="M137.5 36q-81.5 46 -81.5 144v187h460v73q0 53 -52 80.5t-149 27.5q-62 0 -113.5 -7t-117.5 -22v117q65 12 119.5 17.5t127.5 5.5q94 0 165.5 -12t123.5 -57t52 -136v-274q0 -102 -90 -146t-217 -44q-146 0 -227.5 46zM480 118q36 17 36 63v79h-304v-79q0 -45 36.5 -62.5
t115.5 -17.5q80 0 116 17z" />
    <glyph glyph-name="uni04D9" unicode="&#x4d9;" horiz-adv-x="559" 
d="M101.5 29.5q-53.5 39.5 -53.5 133.5v118h314v44q0 42 -30 60t-108 18q-72 0 -162 -21v93q89 19 190 19q257 0 257 -157v-174q0 -91 -58.5 -132t-180.5 -41q-115 0 -168.5 39.5zM343.5 92q18.5 12 18.5 36v70h-175v-70q0 -24 19.5 -36t65.5 -12q53 0 71.5 12z" />
    <glyph glyph-name="uni04DA" unicode="&#x4da;" horiz-adv-x="728" 
d="M206 730v118h126v-118h-126zM396 730v118h126v-118h-126zM650.5 100.5q-21.5 -38.5 -55.5 -59.5q-32 -20 -76 -33q-42 -11 -75.5 -14.5t-78.5 -3.5q-46 0 -80 3.5t-76 14.5q-70 19 -110.5 61.5t-42.5 117.5v175h460v78q0 53 -52 80.5t-149 27.5q-109 0 -234 -29v118
q107 22 250 22q65 0 112.5 -5.5t90.5 -19.5q138 -43 138 -183v-264q0 -48 -21.5 -86.5zM212 260v-74q0 -46 37 -65.5t115 -19.5t115 19t37 66v74h-304z" />
    <glyph glyph-name="uni04DB" unicode="&#x4db;" horiz-adv-x="559" 
d="M121 565v118h126v-118h-126zM311 565v118h126v-118h-126zM364 281v44q0 42 -30 60t-108 18q-72 0 -162 -21v93q89 19 190 19q257 0 257 -157v-174q0 -91 -58.5 -132t-180.5 -41q-115 0 -168.5 39.5t-53.5 133.5v118h314zM189 128q0 -24 19.5 -36t65.5 -12q51 0 70.5 11.5
t19.5 36.5v70h-175v-70z" />
    <glyph glyph-name="uni04DC" unicode="&#x4dc;" horiz-adv-x="979" 
d="M120 212q32 59 65.5 90t83.5 43v2q-39 15 -62 37.5t-53 69.5l-124 195h173l107 -176q30 -49 50.5 -66t52.5 -17v259h153v-259q32 0 52.5 17t50.5 66l107 176h173l-124 -195q-30 -47 -53 -69.5t-62 -37.5v-2q50 -12 83.5 -43t65.5 -90l115 -212h-173l-106 191
q-23 42 -38 60.5t-35 26t-56 7.5v-285h-153v285q-36 0 -56 -7.5t-35 -26t-38 -60.5l-106 -191h-173zM332 853h126v-118h-126v118zM522 853h126v-118h-126v118z" />
    <glyph glyph-name="uni04DD" unicode="&#x4dd;" horiz-adv-x="816" 
d="M121 185q36 58 76 77l-161 222h146l111 -172q10 -15 19.5 -21t25.5 -6v199h140v-199q16 0 25.5 6t19.5 21l111 172h146l-161 -222q40 -19 76 -77l116 -185h-162l-95 158q-16 28 -31.5 36t-44.5 8v-202h-140v202q-29 0 -44.5 -8t-31.5 -36l-95 -158h-162zM250 683h126
v-118h-126v118zM440 683h126v-118h-126v118z" />
    <glyph glyph-name="uni04DE" unicode="&#x4de;" horiz-adv-x="570" 
d="M30 12v118q70 -16 115 -22.5t98 -6.5q76 0 105 15.5t29 49.5v63q0 31 -30.5 40t-96.5 9h-129v111h129q44 0 66 6t30 17.5t8 33.5v51q0 31 -24 41t-87 10q-83 0 -200 -29v117q122 23 229 23q126 0 182 -28.5t56 -98.5v-104q0 -29 -20 -50.5t-48 -28.5v-3q91 -26 91 -97
v-105q0 -77 -67.5 -115.5t-198.5 -38.5q-134 0 -237 22zM122 853h126v-118h-126v118zM312 853h126v-118h-126v118z" />
    <glyph glyph-name="uni04DF" unicode="&#x4df;" horiz-adv-x="500" 
d="M28 7v96q59 -13 96 -17.5t73 -4.5q47 0 71 4t34 15.5t10 33.5v20q0 29 -22.5 39.5t-80.5 10.5h-98v91h98q46 0 61.5 12t15.5 39v9q0 20 -6.5 30t-25 14.5t-57.5 4.5q-37 0 -69.5 -5.5t-86.5 -18.5v96q98 18 188 18q84 0 127 -10t59.5 -33.5t16.5 -68.5v-42q0 -30 -17 -50
t-45 -27v-5q42 -9 65 -33.5t23 -56.5v-41q0 -53 -26.5 -83t-81 -42t-143.5 -12t-179 17zM82 683h126v-118h-126v118zM272 683h126v-118h-126v118z" />
    <glyph glyph-name="uni04E0" unicode="&#x4e0;" horiz-adv-x="604" 
d="M551 564l-168 -176q72 -20 115.5 -71.5t43.5 -119.5q0 -96 -69 -152q-67 -55 -183 -55q-194 0 -256 212l115 29q21 -60 60 -102q41 -41 81 -41q50 0 81.5 29t31.5 77q0 49 -31.5 77.5t-87.5 28.5h-64v85l162 166h-324v98h493v-85z" />
    <glyph glyph-name="uni04E1" unicode="&#x4e1;" horiz-adv-x="545" 
d="M424 -109q-67 -69 -171 -69q-94 0 -156 55q-63 57 -70 151l115 9q9 -54 40 -86.5t71 -32.5q46 0 75 38t29 97q0 57 -32 90t-85 33h-66v87l121 125h-247v96h419v-71l-142 -143q74 -16 121 -75q46 -56 46 -135q0 -101 -68 -169z" />
    <glyph glyph-name="uni04E2" unicode="&#x4e2;" horiz-adv-x="732" 
d="M70 649h156v-444l280 444h156v-649h-156v451l-280 -451h-156v649zM207 809h318v-89h-318v89z" />
    <glyph glyph-name="uni04E3" unicode="&#x4e3;" horiz-adv-x="611" 
d="M64 484h146v-316l191 316h146v-484h-146v325l-191 -325h-146v484zM167 649h278v-89h-278v89z" />
    <glyph glyph-name="uni04E4" unicode="&#x4e4;" horiz-adv-x="732" 
d="M70 649h156v-444l280 444h156v-649h-156v451l-280 -451h-156v649zM208 853h126v-118h-126v118zM398 853h126v-118h-126v118z" />
    <glyph glyph-name="uni04E5" unicode="&#x4e5;" horiz-adv-x="611" 
d="M64 484h146v-316l191 316h146v-484h-146v325l-191 -325h-146v484zM148 683h126v-118h-126v118zM338 683h126v-118h-126v118z" />
    <glyph glyph-name="uni04E6" unicode="&#x4e6;" horiz-adv-x="728" 
d="M263.5 -3q-45.5 7 -94.5 24q-53 18 -83 58.5t-30 98.5v284q0 48 21.5 86t55.5 60q30 19 74 32t82 16q35 3 74 3q46 0 80 -3.5t76 -14.5q48 -14 79 -34t52 -56q22 -37 22 -89v-284q0 -54 -28.5 -93t-78.5 -59q-90 -36 -202 -36q-54 0 -99.5 7zM420.5 103.5
q22.5 2.5 46.5 9.5t36.5 23.5t12.5 41.5v285q0 46 -37 65.5t-115 19.5t-115 -19t-37 -66v-285q0 -25 13 -41.5t38 -23.5q24 -7 46.5 -9.5t55.5 -2.5t55.5 2.5zM206 853h126v-118h-126v118zM396 853h126v-118h-126v118z" />
    <glyph glyph-name="uni04E7" unicode="&#x4e7;" horiz-adv-x="592" 
d="M222 -7q-29 3 -62 12q-36 10 -58 28.5t-37 52.5q-15 33 -15 80v143q0 48 15 84t39 56q21 17 55.5 28.5t67.5 14.5q38 2 69 2q46 0 73.5 -2.5t60.5 -12.5q36 -11 58.5 -30t38.5 -54q15 -36 15 -86v-143q0 -45 -14.5 -79t-37.5 -53q-20 -17 -54.5 -27.5t-67.5 -13.5
q-30 -3 -72 -3q-45 0 -74 3zM358 87.5q21 6.5 29.5 20.5t8.5 41v183q0 40 -21 56t-79 16t-79 -16t-21 -56v-183q0 -27 8.5 -41t29.5 -20.5t62 -6.5t62 6.5zM138 683h126v-118h-126v118zM328 683h126v-118h-126v118z" />
    <glyph glyph-name="uni04E8" unicode="&#x4e8;" horiz-adv-x="728" 
d="M672 462v-284q0 -54 -28.5 -93t-78.5 -59q-90 -36 -202 -36q-54 0 -99.5 7t-94.5 24q-53 18 -83 58.5t-30 98.5v284q0 48 21.5 86t55.5 60q30 19 74 32t82 16q35 3 74 3q46 0 80 -3.5t76 -14.5q48 -14 79 -34t52 -56q22 -37 22 -89zM249 529q-37 -19 -37 -66v-74h304v74
q0 46 -37 65.5t-115 19.5t-115 -19zM503.5 136.5q12.5 16.5 12.5 41.5v100h-304v-100q0 -25 13 -41.5t38 -23.5q24 -7 46.5 -9.5t55.5 -2.5t55.5 2.5t46.5 9.5t36.5 23.5z" />
    <glyph glyph-name="uni04E9" unicode="&#x4e9;" horiz-adv-x="592" 
d="M542 309v-143q0 -45 -14.5 -79t-37.5 -53q-20 -17 -54.5 -27.5t-67.5 -13.5q-30 -3 -72 -3q-45 0 -74 3t-62 12q-36 10 -58 28.5t-37 52.5q-15 33 -15 80v143q0 48 15 84t39 56q21 17 55.5 28.5t67.5 14.5q38 2 69 2q46 0 73.5 -2.5t60.5 -12.5q36 -11 58.5 -30t38.5 -54
q15 -36 15 -86zM217 388q-21 -16 -21 -56v-35h200v35q0 40 -21 56t-79 16t-79 -16zM358 87.5q21 6.5 29.5 20.5t8.5 41v53h-200v-53q0 -27 8.5 -41t29.5 -20.5t62 -6.5t62 6.5z" />
    <glyph glyph-name="uni04EA" unicode="&#x4ea;" horiz-adv-x="728" 
d="M206 730v118h126v-118h-126zM396 730v118h126v-118h-126zM643.5 85.5q-28.5 -39.5 -78.5 -60.5q-91 -35 -202 -35q-54 0 -99.5 7t-95.5 24q-52 18 -82 58.5t-30 98.5v284q0 48 21.5 86t54.5 60q33 20 77 32q41 12 75 15.5t79 3.5q46 0 80.5 -3.5t75.5 -15.5
q149 -37 153 -178v-284q0 -53 -28.5 -92.5zM516 389v74q0 46 -37 65.5t-115 19.5t-115 -19t-37 -66v-74h304zM212 278v-100q0 -25 13 -41.5t37 -23.5q25 -7 47.5 -9.5t55.5 -2.5t55.5 2.5t46.5 9.5t36.5 23.5t12.5 41.5v100h-304z" />
    <glyph glyph-name="uni04EB" unicode="&#x4eb;" horiz-adv-x="592" 
d="M138 565v118h126v-118h-126zM328 565v118h126v-118h-126zM527.5 87q-14.5 -34 -37.5 -54q-22 -17 -58 -28q-33 -9 -62 -12t-74 -3t-74 3t-63 12q-51 14 -79 52.5t-30 108.5v143q0 48 15 84t38 56q21 18 59 29q33 10 60 13t74 3t74 -3t60 -13q53 -14 81 -54t31 -115v-143
q0 -45 -14.5 -79zM396 297v35q0 40 -21 56t-79 16t-79 -16t-21 -56v-35h200zM196 202v-53q0 -27 8.5 -41t29.5 -20.5t62 -6.5t62 6.5t29.5 20.5t8.5 41v53h-200z" />
    <glyph glyph-name="uni04EC" unicode="&#x4ec;" horiz-adv-x="597" 
d="M140 730v118h126v-118h-126zM330 730v118h126v-118h-126zM120 389h265v76q0 55 -43 71q-20 8 -40 10t-57 2q-79 0 -191 -26v117q123 20 206 20q62 0 102 -4t75 -16q53 -17 78.5 -59t25.5 -117v-285q0 -46 -20 -81.5t-53 -57.5q-28 -18 -74 -31q-40 -11 -75 -14.5
t-79 -3.5q-103 0 -210 22v118q125 -29 194 -29q161 0 161 88v89h-265v111z" />
    <glyph glyph-name="uni04ED" unicode="&#x4ed;" horiz-adv-x="509" 
d="M96 565v118h126v-118h-126zM286 565v118h126v-118h-126zM209 81q41 0 62.5 5.5t30.5 18t9 37.5v59h-232v91h232v52q0 25 -8 37.5t-27 17.5t-57 5q-78 0 -182 -24v96q92 18 193 18q38 0 51 -1q21 0 48 -4.5t42 -10.5q88 -30 88 -160v-161q0 -99 -60 -135
q-21 -13 -38.5 -18.5t-45.5 -8.5q-27 -3 -48.5 -4t-48.5 -1q-97 0 -188 17v96q101 -22 179 -22z" />
    <glyph glyph-name="uni04EE" unicode="&#x4ee;" horiz-adv-x="608" 
d="M77 0v114q21 -5 41.5 -9t39.5 -4q28 0 47.5 13.5t33.5 41.5l14 29l-251 464h163l163 -326h4l129 326h157l-235 -521q-32 -72 -81 -105t-138 -33q-36 0 -87 10zM160 809h318v-89h-318v89z" />
    <glyph glyph-name="uni04EF" unicode="&#x4ef;" horiz-adv-x="534" 
d="M201 4l-193 480h159l109 -342l99 342h151l-265 -692h-148zM138 649h278v-89h-278v89z" />
    <glyph glyph-name="uni04F0" unicode="&#x4f0;" horiz-adv-x="608" 
d="M77 0v114q21 -5 41.5 -9t39.5 -4q28 0 47.5 13.5t33.5 41.5l14 29l-251 464h163l163 -326h4l129 326h157l-235 -521q-32 -72 -81 -105t-138 -33q-36 0 -87 10zM161 853h126v-118h-126v118zM351 853h126v-118h-126v118z" />
    <glyph glyph-name="uni04F1" unicode="&#x4f1;" horiz-adv-x="534" 
d="M201 4l-193 480h159l109 -342l99 342h151l-265 -692h-148zM119 683h126v-118h-126v118zM309 683h126v-118h-126v118z" />
    <glyph glyph-name="uni04F2" unicode="&#x4f2;" horiz-adv-x="608" 
d="M77 0v114q21 -5 41.5 -9t39.5 -4q28 0 47.5 13.5t33.5 41.5l14 29l-251 464h163l163 -326h4l129 326h157l-235 -521q-32 -72 -81 -105t-138 -33q-36 0 -87 10zM262 850h96l-70 -128h-96zM409 850h96l-70 -128h-96z" />
    <glyph glyph-name="uni04F3" unicode="&#x4f3;" horiz-adv-x="534" 
d="M201 4l-193 480h159l109 -342l99 342h151l-265 -692h-148zM210 680h96l-70 -128h-96zM357 680h96l-70 -128h-96z" />
    <glyph glyph-name="uni04F4" unicode="&#x4f4;" horiz-adv-x="669" 
d="M443 248q-80 -45 -191 -45q-82 0 -138.5 42.5t-56.5 144.5v259h154v-247q0 -48 23.5 -64.5t61.5 -16.5q42 0 82 13t65 33v282h156v-649h-156v248zM177 853h126v-118h-126v118zM367 853h126v-118h-126v118z" />
    <glyph glyph-name="uni04F5" unicode="&#x4f5;" horiz-adv-x="560" 
d="M350 214q-20 -70 -148 -70q-86 0 -121 36.5t-35 110.5v193h142v-171q0 -30 4 -46t18.5 -24t45.5 -8q43 0 63 8.5t25.5 24.5t5.5 48v168h146v-484h-146v214zM108 683h126v-118h-126v118zM298 683h126v-118h-126v118z" />
    <glyph glyph-name="uni04F6" unicode="&#x4f6;" horiz-adv-x="523" 
d="M182 0h-112v649h433v-111h-277v-427h96v-262h-140v151z" />
    <glyph glyph-name="uni04F7" unicode="&#x4f7;" horiz-adv-x="437" 
d="M165 0h-101v484h353v-96h-207v-292h75v-230h-120v134z" />
    <glyph glyph-name="uni04F8" unicode="&#x4f8;" horiz-adv-x="896" 
d="M70 649h156v-238h82q89 0 144 -9t87 -38.5t32 -87.5v-122q0 -154 -262 -154h-239v649zM670 649h156v-649h-156v649zM302 111q59 0 86 16.5t27 50.5v69q0 31 -26 42t-85 11h-79v-189h77zM290 853h126v-118h-126v118zM480 853h126v-118h-126v118z" />
    <glyph glyph-name="uni04F9" unicode="&#x4f9;" horiz-adv-x="780" 
d="M64 484h146v-162h50q101 0 148.5 -11t65 -38.5t17.5 -86.5v-57q0 -70 -54.5 -99.5t-173.5 -29.5h-199v484zM570 484h146v-484h-146v484zM256 91q40 0 59 5.5t25 17.5t6 36v27q0 22 -7.5 33.5t-26 15.5t-54.5 4h-50v-139h48zM232 683h126v-118h-126v118zM422 683h126v-118
h-126v118z" />
    <glyph glyph-name="uni051A" unicode="&#x51a;" horiz-adv-x="740" 
d="M263.5 -3q-45.5 7 -94.5 24q-53 18 -83 58.5t-30 98.5v284q0 48 21.5 86t55.5 60q30 19 74 32t82 16q35 3 74 3q46 0 80 -3.5t76 -14.5q48 -14 79 -34t52 -56q22 -37 22 -89v-177q0 -148 -82 -173h142v-112h-213q-11 0 -68 -5t-88 -5q-54 0 -99.5 7zM420.5 103.5
q22.5 2.5 46.5 9.5t36.5 23.5t12.5 41.5v285q0 46 -37 65.5t-115 19.5t-115 -19t-37 -66v-285q0 -25 13 -41.5t38 -23.5q24 -7 46.5 -9.5t55.5 -2.5t55.5 2.5z" />
    <glyph glyph-name="uni051B" unicode="&#x51b;" horiz-adv-x="608" 
d="M398 55q-17 -29 -32 -42t-40.5 -18t-75.5 -5q-86 0 -127 12.5t-57 47.5t-16 109v169q0 69 20.5 103.5t72 48.5t154.5 14q63 0 103.5 -4t66.5 -15q30 -13 44.5 -25.5t21.5 -34.5q7 -24 9 -44t2 -61v-518h-146v263zM359 86q23 5 31 18.5t8 40.5v192q0 25 -8.5 39.5
t-30.5 21t-64 6.5q-46 0 -66 -5t-26.5 -18.5t-6.5 -43.5v-187q0 -28 6.5 -42.5t25.5 -20.5t59 -6q49 0 72 5z" />
    <glyph glyph-name="uni051C" unicode="&#x51c;" horiz-adv-x="985" 
d="M8 649h162l126 -474l126 474h145l136 -474l116 474h158l-208 -649h-154l-124 471l-128 -471h-154z" />
    <glyph glyph-name="uni051D" unicode="&#x51d;" horiz-adv-x="822" 
d="M8 484h149l90 -351l96 351h143l100 -351l86 351h142l-158 -484h-148l-96 327l-94 -327h-148z" />
    <glyph glyph-name="uni0524" unicode="&#x524;" horiz-adv-x="760" 
d="M598 0h-112v539h-260v-539h-156v649h572v-538h96v-262h-140v151z" />
    <glyph glyph-name="uni0525" unicode="&#x525;" horiz-adv-x="632" 
d="M488 0h-101v391h-177v-391h-146v484h469v-388h75v-230h-120v134z" />
    <glyph glyph-name="Wgrave" unicode="&#x1e80;" horiz-adv-x="985" 
d="M368 845h159l90 -127h-124zM8 649h162l126 -474l126 474h145l136 -474l116 474h158l-208 -649h-154l-124 471l-128 -471h-154z" />
    <glyph glyph-name="wgrave" unicode="&#x1e81;" horiz-adv-x="822" 
d="M286 680h159l90 -127h-124zM8 484h149l90 -351l96 351h143l100 -351l86 351h142l-158 -484h-148l-96 327l-94 -327h-148z" />
    <glyph glyph-name="Wacute" unicode="&#x1e82;" horiz-adv-x="985" 
d="M458 845h159l-125 -127h-124zM8 649h162l126 -474l126 474h145l136 -474l116 474h158l-208 -649h-154l-124 471l-128 -471h-154z" />
    <glyph glyph-name="wacute" unicode="&#x1e83;" horiz-adv-x="822" 
d="M8 484h149l90 -351l96 351h143l100 -351l86 351h142l-158 -484h-148l-96 327l-94 -327h-148zM446 680h159l-125 -127h-124z" />
    <glyph glyph-name="Wdieresis" unicode="&#x1e84;" horiz-adv-x="985" 
d="M334 848h126v-118h-126v118zM524 848h126v-118h-126v118zM8 649h162l126 -474l126 474h145l136 -474l116 474h158l-208 -649h-154l-124 471l-128 -471h-154z" />
    <glyph glyph-name="wdieresis" unicode="&#x1e85;" horiz-adv-x="822" 
d="M253 683h126v-118h-126v118zM443 683h126v-118h-126v118zM8 484h149l90 -351l96 351h143l100 -351l86 351h142l-158 -484h-148l-96 327l-94 -327h-148z" />
    <glyph glyph-name="uni1EA0" unicode="&#x1ea0;" horiz-adv-x="668" 
d="M242 649h190l234 -649h-158l-58 171h-237l-57 -171h-154zM416 275l-82 244h-4l-82 -244h168zM269 -64h129v-114h-129v114z" />
    <glyph glyph-name="uni1EA1" unicode="&#x1ea1;" horiz-adv-x="564" 
d="M99.5 2.5q-33.5 12.5 -47 45t-13.5 97.5q0 58 14.5 91t47 47.5t89.5 14.5h164v33q0 31 -8.5 46t-31 21t-67.5 6q-62 0 -170 -12v92q79 10 185 10q93 0 143.5 -14t72.5 -48t22 -99v-333h-143v44q-17 -29 -46 -41q-29 -13 -110 -13q-68 0 -101.5 12.5zM321 84q14 2 19.5 6
t9.5 13q4 7 4 21v94h-100q-34 0 -48 -4.5t-19 -18t-5 -47.5q0 -33 5 -46t19.5 -17t51.5 -4q44 0 63 3zM217 -64h129v-114h-129v114z" />
    <glyph glyph-name="uni1EA2" unicode="&#x1ea2;" horiz-adv-x="668" 
d="M242 649h190l234 -649h-158l-58 171h-237l-57 -171h-154zM416 275l-82 244h-4l-82 -244h168zM300 746q0 15 5 22t15 15q13 9 17 18t4 22q0 33 -39 33q-14 0 -24.5 -2t-20.5 -5v65q18 7 44 7q65 0 87 -21.5t22 -67.5q0 -25 -3 -37t-13 -20q-4 -3 -12.5 -9.5t-12.5 -13
t-4 -15.5h-65v9z" />
    <glyph glyph-name="uni1EA3" unicode="&#x1ea3;" horiz-adv-x="564" 
d="M99.5 2.5q-33.5 12.5 -47 45t-13.5 97.5q0 58 14.5 91t47 47.5t89.5 14.5h164v33q0 31 -8.5 46t-31 21t-67.5 6q-62 0 -170 -12v92q79 10 185 10q93 0 143.5 -14t72.5 -48t22 -99v-333h-143v44q-17 -29 -46 -41q-29 -13 -110 -13q-68 0 -101.5 12.5zM321 84q14 2 19.5 6
t9.5 13q4 7 4 21v94h-100q-34 0 -48 -4.5t-19 -18t-5 -47.5q0 -33 5 -46t19.5 -17t51.5 -4q44 0 63 3zM248 581q0 15 5 22t15 15q13 9 17 18t4 22q0 33 -39 33q-14 0 -24.5 -2t-20.5 -5v65q18 7 44 7q65 0 87 -21.5t22 -67.5q0 -25 -3 -37t-13 -20q-4 -3 -12.5 -9.5
t-12.5 -13t-4 -15.5h-65v9z" />
    <glyph glyph-name="uni1EA4" unicode="&#x1ea4;" horiz-adv-x="668" 
d="M499 895h139l-66 -96h-104zM239 845h187l58 -127h-98l-53 87l-52 -87h-98zM242 649h190l234 -649h-158l-58 171h-237l-57 -171h-154zM416 275l-82 244h-4l-82 -244h168z" />
    <glyph glyph-name="uni1EA5" unicode="&#x1ea5;" horiz-adv-x="564" 
d="M447 730h139l-66 -96h-104zM187 680h187l58 -127h-98l-53 87l-52 -87h-98zM99.5 2.5q-33.5 12.5 -47 45t-13.5 97.5q0 58 14.5 91t47 47.5t89.5 14.5h164v33q0 31 -8.5 46t-31 21t-67.5 6q-62 0 -170 -12v92q79 10 185 10q93 0 143.5 -14t72.5 -48t22 -99v-333h-143v44
q-17 -29 -46 -41q-29 -13 -110 -13q-68 0 -101.5 12.5zM321 84q14 2 19.5 6t9.5 13q4 7 4 21v94h-100q-34 0 -48 -4.5t-19 -18t-5 -47.5q0 -33 5 -46t19.5 -17t51.5 -4q44 0 63 3z" />
    <glyph glyph-name="uni1EA6" unicode="&#x1ea6;" horiz-adv-x="668" 
d="M435 905h143l28 -96h-108zM239 845h187l58 -127h-98l-53 87l-52 -87h-98zM242 649h190l234 -649h-158l-58 171h-237l-57 -171h-154zM416 275l-82 244h-4l-82 -244h168z" />
    <glyph glyph-name="uni1EA7" unicode="&#x1ea7;" horiz-adv-x="564" 
d="M383 740h143l28 -96h-108zM187 680h187l58 -127h-98l-53 87l-52 -87h-98zM99.5 2.5q-33.5 12.5 -47 45t-13.5 97.5q0 58 14.5 91t47 47.5t89.5 14.5h164v33q0 31 -8.5 46t-31 21t-67.5 6q-62 0 -170 -12v92q79 10 185 10q93 0 143.5 -14t72.5 -48t22 -99v-333h-143v44
q-17 -29 -46 -41q-29 -13 -110 -13q-68 0 -101.5 12.5zM321 84q14 2 19.5 6t9.5 13q4 7 4 21v94h-100q-34 0 -48 -4.5t-19 -18t-5 -47.5q0 -33 5 -46t19.5 -17t51.5 -4q44 0 63 3z" />
    <glyph glyph-name="uni1EA8" unicode="&#x1ea8;" horiz-adv-x="668" 
d="M242 649h190l234 -649h-158l-58 171h-237l-57 -171h-154zM416 275l-82 244h-4l-82 -244h168zM239 845h187l58 -127h-98l-53 87l-52 -87h-98zM479 818q0 15 5 22t15 15q13 9 17 18t4 22q0 33 -39 33q-14 0 -24.5 -2t-20.5 -5v65q18 7 44 7q65 0 87 -21.5t22 -67.5
q0 -25 -3 -37t-13 -20q-4 -3 -12.5 -9.5t-12.5 -13t-4 -15.5h-65v9z" />
    <glyph glyph-name="uni1EA9" unicode="&#x1ea9;" horiz-adv-x="564" 
d="M99.5 2.5q-33.5 12.5 -47 45t-13.5 97.5q0 58 14.5 91t47 47.5t89.5 14.5h164v33q0 31 -8.5 46t-31 21t-67.5 6q-62 0 -170 -12v92q79 10 185 10q93 0 143.5 -14t72.5 -48t22 -99v-333h-143v44q-17 -29 -46 -41q-29 -13 -110 -13q-68 0 -101.5 12.5zM321 84q14 2 19.5 6
t9.5 13q4 7 4 21v94h-100q-34 0 -48 -4.5t-19 -18t-5 -47.5q0 -33 5 -46t19.5 -17t51.5 -4q44 0 63 3zM187 680h187l58 -127h-98l-53 87l-52 -87h-98zM427 653q0 15 5 22t15 15q13 9 17 18t4 22q0 33 -39 33q-14 0 -24.5 -2t-20.5 -5v65q18 7 44 7q65 0 87 -21.5t22 -67.5
q0 -25 -3 -37t-13 -20q-4 -3 -12.5 -9.5t-12.5 -13t-4 -15.5h-65v9z" />
    <glyph glyph-name="uni1EAA" unicode="&#x1eaa;" horiz-adv-x="668" 
d="M242 649h190l234 -649h-158l-58 171h-237l-57 -171h-154zM416 275l-82 244h-4l-82 -244h168zM239 845h187l58 -127h-98l-53 87l-52 -87h-98zM189 901q7 28 32.5 53.5t58.5 25.5q23 0 62 -15q38 -15 54 -15q27 0 41 33l41 -24q-8 -29 -33 -55.5t-58 -26.5q-23 0 -65 17
q-39 16 -51 16q-29 0 -42 -33z" />
    <glyph glyph-name="uni1EAB" unicode="&#x1eab;" horiz-adv-x="564" 
d="M99.5 2.5q-33.5 12.5 -47 45t-13.5 97.5q0 58 14.5 91t47 47.5t89.5 14.5h164v33q0 31 -8.5 46t-31 21t-67.5 6q-62 0 -170 -12v92q79 10 185 10q93 0 143.5 -14t72.5 -48t22 -99v-333h-143v44q-17 -29 -46 -41q-29 -13 -110 -13q-68 0 -101.5 12.5zM321 84q14 2 19.5 6
t9.5 13q4 7 4 21v94h-100q-34 0 -48 -4.5t-19 -18t-5 -47.5q0 -33 5 -46t19.5 -17t51.5 -4q44 0 63 3zM187 680h187l58 -127h-98l-53 87l-52 -87h-98zM137 736q7 28 32.5 53.5t58.5 25.5q23 0 62 -15q38 -15 54 -15q27 0 41 33l41 -24q-8 -29 -33 -55.5t-58 -26.5
q-23 0 -65 17q-39 16 -51 16q-29 0 -42 -33z" />
    <glyph glyph-name="uni1EAC" unicode="&#x1eac;" horiz-adv-x="668" 
d="M242 649h190l234 -649h-158l-58 171h-237l-57 -171h-154zM416 275l-82 244h-4l-82 -244h168zM269 -64h129v-114h-129v114zM239 840h187l58 -127h-98l-53 87l-52 -87h-98z" />
    <glyph glyph-name="uni1EAD" unicode="&#x1ead;" horiz-adv-x="564" 
d="M99.5 2.5q-33.5 12.5 -47 45t-13.5 97.5q0 58 14.5 91t47 47.5t89.5 14.5h164v33q0 31 -8.5 46t-31 21t-67.5 6q-62 0 -170 -12v92q79 10 185 10q93 0 143.5 -14t72.5 -48t22 -99v-333h-143v44q-17 -29 -46 -41q-29 -13 -110 -13q-68 0 -101.5 12.5zM321 84q14 2 19.5 6
t9.5 13q4 7 4 21v94h-100q-34 0 -48 -4.5t-19 -18t-5 -47.5q0 -33 5 -46t19.5 -17t51.5 -4q44 0 63 3zM217 -64h129v-114h-129v114zM187 680h187l58 -127h-98l-53 87l-52 -87h-98z" />
    <glyph glyph-name="uni1EAE" unicode="&#x1eae;" horiz-adv-x="668" 
d="M303 973h139l-66 -96h-104zM236 752.5q-37 34.5 -40 92.5h81q6 -30 18.5 -42.5t38.5 -12.5q50 0 56 55h82q-4 -58 -41 -92.5t-97 -34.5q-61 0 -98 34.5zM242 649h190l234 -649h-158l-58 171h-237l-57 -171h-154zM416 275l-82 244h-4l-82 -244h168z" />
    <glyph glyph-name="uni1EAF" unicode="&#x1eaf;" horiz-adv-x="564" 
d="M251 808h139l-66 -96h-104zM184 587.5q-37 34.5 -40 92.5h81q6 -30 18.5 -42.5t38.5 -12.5q50 0 56 55h82q-4 -58 -41 -92.5t-97 -34.5q-61 0 -98 34.5zM99.5 2.5q-33.5 12.5 -47 45t-13.5 97.5q0 58 14.5 91t47 47.5t89.5 14.5h164v33q0 31 -8.5 46t-31 21t-67.5 6
q-62 0 -170 -12v92q79 10 185 10q93 0 143.5 -14t72.5 -48t22 -99v-333h-143v44q-17 -29 -46 -41q-29 -13 -110 -13q-68 0 -101.5 12.5zM321 84q14 2 19.5 6t9.5 13q4 7 4 21v94h-100q-34 0 -48 -4.5t-19 -18t-5 -47.5q0 -33 5 -46t19.5 -17t51.5 -4q44 0 63 3z" />
    <glyph glyph-name="uni1EB0" unicode="&#x1eb0;" horiz-adv-x="668" 
d="M220 972h143l28 -96h-108zM236 752.5q-37 34.5 -40 92.5h81q6 -30 18.5 -42.5t38.5 -12.5q50 0 56 55h82q-4 -58 -41 -92.5t-97 -34.5q-61 0 -98 34.5zM242 649h190l234 -649h-158l-58 171h-237l-57 -171h-154zM416 275l-82 244h-4l-82 -244h168z" />
    <glyph glyph-name="uni1EB1" unicode="&#x1eb1;" horiz-adv-x="564" 
d="M168 807h143l28 -96h-108zM184 587.5q-37 34.5 -40 92.5h81q6 -30 18.5 -42.5t38.5 -12.5q50 0 56 55h82q-4 -58 -41 -92.5t-97 -34.5q-61 0 -98 34.5zM99.5 2.5q-33.5 12.5 -47 45t-13.5 97.5q0 58 14.5 91t47 47.5t89.5 14.5h164v33q0 31 -8.5 46t-31 21t-67.5 6
q-62 0 -170 -12v92q79 10 185 10q93 0 143.5 -14t72.5 -48t22 -99v-333h-143v44q-17 -29 -46 -41q-29 -13 -110 -13q-68 0 -101.5 12.5zM321 84q14 2 19.5 6t9.5 13q4 7 4 21v94h-100q-34 0 -48 -4.5t-19 -18t-5 -47.5q0 -33 5 -46t19.5 -17t51.5 -4q44 0 63 3z" />
    <glyph glyph-name="uni1EB2" unicode="&#x1eb2;" horiz-adv-x="668" 
d="M242 649h190l234 -649h-158l-58 171h-237l-57 -171h-154zM416 275l-82 244h-4l-82 -244h168zM236 752.5q-37 34.5 -40 92.5h81q6 -30 18.5 -42.5t38.5 -12.5q50 0 56 55h82q-4 -58 -41 -92.5t-97 -34.5q-61 0 -98 34.5zM300 877q0 15 5 22t15 15q13 9 17 18t4 22
q0 33 -39 33q-14 0 -24.5 -2t-20.5 -5v65q18 7 44 7q65 0 87 -21.5t22 -67.5q0 -25 -3 -37t-13 -20q-4 -3 -12.5 -9.5t-12.5 -13t-4 -15.5h-65v9z" />
    <glyph glyph-name="uni1EB3" unicode="&#x1eb3;" horiz-adv-x="564" 
d="M99.5 2.5q-33.5 12.5 -47 45t-13.5 97.5q0 58 14.5 91t47 47.5t89.5 14.5h164v33q0 31 -8.5 46t-31 21t-67.5 6q-62 0 -170 -12v92q79 10 185 10q93 0 143.5 -14t72.5 -48t22 -99v-333h-143v44q-17 -29 -46 -41q-29 -13 -110 -13q-68 0 -101.5 12.5zM321 84q14 2 19.5 6
t9.5 13q4 7 4 21v94h-100q-34 0 -48 -4.5t-19 -18t-5 -47.5q0 -33 5 -46t19.5 -17t51.5 -4q44 0 63 3zM184 587.5q-37 34.5 -40 92.5h81q6 -30 18.5 -42.5t38.5 -12.5q50 0 56 55h82q-4 -58 -41 -92.5t-97 -34.5q-61 0 -98 34.5zM248 712q0 15 5 22t15 15q13 9 17 18t4 22
q0 33 -39 33q-14 0 -24.5 -2t-20.5 -5v65q18 7 44 7q65 0 87 -21.5t22 -67.5q0 -25 -3 -37t-13 -20q-4 -3 -12.5 -9.5t-12.5 -13t-4 -15.5h-65v9z" />
    <glyph glyph-name="uni1EB4" unicode="&#x1eb4;" horiz-adv-x="668" 
d="M242 649h190l234 -649h-158l-58 171h-237l-57 -171h-154zM416 275l-82 244h-4l-82 -244h168zM236 752.5q-37 34.5 -40 92.5h81q6 -30 18.5 -42.5t38.5 -12.5q50 0 56 55h82q-4 -58 -41 -92.5t-97 -34.5q-61 0 -98 34.5zM198 904q7 28 32.5 53.5t58.5 25.5q23 0 62 -15
q38 -15 54 -15q27 0 41 33l41 -24q-8 -29 -33 -55.5t-58 -26.5q-23 0 -65 17q-39 16 -51 16q-29 0 -42 -33z" />
    <glyph glyph-name="uni1EB5" unicode="&#x1eb5;" horiz-adv-x="564" 
d="M99.5 2.5q-33.5 12.5 -47 45t-13.5 97.5q0 58 14.5 91t47 47.5t89.5 14.5h164v33q0 31 -8.5 46t-31 21t-67.5 6q-62 0 -170 -12v92q79 10 185 10q93 0 143.5 -14t72.5 -48t22 -99v-333h-143v44q-17 -29 -46 -41q-29 -13 -110 -13q-68 0 -101.5 12.5zM321 84q14 2 19.5 6
t9.5 13q4 7 4 21v94h-100q-34 0 -48 -4.5t-19 -18t-5 -47.5q0 -33 5 -46t19.5 -17t51.5 -4q44 0 63 3zM184 587.5q-37 34.5 -40 92.5h81q6 -30 18.5 -42.5t38.5 -12.5q50 0 56 55h82q-4 -58 -41 -92.5t-97 -34.5q-61 0 -98 34.5zM146 739q7 28 32.5 53.5t58.5 25.5
q23 0 62 -15q38 -15 54 -15q27 0 41 33l41 -24q-8 -29 -33 -55.5t-58 -26.5q-23 0 -65 17q-39 16 -51 16q-29 0 -42 -33z" />
    <glyph glyph-name="uni1EB6" unicode="&#x1eb6;" horiz-adv-x="668" 
d="M242 649h190l234 -649h-158l-58 171h-237l-57 -171h-154zM416 275l-82 244h-4l-82 -244h168zM269 -64h129v-114h-129v114zM236 747.5q-37 34.5 -40 92.5h81q6 -30 18.5 -42.5t38.5 -12.5q50 0 56 55h82q-4 -58 -41 -92.5t-97 -34.5q-61 0 -98 34.5z" />
    <glyph glyph-name="uni1EB7" unicode="&#x1eb7;" horiz-adv-x="564" 
d="M99.5 2.5q-33.5 12.5 -47 45t-13.5 97.5q0 58 14.5 91t47 47.5t89.5 14.5h164v33q0 31 -8.5 46t-31 21t-67.5 6q-62 0 -170 -12v92q79 10 185 10q93 0 143.5 -14t72.5 -48t22 -99v-333h-143v44q-17 -29 -46 -41q-29 -13 -110 -13q-68 0 -101.5 12.5zM321 84q14 2 19.5 6
t9.5 13q4 7 4 21v94h-100q-34 0 -48 -4.5t-19 -18t-5 -47.5q0 -33 5 -46t19.5 -17t51.5 -4q44 0 63 3zM217 -64h129v-114h-129v114zM184 587.5q-37 34.5 -40 92.5h81q6 -30 18.5 -42.5t38.5 -12.5q50 0 56 55h82q-4 -58 -41 -92.5t-97 -34.5q-61 0 -98 34.5z" />
    <glyph glyph-name="uni1EB8" unicode="&#x1eb8;" horiz-adv-x="610" 
d="M70 649h495v-111h-339v-149h306v-111h-306v-167h349v-111h-505v649zM240 -64h129v-114h-129v114z" />
    <glyph glyph-name="uni1EB9" unicode="&#x1eb9;" horiz-adv-x="559" 
d="M50 147v174q0 91 58.5 132t180.5 41q115 0 168.5 -39.5t53.5 -133.5v-118h-314v-44q0 -42 30 -60t108 -18q72 0 162 21v-93q-89 -19 -190 -19q-257 0 -257 157zM372 286v70q0 24 -19.5 36t-65.5 12q-53 0 -71 -12q-19 -13 -19 -36v-70h175zM215 -64h129v-114h-129v114z
" />
    <glyph glyph-name="uni1EBA" unicode="&#x1eba;" horiz-adv-x="610" 
d="M70 649h495v-111h-339v-149h306v-111h-306v-167h349v-111h-505v649zM271 746q0 15 5 22t15 15q13 9 17 18t4 22q0 33 -39 33q-14 0 -24.5 -2t-20.5 -5v65q18 7 44 7q65 0 87 -21.5t22 -67.5q0 -25 -3 -37t-13 -20q-4 -3 -12.5 -9.5t-12.5 -13t-4 -15.5h-65v9z" />
    <glyph glyph-name="uni1EBB" unicode="&#x1ebb;" horiz-adv-x="559" 
d="M50 147v174q0 91 58.5 132t180.5 41q115 0 168.5 -39.5t53.5 -133.5v-118h-314v-44q0 -42 30 -60t108 -18q72 0 162 21v-93q-89 -19 -190 -19q-257 0 -257 157zM372 286v70q0 24 -19.5 36t-65.5 12q-53 0 -71 -12q-19 -13 -19 -36v-70h175zM246 581q0 15 5 22t15 15
q13 9 17 18t4 22q0 33 -39 33q-14 0 -24.5 -2t-20.5 -5v65q18 7 44 7q65 0 87 -21.5t22 -67.5q0 -25 -3 -37t-13 -20q-4 -3 -12.5 -9.5t-12.5 -13t-4 -15.5h-65v9z" />
    <glyph glyph-name="uni1EBC" unicode="&#x1ebc;" horiz-adv-x="610" 
d="M70 649h495v-111h-339v-149h306v-111h-306v-167h349v-111h-505v649zM290 737l-42 20q-35 0 -36 -30h-73q1 57 30 81.5t86 24.5q29 0 66 -19t44 -19q33 0 33 35h72q-2 -114 -110 -114q-26 0 -70 21z" />
    <glyph glyph-name="uni1EBD" unicode="&#x1ebd;" horiz-adv-x="559" 
d="M50 147v174q0 91 58.5 132t180.5 41q115 0 168.5 -39.5t53.5 -133.5v-118h-314v-44q0 -42 30 -60t108 -18q72 0 162 21v-93q-89 -19 -190 -19q-257 0 -257 157zM372 286v70q0 24 -19.5 36t-65.5 12q-53 0 -71 -12q-19 -13 -19 -36v-70h175zM135 580q7 28 32.5 53.5
t58.5 25.5q23 0 62 -15q38 -15 54 -15q27 0 41 33l41 -24q-8 -29 -33 -55.5t-58 -26.5q-23 0 -65 17q-39 16 -51 16q-29 0 -42 -33z" />
    <glyph glyph-name="uni1EBE" unicode="&#x1ebe;" horiz-adv-x="610" 
d="M470 895h139l-66 -96h-104zM210 845h187l58 -127h-98l-53 87l-52 -87h-98zM70 649h495v-111h-339v-149h306v-111h-306v-167h349v-111h-505v649z" />
    <glyph glyph-name="uni1EBF" unicode="&#x1ebf;" horiz-adv-x="559" 
d="M445 730h139l-66 -96h-104zM185 680h187l58 -127h-98l-53 87l-52 -87h-98zM50 147v174q0 91 58.5 132t180.5 41q115 0 168.5 -39.5t53.5 -133.5v-118h-314v-44q0 -42 30 -60t108 -18q72 0 162 21v-93q-89 -19 -190 -19q-257 0 -257 157zM372 286v70q0 24 -19.5 36
t-65.5 12q-53 0 -71 -12q-19 -13 -19 -36v-70h175z" />
    <glyph glyph-name="uni1EC0" unicode="&#x1ec0;" horiz-adv-x="610" 
d="M406 905h143l28 -96h-108zM210 845h187l58 -127h-98l-53 87l-52 -87h-98zM70 649h495v-111h-339v-149h306v-111h-306v-167h349v-111h-505v649z" />
    <glyph glyph-name="uni1EC1" unicode="&#x1ec1;" horiz-adv-x="559" 
d="M381 740h143l28 -96h-108zM185 680h187l58 -127h-98l-53 87l-52 -87h-98zM50 147v174q0 91 58.5 132t180.5 41q115 0 168.5 -39.5t53.5 -133.5v-118h-314v-44q0 -42 30 -60t108 -18q72 0 162 21v-93q-89 -19 -190 -19q-257 0 -257 157zM372 286v70q0 24 -19.5 36
t-65.5 12q-53 0 -71 -12q-19 -13 -19 -36v-70h175z" />
    <glyph glyph-name="uni1EC2" unicode="&#x1ec2;" horiz-adv-x="610" 
d="M70 649h495v-111h-339v-149h306v-111h-306v-167h349v-111h-505v649zM210 845h187l58 -127h-98l-53 87l-52 -87h-98zM450 818q0 15 5 22t15 15q13 9 17 18t4 22q0 33 -39 33q-14 0 -24.5 -2t-20.5 -5v65q18 7 44 7q65 0 87 -21.5t22 -67.5q0 -25 -3 -37t-13 -20
q-4 -3 -12.5 -9.5t-12.5 -13t-4 -15.5h-65v9z" />
    <glyph glyph-name="uni1EC3" unicode="&#x1ec3;" horiz-adv-x="559" 
d="M50 147v174q0 91 58.5 132t180.5 41q115 0 168.5 -39.5t53.5 -133.5v-118h-314v-44q0 -42 30 -60t108 -18q72 0 162 21v-93q-89 -19 -190 -19q-257 0 -257 157zM372 286v70q0 24 -19.5 36t-65.5 12q-53 0 -71 -12q-19 -13 -19 -36v-70h175zM185 680h187l58 -127h-98
l-53 87l-52 -87h-98zM425 653q0 15 5 22t15 15q13 9 17 18t4 22q0 33 -39 33q-14 0 -24.5 -2t-20.5 -5v65q18 7 44 7q65 0 87 -21.5t22 -67.5q0 -25 -3 -37t-13 -20q-4 -3 -12.5 -9.5t-12.5 -13t-4 -15.5h-65v9z" />
    <glyph glyph-name="uni1EC4" unicode="&#x1ec4;" horiz-adv-x="610" 
d="M70 649h495v-111h-339v-149h306v-111h-306v-167h349v-111h-505v649zM210 845h187l58 -127h-98l-53 87l-52 -87h-98zM160 901q7 28 32.5 53.5t58.5 25.5q23 0 62 -15q38 -15 54 -15q27 0 41 33l41 -24q-8 -29 -33 -55.5t-58 -26.5q-23 0 -65 17q-39 16 -51 16
q-29 0 -42 -33z" />
    <glyph glyph-name="uni1EC5" unicode="&#x1ec5;" horiz-adv-x="559" 
d="M50 147v174q0 91 58.5 132t180.5 41q115 0 168.5 -39.5t53.5 -133.5v-118h-314v-44q0 -42 30 -60t108 -18q72 0 162 21v-93q-89 -19 -190 -19q-257 0 -257 157zM372 286v70q0 24 -19.5 36t-65.5 12q-53 0 -71 -12q-19 -13 -19 -36v-70h175zM185 680h187l58 -127h-98
l-53 87l-52 -87h-98zM135 736q7 28 32.5 53.5t58.5 25.5q23 0 62 -15q38 -15 54 -15q27 0 41 33l41 -24q-8 -29 -33 -55.5t-58 -26.5q-23 0 -65 17q-39 16 -51 16q-29 0 -42 -33z" />
    <glyph glyph-name="uni1EC6" unicode="&#x1ec6;" horiz-adv-x="610" 
d="M70 649h495v-111h-339v-149h306v-111h-306v-167h349v-111h-505v649zM240 -64h129v-114h-129v114zM210 840h187l58 -127h-98l-53 87l-52 -87h-98z" />
    <glyph glyph-name="uni1EC7" unicode="&#x1ec7;" horiz-adv-x="559" 
d="M50 147v174q0 91 58.5 132t180.5 41q115 0 168.5 -39.5t53.5 -133.5v-118h-314v-44q0 -42 30 -60t108 -18q72 0 162 21v-93q-89 -19 -190 -19q-257 0 -257 157zM372 286v70q0 24 -19.5 36t-65.5 12q-53 0 -71 -12q-19 -13 -19 -36v-70h175zM215 -64h129v-114h-129v114z
M185 680h187l58 -127h-98l-53 87l-52 -87h-98z" />
    <glyph glyph-name="uni1EC8" unicode="&#x1ec8;" horiz-adv-x="296" 
d="M70 649h156v-649h-156v649zM114 746q0 15 5 22t15 15q13 9 17 18t4 22q0 33 -39 33q-14 0 -24.5 -2t-20.5 -5v65q18 7 44 7q65 0 87 -21.5t22 -67.5q0 -25 -3 -37t-13 -20q-4 -3 -12.5 -9.5t-12.5 -13t-4 -15.5h-65v9z" />
    <glyph glyph-name="uni1EC9" unicode="&#x1ec9;" horiz-adv-x="282" 
d="M68 484h146v-484h-146v484zM107 581q0 15 5 22t15 15q13 9 17 18t4 22q0 33 -39 33q-14 0 -24.5 -2t-20.5 -5v65q18 7 44 7q65 0 87 -21.5t22 -67.5q0 -25 -3 -37t-13 -20q-4 -3 -12.5 -9.5t-12.5 -13t-4 -15.5h-65v9z" />
    <glyph glyph-name="uni1ECA" unicode="&#x1eca;" horiz-adv-x="296" 
d="M70 649h156v-649h-156v649zM83 -64h129v-114h-129v114z" />
    <glyph glyph-name="uni1ECB" unicode="&#x1ecb;" horiz-adv-x="282" 
d="M68 659h146v-118h-146v118zM68 484h146v-484h-146v484zM76 -64h129v-114h-129v114z" />
    <glyph glyph-name="uni1ECC" unicode="&#x1ecc;" horiz-adv-x="728" 
d="M263.5 -3q-45.5 7 -94.5 24q-53 18 -83 58.5t-30 98.5v284q0 48 21.5 86t55.5 60q30 19 74 32t82 16q35 3 74 3q46 0 80 -3.5t76 -14.5q48 -14 79 -34t52 -56q22 -37 22 -89v-284q0 -54 -28.5 -93t-78.5 -59q-90 -36 -202 -36q-54 0 -99.5 7zM420.5 103.5
q22.5 2.5 46.5 9.5t36.5 23.5t12.5 41.5v285q0 46 -37 65.5t-115 19.5t-115 -19t-37 -66v-285q0 -25 13 -41.5t38 -23.5q24 -7 46.5 -9.5t55.5 -2.5t55.5 2.5zM299 -64h129v-114h-129v114z" />
    <glyph glyph-name="uni1ECD" unicode="&#x1ecd;" horiz-adv-x="592" 
d="M222 -7q-29 3 -62 12q-36 10 -58 28.5t-37 52.5q-15 33 -15 80v143q0 48 15 84t39 56q21 17 55.5 28.5t67.5 14.5q38 2 69 2q46 0 73.5 -2.5t60.5 -12.5q36 -11 58.5 -30t38.5 -54q15 -36 15 -86v-143q0 -45 -14.5 -79t-37.5 -53q-20 -17 -54.5 -27.5t-67.5 -13.5
q-30 -3 -72 -3q-45 0 -74 3zM358 87.5q21 6.5 29.5 20.5t8.5 41v183q0 40 -21 56t-79 16t-79 -16t-21 -56v-183q0 -27 8.5 -41t29.5 -20.5t62 -6.5t62 6.5zM231 -64h129v-114h-129v114z" />
    <glyph glyph-name="uni1ECE" unicode="&#x1ece;" horiz-adv-x="728" 
d="M263.5 -3q-45.5 7 -94.5 24q-53 18 -83 58.5t-30 98.5v284q0 48 21.5 86t55.5 60q30 19 74 32t82 16q35 3 74 3q46 0 80 -3.5t76 -14.5q48 -14 79 -34t52 -56q22 -37 22 -89v-284q0 -54 -28.5 -93t-78.5 -59q-90 -36 -202 -36q-54 0 -99.5 7zM420.5 103.5
q22.5 2.5 46.5 9.5t36.5 23.5t12.5 41.5v285q0 46 -37 65.5t-115 19.5t-115 -19t-37 -66v-285q0 -25 13 -41.5t38 -23.5q24 -7 46.5 -9.5t55.5 -2.5t55.5 2.5zM330 746q0 15 5 22t15 15q13 9 17 18t4 22q0 33 -39 33q-14 0 -24.5 -2t-20.5 -5v65q18 7 44 7q65 0 87 -21.5
t22 -67.5q0 -25 -3 -37t-13 -20q-4 -3 -12.5 -9.5t-12.5 -13t-4 -15.5h-65v9z" />
    <glyph glyph-name="uni1ECF" unicode="&#x1ecf;" horiz-adv-x="592" 
d="M222 -7q-29 3 -62 12q-36 10 -58 28.5t-37 52.5q-15 33 -15 80v143q0 48 15 84t39 56q21 17 55.5 28.5t67.5 14.5q38 2 69 2q46 0 73.5 -2.5t60.5 -12.5q36 -11 58.5 -30t38.5 -54q15 -36 15 -86v-143q0 -45 -14.5 -79t-37.5 -53q-20 -17 -54.5 -27.5t-67.5 -13.5
q-30 -3 -72 -3q-45 0 -74 3zM358 87.5q21 6.5 29.5 20.5t8.5 41v183q0 40 -21 56t-79 16t-79 -16t-21 -56v-183q0 -27 8.5 -41t29.5 -20.5t62 -6.5t62 6.5zM262 581q0 15 5 22t15 15q13 9 17 18t4 22q0 33 -39 33q-14 0 -24.5 -2t-20.5 -5v65q18 7 44 7q65 0 87 -21.5
t22 -67.5q0 -25 -3 -37t-13 -20q-4 -3 -12.5 -9.5t-12.5 -13t-4 -15.5h-65v9z" />
    <glyph glyph-name="uni1ED0" unicode="&#x1ed0;" horiz-adv-x="728" 
d="M529 895h139l-66 -96h-104zM269 845h187l58 -127h-98l-53 87l-52 -87h-98zM263.5 -3q-45.5 7 -94.5 24q-53 18 -83 58.5t-30 98.5v284q0 48 21.5 86t55.5 60q30 19 74 32t82 16q35 3 74 3q46 0 80 -3.5t76 -14.5q48 -14 79 -34t52 -56q22 -37 22 -89v-284
q0 -54 -28.5 -93t-78.5 -59q-90 -36 -202 -36q-54 0 -99.5 7zM420.5 103.5q22.5 2.5 46.5 9.5t36.5 23.5t12.5 41.5v285q0 46 -37 65.5t-115 19.5t-115 -19t-37 -66v-285q0 -25 13 -41.5t38 -23.5q24 -7 46.5 -9.5t55.5 -2.5t55.5 2.5z" />
    <glyph glyph-name="uni1ED1" unicode="&#x1ed1;" horiz-adv-x="592" 
d="M461 730h139l-66 -96h-104zM201 680h187l58 -127h-98l-53 87l-52 -87h-98zM222 -7q-29 3 -62 12q-36 10 -58 28.5t-37 52.5q-15 33 -15 80v143q0 48 15 84t39 56q21 17 55.5 28.5t67.5 14.5q38 2 69 2q46 0 73.5 -2.5t60.5 -12.5q36 -11 58.5 -30t38.5 -54q15 -36 15 -86
v-143q0 -45 -14.5 -79t-37.5 -53q-20 -17 -54.5 -27.5t-67.5 -13.5q-30 -3 -72 -3q-45 0 -74 3zM358 87.5q21 6.5 29.5 20.5t8.5 41v183q0 40 -21 56t-79 16t-79 -16t-21 -56v-183q0 -27 8.5 -41t29.5 -20.5t62 -6.5t62 6.5z" />
    </font>
</defs>
</svg>
