<?xml version="1.0" standalone="no"?>
<!DOCTYPE svg PUBLIC "-//W3C//DTD SVG 1.1//EN" "http://www.w3.org/Graphics/SVG/1.1/DTD/svg11.dtd" >
<svg xmlns="http://www.w3.org/2000/svg" xmlns:xlink="http://www.w3.org/1999/xlink" version="1.1">
<metadata>
Created by FontForge 20201107 at Tue Mar  7 14:13:59 2017
 By 
Copyright (c) 2011, Jonas Hecksher, Playtypes, e-types AS (lasse@e-types.com), with Reserved Font Name 'Play', 'Playtype', 'Playtype Sans'.
</metadata>
<defs>
<font id="Play-Regular" horiz-adv-x="580" >
  <font-face 
    font-family="Play"
    font-weight="400"
    font-stretch="normal"
    units-per-em="1000"
    panose-1="0 0 5 0 0 0 0 0 0 0"
    ascent="800"
    descent="-200"
    x-height="484"
    cap-height="649"
    bbox="-524 -220 1259 1035"
    underline-thickness="50"
    underline-position="-100"
    unicode-range="U+000D-FB04"
  />
<missing-glyph horiz-adv-x="260" 
 />
    <glyph glyph-name="fi" unicode="fi" horiz-adv-x="616" 
d="M121 425h-111v59h111v78q0 83 36.5 115.5t123.5 32.5q54 0 101 -5v-58q-38 5 -68 5q-43 0 -64.5 -7t-30 -24.5t-8.5 -52.5v-84h171v-59h-171v-425h-90v425zM448 700h90v-98h-90v98zM448 484h90v-484h-90v484z" />
    <glyph glyph-name="fl" unicode="fl" horiz-adv-x="616" 
d="M121 425h-111v59h111v78q0 83 36.5 115.5t123.5 32.5q54 0 101 -5v-58q-38 5 -68 5q-43 0 -64.5 -7t-30 -24.5t-8.5 -52.5v-84h171v-59h-171v-425h-90v425zM448 700h90v-700h-90v700z" />
    <glyph glyph-name="f_f" unicode="ff" horiz-adv-x="729" 
d="M121 425h-111v59h111v78q0 83 36.5 115.5t123.5 32.5q54 0 101 -5v-58q-38 5 -68 5q-43 0 -64.5 -7t-30 -24.5t-8.5 -52.5v-84h237v78q0 83 36.5 115.5t123.5 32.5q54 0 101 -5v-58q-38 5 -68 5q-43 0 -64.5 -7t-30 -24.5t-8.5 -52.5v-84h171v-59h-171v-425h-90v425h-237
v-425h-90v425z" />
    <glyph glyph-name="f_f_i" unicode="ffi" horiz-adv-x="943" 
d="M121 425h-111v59h111v78q0 83 36.5 115.5t123.5 32.5q54 0 101 -5v-58q-38 5 -68 5q-43 0 -64.5 -7t-30 -24.5t-8.5 -52.5v-84h237v78q0 83 36.5 115.5t123.5 32.5q54 0 101 -5v-58q-38 5 -68 5q-43 0 -64.5 -7t-30 -24.5t-8.5 -52.5v-84h171v-59h-171v-425h-90v425h-237
v-425h-90v425zM775 700h90v-95h-90v95zM775 484h90v-484h-90v484z" />
    <glyph glyph-name="f_f_l" unicode="ffl" horiz-adv-x="943" 
d="M121 425h-111v59h111v78q0 83 36.5 115.5t123.5 32.5q54 0 101 -5v-58q-38 5 -68 5q-43 0 -64.5 -7t-30 -24.5t-8.5 -52.5v-84h237v78q0 83 36.5 115.5t123.5 32.5q54 0 101 -5v-58q-38 5 -68 5q-43 0 -64.5 -7t-30 -24.5t-8.5 -52.5v-84h171v-59h-171v-425h-90v425h-237
v-425h-90v425zM775 700h90v-700h-90v700z" />
    <glyph glyph-name=".notdef" horiz-adv-x="260" 
 />
    <glyph glyph-name=".null" horiz-adv-x="0" 
 />
    <glyph glyph-name="nonmarkingreturn" unicode="&#xd;" horiz-adv-x="230" 
 />
    <glyph glyph-name="NULL" horiz-adv-x="0" 
 />
    <glyph glyph-name="NULL" horiz-adv-x="0" 
 />
    <glyph glyph-name="space" unicode=" " horiz-adv-x="230" 
 />
    <glyph glyph-name="exclam" unicode="!" horiz-adv-x="280" 
d="M80 649h120l-35 -470h-50zM82 108h116v-108h-116v108z" />
    <glyph glyph-name="quotedbl" unicode="&#x22;" horiz-adv-x="443" 
d="M85 649h86v-220h-86v220zM272 649h86v-220h-86v220z" />
    <glyph glyph-name="numbersign" unicode="#" 
d="M158 199h-98v62h110l26 127h-136v62h148l37 189h66l-37 -189h84l37 189h66l-37 -189h96v-62h-109l-25 -127h134v-62h-146l-39 -199h-66l39 199h-84l-39 -199h-66zM320 261l26 127h-85l-25 -127h84z" />
    <glyph glyph-name="dollar" unicode="$" 
d="M264 -10q-76 0 -191 16v79q4 0 36 -7q29 -6 48.5 -8.5t45.5 -4.5q31 -3 61 -3v228h-29q-95 0 -135 38t-40 118v42q0 72 46 108t158 42v71h57v-70q62 0 161 -11v-71q-123 13 -161 15v-210h30q67 0 104.5 -16t53 -48.5t15.5 -87.5v-37q0 -91 -49 -133t-154 -48v-132h-57
v130zM264 571q-64 -4 -87 -22t-23 -58v-64q0 -34 25 -49.5t85 -15.5v209zM402 84.5q27 17.5 27 55.5v74q0 42 -24 59t-84 17v-226q54 3 81 20.5z" />
    <glyph glyph-name="percent" unicode="%" horiz-adv-x="855" 
d="M555 660h77l-324 -670h-77zM143.5 316q-23.5 3 -47.5 12q-50 18 -50 84v125q0 63 39.5 87.5t118.5 24.5t118 -24.5t39 -87.5v-125q0 -66 -49 -84q-24 -9 -47.5 -12t-60.5 -3t-60.5 3zM265.5 375q17.5 10 17.5 41v125q0 34 -17 45t-62 11t-62.5 -11t-17.5 -45v-125
q0 -31 18 -41t62 -10t61.5 10zM591.5 -7q-23.5 3 -47.5 12q-50 18 -50 84v125q0 63 39.5 87.5t118.5 24.5t118 -24.5t39 -87.5v-125q0 -66 -49 -84q-24 -9 -47.5 -12t-60.5 -3t-60.5 3zM713.5 52q17.5 10 17.5 41v125q0 34 -17 45t-62 11t-62.5 -11t-17.5 -45v-125
q0 -31 18 -41t62 -10t61.5 10z" />
    <glyph glyph-name="ampersand" unicode="&#x26;" horiz-adv-x="636" 
d="M60 105v109q0 76 92 117l47 22l-39 46q-31 35 -31 69v97q0 95 166 95q67 0 136 -15v-73q-74 25 -138 25q-43 0 -61 -9t-18 -31v-74q0 -16 10 -27l242 -293q3 18 3 42v96h76v-92q0 -68 -21 -112q41 -38 60 -38h26v-59h-64q-35 0 -73 34q-64 -44 -195 -44q-218 0 -218 115z
M296 52q98 0 132 28l-193 230l-35 -15q-21 -10 -33.5 -30t-12.5 -42v-122q0 -49 131 -49h11z" />
    <glyph glyph-name="quotesingle" unicode="'" horiz-adv-x="256" 
d="M85 649h86v-220h-86v220z" />
    <glyph glyph-name="parenleft" unicode="(" horiz-adv-x="331" 
d="M79 276q0 101 35.5 194.5t109.5 208.5h81q-71 -124 -105 -217t-34 -186q0 -94 34.5 -189.5t104.5 -213.5h-81q-145 215 -145 403z" />
    <glyph glyph-name="parenright" unicode=")" horiz-adv-x="331" 
d="M130.5 86.5q34.5 95.5 34.5 189.5q0 91 -33.5 183t-105.5 220h81q74 -115 109.5 -208.5t35.5 -194.5q0 -188 -145 -403h-81q70 118 104.5 213.5z" />
    <glyph glyph-name="asterisk" unicode="*" horiz-adv-x="398" 
d="M69 361l94 106l-137 29l23 69l129 -54l-13 138h73l-13 -138l125 54l22 -69l-134 -29l91 -106l-61 -41l-69 119l-70 -119z" />
    <glyph glyph-name="plus" unicode="+" horiz-adv-x="500" 
d="M216 282h-156v67h156v166h67v-166h157v-67h-157v-167h-67v167z" />
    <glyph glyph-name="comma" unicode="," horiz-adv-x="256" 
d="M85 108h106l-94 -220h-58z" />
    <glyph glyph-name="hyphen" unicode="-" horiz-adv-x="358" 
d="M40 322h278v-72h-278v72z" />
    <glyph glyph-name="period" unicode="." horiz-adv-x="256" 
d="M70 108h116v-108h-116v108z" />
    <glyph glyph-name="slash" unicode="/" horiz-adv-x="421" 
d="M334 660h77l-324 -670h-77z" />
    <glyph glyph-name="zero" unicode="0" 
d="M217.5 -7q-27.5 3 -58.5 12q-33 9 -52.5 26.5t-32.5 49.5q-13 30 -13 75v328q0 45 13 79t34 54q19 17 50.5 27.5t63.5 13.5q36 2 67 2q44 0 71.5 -3t58.5 -12q33 -10 53.5 -28t33.5 -51t13 -81v-329q0 -41 -13 -73t-34 -50q-20 -17 -51 -27.5t-63 -12.5q-28 -3 -69 -3
q-44 0 -71.5 3zM373 56.5q29 7.5 42 29.5t13 65v340q0 47 -13.5 70.5t-42 31.5t-82.5 8q-55 0 -83.5 -8t-41.5 -31.5t-13 -70.5v-340q0 -43 13.5 -65t42.5 -29.5t83 -7.5q53 0 82 7.5z" />
    <glyph glyph-name="one" unicode="1" 
d="M319 559l-197 -129v82l198 137h86v-649h-87v559z" />
    <glyph glyph-name="two" unicode="2" 
d="M72 116q0 28 9.5 52.5t24.5 41.5q12 14 36.5 30.5t46.5 27.5q19 10 50 23l108 48q64 28 64 87v89q0 46 -28 61.5t-98 15.5q-69 0 -190 -21v70q101 19 209 19t156 -32.5t48 -108.5v-106q0 -36 -12 -59.5t-38.5 -42t-77.5 -41.5l-150 -69q-66 -30 -66 -88v-43h344v-70h-436
v116z" />
    <glyph glyph-name="three" unicode="3" 
d="M77 9v72q119 -25 199 -25q133 0 133 75v111q0 41 -44 54q-21 5 -37.5 6.5t-42.5 1.5h-125v62h108q26 0 42 1.5t37 7.5q22 5 34 19t12 36v116q0 51 -120 51q-80 0 -183 -16v69q86 9 182 9q111 0 161.5 -24.5t50.5 -83.5v-125q0 -31 -25 -51.5t-64 -26.5v-4
q24 -4 39.5 -8.5t33.5 -13.5q35 -18 35 -63v-130q0 -34 -15 -61t-38 -42q-20 -14 -53 -22.5t-65 -11.5q-38 -2 -66 -2q-84 0 -189 19z" />
    <glyph glyph-name="four" unicode="4" 
d="M375 142h-323v79l294 428h112v-438h70v-69h-70v-142h-83v142zM375 211v359l-243 -359h243z" />
    <glyph glyph-name="five" unicode="5" 
d="M87 8v72q116 -24 194 -24q61 0 89.5 17.5t28.5 57.5v129q0 42 -36 54q-17 5 -31.5 6.5t-37.5 1.5h-192v327h374v-68h-284v-197h150q40 0 71 -9.5t55 -32.5q25 -25 25 -65v-148q0 -35 -12.5 -61.5t-33.5 -41.5q-19 -14 -48.5 -23t-58.5 -11q-36 -2 -62 -2q-81 0 -191 18z
" />
    <glyph glyph-name="six" unicode="6" 
d="M218 -7q-27 3 -56 12q-31 9 -49 26.5t-30 49.5t-12 75v328q0 45 14.5 79t37.5 54q20 17 54 27.5t68 13.5q38 2 69 2q61 0 164 -9v-68q-103 13 -177 13q-56 0 -85 -8t-42.5 -31.5t-13.5 -70.5v-102h147q50 0 75 -2t53 -8t41.5 -20t23.5 -40q9 -25 9 -63v-95
q0 -108 -68 -140q-33 -15 -66 -20.5t-86 -5.5q-44 0 -71 3zM370.5 56.5q26.5 7.5 38 29t11.5 65.5v97q0 33 -10 49.5t-37 22.5t-83 6h-130v-175q0 -44 12 -65.5t39 -29t80 -7.5t79.5 7.5z" />
    <glyph glyph-name="seven" unicode="7" 
d="M434 584h-372v65h456v-65l-248 -584h-96z" />
    <glyph glyph-name="eight" unicode="8" 
d="M113 19.5q-54 29.5 -54 97.5v121q0 39 30.5 65.5t81.5 38.5v4q-45 10 -67.5 32t-22.5 61v101q0 28 9 48t30 38q43 34 169 34t169 -34q21 -18 30 -38t9 -48v-101q0 -39 -22 -61t-67 -32v-4q51 -12 81.5 -38.5t30.5 -65.5v-119q0 -70 -53.5 -99.5t-177.5 -29.5
q-122 0 -176 29.5zM380.5 378q25.5 14 25.5 52v105q0 37 -27 52t-90 15t-90 -15t-27 -52v-105q0 -38 25.5 -52t91.5 -14t91.5 14zM392 63q30 15 30 51v121q0 51 -43 64q-21 6 -39 7.5t-51 1.5t-50 -1.5t-39 -7.5q-44 -13 -44 -64v-121q0 -36 30 -51t103 -15t103 15z" />
    <glyph glyph-name="nine" unicode="9" 
d="M102 1v67q96 -17 166 -17q59 0 91.5 11.5t46.5 39.5t14 78v85h-147q-50 0 -75 2t-53 8t-41.5 20t-23.5 40q-9 26 -9 63v96q0 108 68 140q33 15 66 20.5t86 5.5q44 0 71 -2.5t56 -11.5q31 -10 49 -27.5t30 -48.5t12 -76v-328q0 -95 -56 -135.5t-182 -40.5q-81 0 -169 11z
M420 323v176q0 44 -12 65.5t-39 29t-80 7.5t-79.5 -7.5t-38 -29t-11.5 -65.5v-98q0 -33 10 -49.5t37 -22.5t83 -6h130z" />
    <glyph glyph-name="colon" unicode=":" horiz-adv-x="256" 
d="M70 484h116v-108h-116v108zM70 108h116v-108h-116v108z" />
    <glyph glyph-name="semicolon" unicode=";" horiz-adv-x="256" 
d="M70 484h116v-108h-116v108zM85 108h106l-94 -220h-58z" />
    <glyph glyph-name="less" unicode="&#x3c;" horiz-adv-x="500" 
d="M60 275v72l380 213v-81l-302 -171l302 -165v-81z" />
    <glyph glyph-name="equal" unicode="=" horiz-adv-x="500" 
d="M60 429h380v-67h-380v67zM60 269h380v-67h-380v67z" />
    <glyph glyph-name="greater" unicode="&#x3e;" horiz-adv-x="500" 
d="M60 143l302 165l-302 171v81l380 -213v-72l-380 -213v81z" />
    <glyph glyph-name="question" unicode="?" horiz-adv-x="533" 
d="M207 195q0 51 16.5 88.5t43.5 57.5q31 24 50 36q60 40 60 104v30q0 45 -28.5 61t-97.5 16q-70 0 -191 -21v73q102 19 210 19t155.5 -32t47.5 -109v-50q0 -37 -13 -66.5t-34 -47.5q-40 -36 -88 -64q-21 -13 -34 -33t-13 -43v-43h-84v24zM190 108h116v-108h-116v108z" />
    <glyph glyph-name="at" unicode="@" horiz-adv-x="737" 
d="M280 -86q-36 4 -75 15q-45 12 -75 30.5t-49 50.5q-21 33 -21 76v307q0 56 29.5 96t81.5 58q49 17 94 24.5t97 7.5q56 0 103 -7t97 -24q54 -18 84.5 -58t30.5 -96v-249q0 -48 -24.5 -68.5t-74.5 -20.5h-31q-33 0 -56 10.5t-28 26.5q-10 -22 -31 -29q-22 -8 -83 -8
q-57 0 -88.5 11.5t-46 42t-14.5 88.5v110q0 50 15.5 78.5t51.5 40.5t102 12t99.5 -12t46.5 -39.5t13 -79.5v-179q0 -14 8.5 -19t30.5 -5t29.5 4.5t7.5 19.5v277q0 35 -24 61t-64 38q-74 21 -153 21q-78 0 -145 -21q-37 -12 -58.5 -38t-21.5 -61v-327q0 -32 21.5 -55.5
t59.5 -35.5q64 -21 145 -21q52 0 128.5 9t107.5 17v-58q-26 -9 -99 -17t-139 -8q-46 0 -82 4zM423.5 113q18.5 6 25 21.5t6.5 49.5v120q0 40 -5.5 56.5t-23 21.5t-60.5 5q-41 0 -58.5 -5.5t-23.5 -22t-6 -55.5v-120q0 -35 6.5 -51t24 -21t57.5 -5q39 0 57.5 6z" />
    <glyph glyph-name="A" unicode="A" horiz-adv-x="652" 
d="M273 649h112l252 -649h-101l-74 197h-278l-73 -197h-96zM438 264l-110 293h-9l-110 -293h229z" />
    <glyph glyph-name="B" unicode="B" horiz-adv-x="613" 
d="M84 649h232q83 0 132 -17q45 -16 60.5 -40t15.5 -66v-87q0 -39 -22 -60.5t-67 -31.5v-4q53 -9 85.5 -36.5t32.5 -68.5v-109q0 -71 -53 -100t-177 -29h-239v649zM319 365q61 0 87.5 18.5t26.5 58.5v76q0 37 -27 52t-90 15h-135v-220h138zM323 67q73 0 103 15t30 51v98
q0 26 -10.5 41.5t-32.5 22.5q-22 6 -39 7.5t-51 1.5h-142v-237h142z" />
    <glyph glyph-name="C" unicode="C" horiz-adv-x="564" 
d="M64 166v308q0 186 273 186q93 0 178 -19v-72q-96 24 -176 24q-39 0 -68 -4.5t-56 -15.5q-58 -25 -58 -98v-304q0 -112 186 -112q80 0 176 24v-74q-85 -19 -182 -19q-273 0 -273 176z" />
    <glyph glyph-name="D" unicode="D" horiz-adv-x="679" 
d="M84 649h258q273 0 273 -186v-287q0 -176 -272 -176h-259v649zM336 66q186 0 186 112v286q0 36 -15 61t-42 37q-27 11 -56 15.5t-68 4.5h-160v-516h155z" />
    <glyph glyph-name="E" unicode="E" 
d="M84 649h436v-68h-339v-212h306v-68h-306v-233h349v-68h-446v649z" />
    <glyph glyph-name="F" unicode="F" horiz-adv-x="560" 
d="M84 649h446v-68h-349v-212h316v-68h-316v-301h-97v649z" />
    <glyph glyph-name="G" unicode="G" horiz-adv-x="666" 
d="M281.5 -6q-35.5 4 -74.5 15q-44 12 -74 30.5t-49 50.5q-20 34 -20 76v307q0 56 29 96t80 58q49 17 93.5 24.5t96.5 7.5q124 0 224 -16v-75q-38 9 -108.5 16.5t-113.5 7.5q-205 0 -205 -118v-306q0 -32 19.5 -56t53.5 -35q32 -12 64 -16.5t72 -4.5q67 0 143 18v227h-152
v68h242v-349q-130 -30 -239 -30q-46 0 -81.5 4z" />
    <glyph glyph-name="H" unicode="H" horiz-adv-x="707" 
d="M84 649h97v-280h345v280h97v-649h-97v301h-345v-301h-97v649z" />
    <glyph glyph-name="I" unicode="I" horiz-adv-x="265" 
d="M84 649h97v-649h-97v649z" />
    <glyph glyph-name="J" unicode="J" horiz-adv-x="403" 
d="M20 1v65q60 -16 107 -16q39 0 59 7t28 25.5t8 56.5v510h97v-506q0 -62 -18 -94.5t-56 -45.5t-106 -13q-80 0 -119 11z" />
    <glyph glyph-name="K" unicode="K" horiz-adv-x="609" 
d="M84 649h97v-649h-97v649zM183 345l290 304h117l-292 -300l321 -349h-126z" />
    <glyph glyph-name="L" unicode="L" horiz-adv-x="520" 
d="M84 649h97v-581h319v-68h-416v649z" />
    <glyph glyph-name="M" unicode="M" horiz-adv-x="861" 
d="M84 649h145l208 -540l3 -1l197 541h140v-649h-85v549h-5l-209 -549h-87l-215 549h-5v-549h-87v649z" />
    <glyph glyph-name="N" unicode="N" horiz-adv-x="723" 
d="M84 649h117l353 -536v536h85v-649h-117l-353 545v-545h-85v649z" />
    <glyph glyph-name="O" unicode="O" horiz-adv-x="679" 
d="M66 166v307q0 186 272 186q275 0 275 -185v-308q0 -94 -76 -135t-199 -41q-272 0 -272 176zM519 167v309q0 120 -180 120q-87 0 -133.5 -27t-46.5 -93v-309q0 -112 181 -112q179 0 179 112z" />
    <glyph glyph-name="P" unicode="P" horiz-adv-x="570" 
d="M84 649h212q45 0 72.5 -2t58.5 -9q32 -7 51.5 -21t33.5 -38q13 -23 13 -58v-135q0 -81 -62.5 -116.5t-184.5 -35.5h-97v-234h-97v649zM291 295q63 0 101 23t38 73v118q0 27 -14 44.5t-40 24.5q-25 6 -42 8t-45 2h-109v-293h111z" />
    <glyph glyph-name="Q" unicode="Q" horiz-adv-x="676" 
d="M64 176v297q0 186 273 186q274 0 274 -185v-268q0 -92 -89 -151h160v-55h-345q-273 0 -273 176zM518 177v299q0 120 -180 120q-40 0 -69 -4.5t-55 -16.5q-57 -27 -57 -99v-299q0 -112 182 -112q179 0 179 112z" />
    <glyph glyph-name="R" unicode="R" horiz-adv-x="632" 
d="M84 649h228q86 0 134.5 -10.5t71 -37.5t22.5 -79v-112q0 -58 -47.5 -89.5t-120.5 -31.5l208 -289h-119l-186 277h-94v-277h-97v649zM308 341q72 0 103.5 17.5t31.5 63.5v90q0 73 -126 73h-136v-244h127z" />
    <glyph glyph-name="S" unicode="S" horiz-adv-x="569" 
d="M73 6v81q116 -25 204 -25q74 0 108 16.5t34 61.5v84q0 42 -24 59t-84 17h-76q-95 0 -135 38t-40 118v52q0 53 23.5 86t79 49t152.5 16q65 0 167 -11v-73q-114 17 -174 17q-93 0 -123 -18q-31 -19 -31 -63v-74q0 -34 24.5 -49.5t84.5 -15.5h78q67 0 104.5 -16t53 -48.5
t15.5 -87.5v-47q0 -69 -25.5 -109t-78.5 -57t-139 -17q-83 0 -198 16z" />
    <glyph glyph-name="T" unicode="T" horiz-adv-x="585" 
d="M244 581h-220v68h537v-68h-219v-581h-98v581z" />
    <glyph glyph-name="U" unicode="U" horiz-adv-x="676" 
d="M244.5 -3q-39.5 7 -77.5 24q-40 18 -61.5 55t-21.5 90v483h93v-482q0 -61 41 -86.5t121 -25.5t119.5 25.5t39.5 86.5v482h93v-483q0 -176 -254 -176q-53 0 -92.5 7z" />
    <glyph glyph-name="V" unicode="V" horiz-adv-x="652" 
d="M15 649h101l208 -557h9l208 557h96l-258 -649h-112z" />
    <glyph glyph-name="W" unicode="W" horiz-adv-x="968" 
d="M8 649h103l161 -557h2l161 557h103l161 -557h2l161 557h98l-209 -649h-113l-155 540l-159 -540h-113z" />
    <glyph glyph-name="X" unicode="X" horiz-adv-x="604" 
d="M247 331l-229 318h111l173 -251l173 251h111l-229 -318l239 -331h-111l-183 264l-183 -264h-111z" />
    <glyph glyph-name="Y" unicode="Y" horiz-adv-x="584" 
d="M243 262l-235 387h111l173 -305l173 305h111l-236 -384v-265h-97v262z" />
    <glyph glyph-name="Z" unicode="Z" 
d="M40 68l382 513h-372v68h484v-68l-382 -513h388v-68h-500v68z" />
    <glyph glyph-name="bracketleft" unicode="[" horiz-adv-x="330" 
d="M84 736h226v-48h-139v-830h139v-48h-226v926z" />
    <glyph glyph-name="backslash" unicode="\" horiz-adv-x="421" 
d="M10 659h77l324 -669h-77z" />
    <glyph glyph-name="bracketright" unicode="]" horiz-adv-x="330" 
d="M20 -142h139v830h-139v48h226v-926h-226v48z" />
    <glyph glyph-name="asciicircum" unicode="^" horiz-adv-x="321" 
d="M96 680h127l78 -227h-68l-73 187l-72 -187h-68z" />
    <glyph glyph-name="underscore" unicode="_" 
d="M71 -70h438v-71h-438v71z" />
    <glyph glyph-name="grave" unicode="`" horiz-adv-x="399" 
d="M100 680h109l90 -127h-74z" />
    <glyph glyph-name="a" unicode="a" horiz-adv-x="538" 
d="M120.5 3q-37.5 13 -54 46t-16.5 95q0 55 15.5 85.5t53 43.5t106.5 13h145v77q0 27 -10.5 41.5t-35 20.5t-71.5 6q-75 0 -166 -12v66q99 9 179 9q84 0 124 -12.5t55 -43.5t15 -96v-342h-87v46q-11 -56 -146 -56q-69 0 -106.5 13zM242 49q49 0 83 7q45 9 45 42v132h-139
q-43 0 -62 -6.5t-25 -24.5t-6 -58q0 -36 7 -55.5t25 -28t54 -8.5h18z" />
    <glyph glyph-name="b" unicode="b" horiz-adv-x="579" 
d="M207.5 -4.5q-32.5 5.5 -64.5 20.5q-65 31 -65 142v542h90v-145v-57q-1 -26 -1 -58q5 23 42 39q38 15 110 15q200 0 200 -137v-199q0 -43 -12.5 -75t-32.5 -50q-18 -17 -49.5 -27t-62.5 -13q-28 -3 -68 -3q-54 0 -86.5 5.5zM375.5 56.5q27.5 7.5 39.5 27.5t12 61v190
q0 41 -12 61.5t-39.5 27t-80.5 6.5q-49 0 -76 -8t-39 -28.5t-12 -58.5v-190q0 -41 11.5 -61t38.5 -27.5t78 -7.5q52 0 79.5 7.5z" />
    <glyph glyph-name="c" unicode="c" horiz-adv-x="464" 
d="M200.5 -8q-22.5 2 -51.5 10q-31 8 -48 24t-29 47q-12 30 -12 75v178q0 81 31 116q17 20 34.5 30.5t45.5 14.5t50 5.5t62 1.5q69 0 138 -15v-66q-80 20 -149 20q-52 0 -76.5 -7.5t-34 -27t-9.5 -59.5v-198q0 -37 10.5 -55t38 -25.5t81.5 -7.5q73 0 146 19v-68
q-68 -14 -155 -14q-50 0 -72.5 2z" />
    <glyph glyph-name="d" unicode="d" horiz-adv-x="571" 
d="M138 4.5q-41 14.5 -59.5 47.5t-18.5 92v213q0 73 45.5 105t150.5 32q63 0 108.5 -16t46.5 -46h2l-2 123v145h90v-700h-88v57q0 -27 -43 -46q-43 -21 -119 -21q-72 0 -113 14.5zM378 69q33 17 33 58v239q0 65 -133 65q-80 0 -104 -12q-25 -12 -25 -53v-239q0 -41 27.5 -58
t93.5 -17q75 0 108 17z" />
    <glyph glyph-name="e" unicode="e" horiz-adv-x="535" 
d="M60 138v191q0 88 50.5 126.5t163.5 38.5q107 0 154.5 -37t47.5 -128v-107h-325v-73q0 -50 35 -72t108 -22q69 0 163 24v-69q-92 -20 -175 -20q-222 0 -222 148zM386 281v76q0 44 -26.5 60.5t-90.5 16.5q-62 0 -90 -16.5t-28 -60.5v-76h235z" />
    <glyph glyph-name="f" unicode="f" horiz-adv-x="380" 
d="M121 425h-111v59h111v78q0 79 44.5 113.5t135.5 34.5q34 0 81 -5v-59q-38 5 -78 5q-50 0 -71.5 -18t-21.5 -65v-84h161v-59h-161v-425h-90v425z" />
    <glyph glyph-name="g" unicode="g" horiz-adv-x="569" 
d="M94 -209v64q120 -14 175 -14q69 0 100.5 22t31.5 73v116q-2 -32 -43.5 -47t-104.5 -15q-75 0 -116.5 14t-59 46t-17.5 87v197q0 86 46.5 123t152.5 37q126 0 148 -57v47h84v-530q0 -67 -25 -105t-75 -53.5t-130 -15.5q-99 0 -167 11zM372 67q29 17 29 64v219
q0 33 -10.5 50t-38.5 24.5t-82 7.5q-51 0 -76.5 -7t-35 -24.5t-9.5 -50.5v-219q0 -34 10 -51t36 -23.5t77 -6.5q71 0 100 17z" />
    <glyph glyph-name="h" unicode="h" horiz-adv-x="573" 
d="M78 700h90v-275q14 69 159 69q93 0 130.5 -33.5t37.5 -105.5v-355h-90v349q0 19 -3 31t-12 24q-20 25 -89 25q-55 0 -83.5 -7.5t-39 -24.5t-10.5 -48v-349h-90v700z" />
    <glyph glyph-name="i" unicode="i" horiz-adv-x="246" 
d="M78 659h90v-94h-90v94zM78 484h90v-484h-90v484z" />
    <glyph glyph-name="j" unicode="j" horiz-adv-x="247" 
d="M79 659h90v-94h-90v94zM-43 -216v59q21 -4 38 -4q44 0 64 17.5t20 63.5v564h90v-557q0 -81 -38 -114t-123 -33q-28 0 -51 4z" />
    <glyph glyph-name="k" unicode="k" horiz-adv-x="514" 
d="M78 700h90v-700h-90v700zM179 265l204 219h110l-210 -219l229 -265h-112z" />
    <glyph glyph-name="l" unicode="l" horiz-adv-x="246" 
d="M78 700h90v-700h-90v700z" />
    <glyph glyph-name="m" unicode="m" horiz-adv-x="890" 
d="M78 484h90v-59q14 69 163 69q121 0 151 -66q9 32 54.5 49t111.5 17q90 0 127 -33.5t37 -105.5v-355h-90v349q0 19 -3 31t-12 24q-20 25 -89 25q-53 0 -79 -7t-35.5 -24t-9.5 -49v-349h-90v349q0 19 -3 31t-12 24q-20 25 -88 25q-55 0 -83 -7t-39 -23.5t-11 -49.5v-349
h-90v484z" />
    <glyph glyph-name="n" unicode="n" horiz-adv-x="573" 
d="M78 484h90v-59q14 69 159 69q93 0 130.5 -33.5t37.5 -105.5v-355h-90v350q0 19 -3 31t-12 24q-20 25 -89 25q-53 0 -81.5 -7.5t-40 -24.5t-11.5 -48v-350h-90v484z" />
    <glyph glyph-name="o" unicode="o" horiz-adv-x="568" 
d="M187 -5.5q-32 4.5 -64 19.5q-33 15 -48 48.5t-15 90.5v168q0 45 11 79t29 53q15 17 45.5 26.5t62.5 12.5q36 2 75 2q52 0 78.5 -2.5t56.5 -10.5q31 -9 48 -27t29 -52q11 -35 11 -81v-168q0 -85 -39 -124q-16 -16 -46 -25t-62 -12q-38 -2 -76 -2q-64 0 -96 4.5zM344 51
q19 2 37 11q18 8 25.5 26.5t7.5 51.5v196q0 45 -11 65.5t-37.5 27t-82.5 6.5t-82.5 -6.5t-37.5 -27t-11 -65.5v-196q0 -33 7.5 -51.5t25.5 -26.5q18 -9 37 -11t61 -2t61 2z" />
    <glyph glyph-name="p" unicode="p" horiz-adv-x="579" 
d="M78 484h89v-52h1q11 62 165 62q92 0 139 -38.5t47 -98.5v-199q0 -43 -12.5 -75t-32.5 -50q-18 -17 -49.5 -27t-62.5 -13q-28 -3 -68 -3q-44 0 -80.5 10.5t-45.5 30.5v-239h-90v692zM375.5 58.5q27.5 7.5 39.5 27.5t12 61v178q0 45 -12 67t-39.5 29.5t-80.5 7.5t-79 -7.5
t-37 -29t-11 -67.5v-178q0 -41 11.5 -61t38.5 -27.5t78 -7.5q52 0 79.5 7.5z" />
    <glyph glyph-name="q" unicode="q" horiz-adv-x="579" 
d="M429 31q-20 -41 -146 -41q-46 0 -73 3t-53 12q-27 10 -43 28t-26 49q-10 30 -10 76v179q0 84 52.5 120.5t174.5 36.5q116 0 165 -36.5t49 -120.5v-545h-90v239zM380.5 59.5q26.5 7.5 37.5 28t11 60.5v177q0 46 -11 67.5t-37 29t-79 7.5q-62 0 -88.5 -7t-35 -28t-8.5 -69
v-177q0 -41 12 -61t39.5 -27.5t79.5 -7.5q53 0 79.5 7.5z" />
    <glyph glyph-name="r" unicode="r" horiz-adv-x="351" 
d="M78 484h85v-79q0 23 20 43.5t51 33t61 12.5h44v-77h-50q-64 0 -92.5 -16.5t-28.5 -59.5v-341h-90v484z" />
    <glyph glyph-name="s" unicode="s" horiz-adv-x="483" 
d="M60 2v69q117 -19 168 -19q64 0 92 12.5t28 46.5v49q0 31 -21 44t-68 13h-55q-75 0 -114.5 31t-39.5 87v45q0 114 216 114q16 0 147 -8v-65q-89 14 -151 14q-71 0 -97 -14t-26 -47v-41q0 -49 89 -49h56q153 0 153 -114v-42q0 -75 -52 -106.5t-159 -31.5q-77 0 -166 12z
" />
    <glyph glyph-name="t" unicode="t" horiz-adv-x="402" 
d="M184 3.5q-35 13.5 -50.5 46t-15.5 91.5v284h-108v59h108v150h91v-150h173v-59h-173v-289q0 -36 8.5 -54t30 -25.5t62.5 -7.5q13 0 72 8v-59q-51 -8 -101 -8q-62 0 -97 13.5z" />
    <glyph glyph-name="u" unicode="u" horiz-adv-x="573" 
d="M115.5 23.5q-37.5 33.5 -37.5 105.5v355h90v-350q0 -19 3.5 -30.5t12.5 -23.5q18 -26 88 -26q74 0 104 14q29 14 29 51v365h90v-484h-90v59q-13 -69 -159 -69q-93 0 -130.5 33.5z" />
    <glyph glyph-name="v" unicode="v" horiz-adv-x="463" 
d="M6 484h95l134 -406h5l130 406h87l-169 -484h-108z" />
    <glyph glyph-name="w" unicode="w" horiz-adv-x="792" 
d="M12 484h99l118 -398h6l114 398h101l118 -398h6l114 398h92l-159 -484h-107l-117 391l-115 -391h-107z" />
    <glyph glyph-name="x" unicode="x" horiz-adv-x="479" 
d="M190 249l-170 235h99l120 -177l121 177h99l-170 -235l180 -249h-99l-131 191l-130 -191h-99z" />
    <glyph glyph-name="y" unicode="y" horiz-adv-x="460" 
d="M193 -7l-187 491h98l135 -395h2l122 395h91l-243 -692h-94z" />
    <glyph glyph-name="z" unicode="z" horiz-adv-x="454" 
d="M40 61l272 362h-262v61h364v-61l-272 -362h278v-61h-380v61z" />
    <glyph glyph-name="braceleft" unicode="{" horiz-adv-x="330" 
d="M236 -189.5q-13 0.5 -28 3.5q-17 3 -26.5 8t-22.5 17q-11 11 -17 26t-11 41q-5 27 -5 56v230q0 41 -3.5 56t-15.5 20t-43 5v52q31 0 43 5t15.5 20t3.5 56v178q0 57 15 96q10 25 40 44q8 5 24.5 8t30.5 4h31h19v-48h-10q-26 0 -43.5 -17.5t-17.5 -47.5v-182
q0 -62 -17 -93.5t-62 -46.5v-4q45 -15 62 -46t17 -94v-234q0 -30 17.5 -47.5t43.5 -17.5h10v-48h-19q-18 0 -31 0.5z" />
    <glyph glyph-name="bar" unicode="|" horiz-adv-x="335" 
d="M140 659h55v-669h-55v669z" />
    <glyph glyph-name="braceright" unicode="}" horiz-adv-x="330" 
d="M44 -142h10q26 0 43.5 17.5t17.5 47.5v234q0 63 17 94t62 46v4q-45 15 -62 46.5t-17 93.5v182q0 30 -17.5 47.5t-43.5 17.5h-10v48h19q18 0 31 -0.5t29 -3.5q17 -3 26 -8t22 -17q11 -11 17.5 -26.5t11.5 -40.5q4 -21 4 -56v-178q0 -41 3.5 -56t15.5 -20t43 -5v-52
q-31 0 -43 -5t-15.5 -20t-3.5 -56v-230q0 -57 -15 -96q-10 -26 -39 -43q-9 -5 -26 -8.5t-29 -3.5q-7 -1 -32 -1h-19v48z" />
    <glyph glyph-name="asciitilde" unicode="~" 
d="M68 316q38 45 122 45q37 0 109 -29q71 -30 94 -30q81 0 119 62v-81q-36 -46 -123 -46q-31 0 -102 30q-72 29 -101 29q-42 0 -69.5 -14.5t-48.5 -46.5v81z" />
    <glyph glyph-name="uni00A0" unicode="&#xa0;" horiz-adv-x="230" 
 />
    <glyph glyph-name="exclamdown" unicode="&#xa1;" horiz-adv-x="280" 
d="M82 484h116v-108h-116v108zM115 305h50l35 -470h-120z" />
    <glyph glyph-name="cent" unicode="&#xa2;" 
d="M295 73q-45 0 -74 6t-55 21q-55 30 -55 131v178q0 105 54 137q27 16 55.5 22.5t74.5 7.5v83h57v-83q61 -3 120 -14v-66q-88 20 -149 20q-53 0 -77.5 -7t-33.5 -26t-9 -61v-200q0 -37 10.5 -55t37 -24.5t82.5 -6.5q73 0 146 19v-68q-52 -13 -127 -14v-83h-57v83z" />
    <glyph glyph-name="sterling" unicode="&#xa3;" 
d="M76 65h111v252h-111v62h111v92q0 60 12 97.5t39 57.5q26 19 59 26t90 7q54 0 101 -5v-60q-38 5 -68 5h-9q-58 0 -85.5 -9t-38 -34.5t-10.5 -78.5v-98h171v-62h-171v-252h259v-65h-460v65z" />
    <glyph glyph-name="currency" unicode="&#xa4;" 
d="M130 148l-54 -54l-26 26l54 54q-62 77 -62 163t62 163l-54 54l26 26l54 -54q77 59 158 59q90 0 163 -57l54 54l26 -26l-54 -54q62 -77 62 -163t-62 -163l54 -54l-26 -26l-54 54q-77 -61 -163 -61q-81 0 -158 59zM396 157.5q48 28.5 75.5 76.5t27.5 105q0 55 -28 102.5
t-75.5 75.5t-102.5 28q-58 0 -106.5 -27t-76.5 -75t-28 -106q0 -57 28 -104.5t76.5 -75.5t105.5 -28q56 0 104 28.5z" />
    <glyph glyph-name="yen" unicode="&#xa5;" 
d="M243 113h-172v71h172v78l-8 13h-164v71h121l-184 303h111l172 -303h2l172 303h111l-186 -303h119v-71h-163l-6 -10v-81h169v-71h-169v-113h-97v113z" />
    <glyph glyph-name="brokenbar" unicode="&#xa6;" horiz-adv-x="265" 
d="M105 649h55v-351h-55v351zM105 161h55v-351h-55v351z" />
    <glyph glyph-name="section" unicode="&#xa7;" 
d="M96 -103v69q94 -17 178 -17q67 0 99 12.5t32 46.5v47q0 31 -21 44t-68 13h-87q-77 0 -120 31.5t-43 86.5v75q0 58 66 85q-46 25 -46 80v55q0 114 226 114q89 0 157 -13v-64q-76 16 -161 16q-72 0 -103 -14q-30 -15 -30 -47v-39q0 -49 90 -49h95q154 0 154 -114v-62
q0 -37 -18.5 -63.5t-47.5 -35.5q46 -31 46 -80v-51q0 -75 -56 -106.5t-166 -31.5q-86 0 -176 12zM342 179q43 0 63 13.5t20 45.5v67q0 57 -99 57h-85q-47 0 -66.5 -12t-19.5 -43v-79q0 -49 110 -49h77z" />
    <glyph glyph-name="dieresis" unicode="&#xa8;" horiz-adv-x="460" 
d="M100 659h90v-94h-90v94zM270 659h90v-94h-90v94z" />
    <glyph glyph-name="copyright" unicode="&#xa9;" horiz-adv-x="717" 
d="M289 -6q-37 4 -78 15q-47 12 -78 30.5t-51 50.5q-22 32 -22 76v307q0 56 31 96t85 58q51 17 97 24.5t99 7.5q45 0 81.5 -4t76.5 -15q46 -13 76 -32t50 -53q21 -34 21 -81v-308q0 -52 -29.5 -89t-80.5 -55q-48 -17 -95 -24.5t-100 -7.5q-46 0 -83 4zM513 71q39 11 62 35
t23 58v317q0 35 -21.5 61t-58.5 38q-69 21 -145 21q-79 0 -150 -21q-40 -12 -62.5 -38t-22.5 -61v-317q0 -32 23 -55.5t63 -35.5q68 -21 150 -21q70 0 139 19zM277 153q-34 11 -49 37t-15 73v136q0 62 38 91.5t121 29.5q82 0 115.5 -26t33.5 -85v-27h-73v19q0 28 -6 40.5
t-22 17.5t-51 5q-33 0 -49 -6t-22.5 -21t-6.5 -46v-120q0 -32 6 -47t22 -20.5t50 -5.5q38 0 54 4t20.5 16.5t4.5 42.5v20h73v-28q0 -59 -32.5 -85t-116.5 -26q-61 0 -95 11z" />
    <glyph glyph-name="ordfeminine" unicode="&#xaa;" horiz-adv-x="318" 
d="M58 389q-23 18 -23 71q0 48 22.5 66t84.5 18h74v38q0 19 -12.5 26.5t-45.5 7.5q-50 0 -102 -6v45q68 5 109 5q51 0 75.5 -7.5t33.5 -26t9 -56.5v-194h-65v27q-20 -32 -75 -32q-62 0 -85 18zM152 411q64 0 64 22v72h-71q-27 0 -34.5 -8.5t-7.5 -38.5q0 -27 7.5 -37
t30.5 -10h11zM35 329h248v-56h-248v56z" />
    <glyph glyph-name="guillemotleft" unicode="&#xab;" horiz-adv-x="426" 
d="M40 262l100 192h76l-92 -192l92 -192h-76zM210 262l100 192h76l-92 -192l92 -192h-76z" />
    <glyph glyph-name="logicalnot" unicode="&#xac;" horiz-adv-x="500" 
d="M373 282h-313v67h380v-234h-67v167z" />
    <glyph glyph-name="uni00AD" unicode="&#xad;" horiz-adv-x="358" 
d="M40 322h278v-72h-278v72z" />
    <glyph glyph-name="registered" unicode="&#xae;" horiz-adv-x="717" 
d="M289 -6q-37 4 -78 15q-47 12 -78 30.5t-51 50.5q-22 32 -22 76v307q0 56 31 96t85 58q51 17 97 24.5t99 7.5q45 0 81.5 -4t76.5 -15q46 -13 76 -32t50 -53q21 -34 21 -81v-308q0 -52 -29.5 -89t-80.5 -55q-48 -17 -95 -24.5t-100 -7.5q-46 0 -83 4zM513 71q39 11 62 35
t23 58v317q0 35 -21.5 61t-58.5 38q-69 21 -145 21q-79 0 -150 -21q-40 -12 -62.5 -38t-22.5 -61v-317q0 -32 23 -55.5t63 -35.5q68 -21 150 -21q70 0 139 19zM241 519h137q53 0 82 -6.5t42 -22.5t13 -47v-75q0 -36 -25 -55.5t-66 -19.5l115 -163h-82l-101 156h-47v-156h-68
v389zM376 334q31 0 45 2.5t19.5 10.5t5.5 26v64q0 21 -13 27.5t-52 6.5h-72v-137h67z" />
    <glyph glyph-name="macron" unicode="&#xaf;" horiz-adv-x="418" 
d="M100 649h218v-59h-218v59z" />
    <glyph glyph-name="degree" unicode="&#xb0;" horiz-adv-x="407" 
d="M154 374q-16 1 -35 7q-20 5 -31.5 15t-19.5 29t-8 45v79q0 65 34 87.5t110 22.5t109.5 -22.5t33.5 -87.5v-79q0 -51 -26 -74q-11 -9 -31.5 -15t-38.5 -7q-12 -1 -47 -1q-34 0 -50 1zM247 423.5q12 2.5 21 12.5q9 11 9 34v87q0 24 -6.5 35.5t-21.5 15t-45 3.5
q-44 0 -59 -9.5t-15 -44.5v-87q0 -41 33 -47q18 -2 41 -2q31 0 43 2.5z" />
    <glyph glyph-name="plusminus" unicode="&#xb1;" horiz-adv-x="500" 
d="M216 282h-156v67h156v166h67v-166h157v-67h-157v-167h-67v167zM60 67h380v-67h-380v67z" />
    <glyph glyph-name="uni00B2" unicode="&#xb2;" horiz-adv-x="378" 
d="M41 354q0 33 21.5 57t56.5 37q21 8 65 22q78 22 78 57v44q0 32 -93 32q-49 0 -117 -13v57q71 11 127 11q85 0 121 -18.5t36 -63.5v-60q0 -33 -32.5 -58.5t-79.5 -37.5q-113 -30 -113 -60v-29h227v-58h-297v81z" />
    <glyph glyph-name="uni00B3" unicode="&#xb3;" horiz-adv-x="378" 
d="M47 279v60q73 -14 142 -14q86 0 86 40v43q0 22 -20 31q-21 9 -66 9h-77v49h77q38 0 56 7q18 6 18 25v40q0 21 -19 28q-18 7 -64 7q-40 0 -119 -6v56q78 5 128 5q148 0 148 -73v-59q0 -39 -54 -51l1 -1q66 -13 66 -64v-53q0 -47 -38.5 -67t-122.5 -20q-64 0 -142 8z" />
    <glyph glyph-name="acute" unicode="&#xb4;" horiz-adv-x="399" 
d="M190 680h109l-125 -127h-74z" />
    <glyph glyph-name="uni00B5" unicode="&#xb5;" horiz-adv-x="573" 
d="M78 484h90v-350q0 -19 3.5 -30.5t12.5 -23.5q18 -26 88 -26q74 0 104 14q29 14 29 51v365h90v-484h-88v59q-16 -69 -161 -69q-41 0 -78 8v-207h-90v693z" />
    <glyph glyph-name="paragraph" unicode="&#xb6;" horiz-adv-x="573" 
d="M199 352q-69 0 -102 11.5t-45 42t-12 95.5q0 59 9.5 90.5t32.5 44.5t65 13h352v-16l-23 -17q-21 -16 -21 -37v-765h-53v792h-150v-792h-53v538z" />
    <glyph glyph-name="periodcentered" unicode="&#xb7;" horiz-adv-x="256" 
d="M70 388h116v-108h-116v108z" />
    <glyph glyph-name="cedilla" unicode="&#xb8;" horiz-adv-x="394" 
d="M100 -201l21 45q31 -17 58 -17q47 0 47 40q0 19 -22 30t-56 11h-33q27 47 49 92h63l-26 -52q39 -1 66 -21.5t27 -56.5q0 -42 -32.5 -66t-80.5 -24q-50 0 -81 19z" />
    <glyph glyph-name="uni00B9" unicode="&#xb9;" horiz-adv-x="378" 
d="M186 571l-111 -71v68l120 81h62v-376h-71v298z" />
    <glyph glyph-name="ordmasculine" unicode="&#xba;" horiz-adv-x="336" 
d="M119.5 372.5q-15.5 1.5 -32.5 6.5q-19 5 -29 14.5t-17 27.5q-7 17 -7 44v93q0 36 9 57t30 31q20 9 39 11.5t56 2.5t56.5 -2.5t39.5 -11.5q20 -10 29 -31t9 -57v-93q0 -33 -9 -52.5t-29 -27.5q-20 -9 -39.5 -11.5t-56.5 -2.5q-33 0 -48.5 1.5zM219.5 420q12.5 8 12.5 38
v109q0 23 -5.5 34t-18.5 14.5t-40 3.5q-28 0 -41.5 -3.5t-19 -14t-5.5 -34.5v-109q0 -30 13 -38t53 -8q39 0 51.5 8zM35 329h267v-56h-267v56z" />
    <glyph glyph-name="guillemotright" unicode="&#xbb;" horiz-adv-x="426" 
d="M132 262l-92 192h76l100 -192l-100 -192h-76zM302 262l-92 192h76l100 -192l-100 -192h-76z" />
    <glyph glyph-name="onequarter" unicode="&#xbc;" horiz-adv-x="956" 
d="M258 571l-111 -71v68l120 81h62v-376h-71v298zM644 649h81l-412 -649h-81zM788 85h-220v50l209 241h83v-240h48v-51h-48v-85h-72v85zM788 136l-1 169l-145 -169h146z" />
    <glyph glyph-name="onehalf" unicode="&#xbd;" horiz-adv-x="956" 
d="M258 571l-111 -71v68l120 81h62v-376h-71v298zM644 649h81l-412 -649h-81zM595 81q0 33 21.5 57t57.5 37q14 5 64 22q78 22 78 57v44q0 32 -93 32q-49 0 -117 -13v57q71 11 127 11q85 0 121 -18.5t36 -63.5v-60q0 -33 -32.5 -58.5t-79.5 -37.5q-113 -30 -113 -60v-29h227
v-58h-297v81z" />
    <glyph glyph-name="threequarters" unicode="&#xbe;" horiz-adv-x="956" 
d="M47 279v60q73 -14 142 -14q86 0 86 40v43q0 22 -20 31q-21 9 -66 9h-77v49h77q38 0 56 7q18 6 18 25v40q0 21 -19 28q-18 7 -64 7q-40 0 -119 -6v56q78 5 128 5q148 0 148 -73v-59q0 -39 -54 -51l1 -1q66 -13 66 -64v-53q0 -47 -38.5 -67t-122.5 -20q-64 0 -142 8z
M644 649h81l-412 -649h-81zM788 85h-220v50l209 241h83v-240h48v-51h-48v-85h-72v85zM788 136l-1 169l-145 -169h146z" />
    <glyph glyph-name="questiondown" unicode="&#xbf;" horiz-adv-x="533" 
d="M232 484h116v-108h-116v108zM107.5 -143q-47.5 32 -47.5 109v50q0 43 18 76.5t47 54.5q27 19 54 36q65 40 65 87v43h90v-24q0 -51 -17.5 -88.5t-45.5 -57.5q-12 -9 -52 -35q-63 -40 -63 -105v-30q0 -45 28.5 -61t97.5 -16q70 0 191 21v-73q-102 -19 -210 -19t-155.5 32z
" />
    <glyph glyph-name="Agrave" unicode="&#xc0;" horiz-adv-x="652" 
d="M273 649h112l252 -649h-101l-74 197h-278l-73 -197h-96zM438 264l-110 293h-9l-110 -293h229zM162 839h109l90 -127h-74z" />
    <glyph glyph-name="Aacute" unicode="&#xc1;" horiz-adv-x="652" 
d="M273 649h112l252 -649h-101l-74 197h-278l-73 -197h-96zM438 264l-110 293h-9l-110 -293h229zM366 842h109l-125 -127h-74z" />
    <glyph glyph-name="Acircumflex" unicode="&#xc2;" horiz-adv-x="652" 
d="M273 649h112l252 -649h-101l-74 197h-278l-73 -197h-96zM438 264l-110 293h-9l-110 -293h229zM273 832h107l66 -127h-58l-62 87l-63 -87h-58z" />
    <glyph glyph-name="Atilde" unicode="&#xc3;" horiz-adv-x="652" 
d="M273 649h112l252 -649h-101l-74 197h-278l-73 -197h-96zM438 264l-110 293h-9l-110 -293h229zM196.5 786.5q28.5 21.5 70.5 21.5q20 0 43 -6.5t27 -7.5q33 -11 47 -11q33 0 33 33l65 -1q-1 -53 -26.5 -74.5t-71.5 -21.5q-9 0 -23.5 4.5t-29.5 9.5q-17 5 -34.5 10t-29.5 5
q-35 0 -36 -29h-64q1 46 29.5 67.5z" />
    <glyph glyph-name="Adieresis" unicode="&#xc4;" horiz-adv-x="652" 
d="M190 809h90v-94h-90v94zM360 809h90v-94h-90v94zM273 649h112l252 -649h-101l-74 197h-278l-73 -197h-96zM438 264l-110 293h-9l-110 -293h229z" />
    <glyph glyph-name="Aring" unicode="&#xc5;" horiz-adv-x="652" 
d="M242 560q-57 17 -57 86v13q0 53 26 79q10 10 30 16t39 7q11 1 46 1q34 0 49.5 -1t34.5 -6q20 -6 31 -16.5t19 -30.5q7 -18 7 -49v-13q0 -64 -52 -85l222 -561h-101l-74 198h-277l-74 -198h-96zM368.5 598.5q12.5 2.5 21.5 12.5q10 10 10 32v14q0 32 -15.5 42t-58.5 10
t-58.5 -10t-15.5 -42v-14q0 -29 16 -38t58 -9q30 0 42.5 2.5zM438 264l-106 281h-17l-106 -281h229z" />
    <glyph glyph-name="AE" unicode="&#xc6;" horiz-adv-x="923" 
d="M358 649h505v-68h-309v-212h276v-68h-276v-233h319v-68h-416v197h-246l-102 -197h-109zM457 264v317h-48l-164 -317h212z" />
    <glyph glyph-name="Ccedilla" unicode="&#xc7;" horiz-adv-x="564" 
d="M237 -201l21 45q31 -17 58 -17q47 0 47 40q0 19 -22 30t-56 11h-33q21 35 45 83q-233 14 -233 175v308q0 186 273 186q93 0 178 -19v-72q-96 24 -176 24q-39 0 -68 -4.5t-56 -15.5q-58 -25 -58 -98v-304q0 -112 186 -112q80 0 176 24v-74q-83 -18 -160 -19l-21 -42
q39 -1 66 -21.5t27 -56.5q0 -42 -32.5 -66t-80.5 -24q-50 0 -81 19z" />
    <glyph glyph-name="Egrave" unicode="&#xc8;" 
d="M84 649h436v-68h-339v-212h306v-68h-306v-233h349v-68h-446v649zM126 839h109l90 -127h-74z" />
    <glyph glyph-name="Eacute" unicode="&#xc9;" 
d="M84 649h436v-68h-339v-212h306v-68h-306v-233h349v-68h-446v649zM330 842h109l-125 -127h-74z" />
    <glyph glyph-name="Ecircumflex" unicode="&#xca;" 
d="M84 649h436v-68h-339v-212h306v-68h-306v-233h349v-68h-446v649zM237 832h107l66 -127h-58l-62 87l-63 -87h-58z" />
    <glyph glyph-name="Edieresis" unicode="&#xcb;" 
d="M176 809h90v-94h-90v94zM346 809h90v-94h-90v94zM84 649h436v-68h-339v-212h306v-68h-306v-233h349v-68h-446v649z" />
    <glyph glyph-name="Igrave" unicode="&#xcc;" horiz-adv-x="265" 
d="M84 649h97v-649h-97v649zM-31 839h109l90 -127h-74z" />
    <glyph glyph-name="Iacute" unicode="&#xcd;" horiz-adv-x="265" 
d="M84 649h97v-649h-97v649zM173 842h109l-125 -127h-74z" />
    <glyph glyph-name="Icircumflex" unicode="&#xce;" horiz-adv-x="265" 
d="M79 830h107l66 -127h-58l-62 87l-63 -87h-58zM84 649h97v-649h-97v649z" />
    <glyph glyph-name="Idieresis" unicode="&#xcf;" horiz-adv-x="265" 
d="M4 809h90v-94h-90v94zM174 809h90v-94h-90v94zM84 649h97v-649h-97v649z" />
    <glyph glyph-name="Eth" unicode="&#xd0;" horiz-adv-x="679" 
d="M84 301h-64v68h64v280h258q273 0 273 -186v-287q0 -176 -272 -176h-259v301zM336 66q186 0 186 112v286q0 36 -15 61t-42 37q-27 11 -56 15.5t-68 4.5h-160v-213h106v-68h-106v-235h155z" />
    <glyph glyph-name="Ntilde" unicode="&#xd1;" horiz-adv-x="723" 
d="M234 764q24 29 65 29q23 0 65 -17t60 -17q21 0 35 10t30 33v-69q-22 -39 -65 -39q-26 0 -66 18q-41 18 -59 18q-39 0 -65 -39v73zM84 649h117l353 -536v536h85v-649h-117l-353 545v-545h-85v649z" />
    <glyph glyph-name="Ograve" unicode="&#xd2;" horiz-adv-x="679" 
d="M66 166v307q0 186 272 186q275 0 275 -185v-308q0 -94 -76 -135t-199 -41q-272 0 -272 176zM519 167v309q0 120 -180 120q-87 0 -133.5 -27t-46.5 -93v-309q0 -112 181 -112q179 0 179 112zM176 839h109l90 -127h-74z" />
    <glyph glyph-name="Oacute" unicode="&#xd3;" horiz-adv-x="679" 
d="M66 166v307q0 186 272 186q275 0 275 -185v-308q0 -94 -76 -135t-199 -41q-272 0 -272 176zM519 167v309q0 120 -180 120q-87 0 -133.5 -27t-46.5 -93v-309q0 -112 181 -112q179 0 179 112zM380 842h109l-125 -127h-74z" />
    <glyph glyph-name="Ocircumflex" unicode="&#xd4;" horiz-adv-x="679" 
d="M66 166v307q0 186 272 186q275 0 275 -185v-308q0 -94 -76 -135t-199 -41q-272 0 -272 176zM519 167v309q0 120 -180 120q-87 0 -133.5 -27t-46.5 -93v-309q0 -112 181 -112q179 0 179 112zM287 832h107l66 -127h-58l-62 87l-63 -87h-58z" />
    <glyph glyph-name="Otilde" unicode="&#xd5;" horiz-adv-x="679" 
d="M66 166v307q0 186 272 186q275 0 275 -185v-308q0 -94 -76 -135t-199 -41q-272 0 -272 176zM519 167v309q0 120 -180 120q-87 0 -133.5 -27t-46.5 -93v-309q0 -112 181 -112q179 0 179 112zM210.5 786.5q28.5 21.5 70.5 21.5q20 0 43 -6.5t27 -7.5q33 -11 47 -11
q33 0 33 33l65 -1q-1 -53 -26.5 -74.5t-71.5 -21.5q-9 0 -23.5 4.5t-29.5 9.5q-17 5 -34.5 10t-29.5 5q-35 0 -36 -29h-64q1 46 29.5 67.5z" />
    <glyph glyph-name="Odieresis" unicode="&#xd6;" horiz-adv-x="679" 
d="M200 809h90v-94h-90v94zM370 809h90v-94h-90v94zM66 166v307q0 186 272 186q275 0 275 -185v-308q0 -52 -25 -89t-70 -55q-43 -17 -85.5 -24.5t-94.5 -7.5q-272 0 -272 176zM519 167v309q0 120 -180 120q-40 0 -68.5 -4.5t-54.5 -16.5q-57 -27 -57 -99v-309
q0 -112 181 -112q179 0 179 112z" />
    <glyph glyph-name="multiply" unicode="&#xd7;" horiz-adv-x="500" 
d="M249 267l-131 -131l-48 47l132 132l-132 132l48 47l131 -132l133 133l47 -48l-132 -132l132 -132l-47 -48z" />
    <glyph glyph-name="Oslash" unicode="&#xd8;" horiz-adv-x="679" 
d="M66 166v307q0 186 272 186q275 0 275 -185v-308q0 -52 -25 -89t-70 -55q-43 -17 -85.5 -24.5t-94.5 -7.5q-272 0 -272 176zM475 566q-43 30 -136 30q-40 0 -68.5 -4.5t-54.5 -16.5q-57 -27 -57 -99v-309q0 -17 2 -27zM519 167v309q0 16 -3 31l-313 -424q43 -28 137 -28
q179 0 179 112z" />
    <glyph glyph-name="Ugrave" unicode="&#xd9;" horiz-adv-x="676" 
d="M244.5 -3q-39.5 7 -77.5 24q-40 18 -61.5 55t-21.5 90v483h93v-482q0 -61 41 -86.5t121 -25.5t119.5 25.5t39.5 86.5v482h93v-483q0 -176 -254 -176q-53 0 -92.5 7zM174 839h109l90 -127h-74z" />
    <glyph glyph-name="Uacute" unicode="&#xda;" horiz-adv-x="676" 
d="M244.5 -3q-39.5 7 -77.5 24q-40 18 -61.5 55t-21.5 90v483h93v-482q0 -61 41 -86.5t121 -25.5t119.5 25.5t39.5 86.5v482h93v-483q0 -176 -254 -176q-53 0 -92.5 7zM378 842h109l-125 -127h-74z" />
    <glyph glyph-name="Ucircumflex" unicode="&#xdb;" horiz-adv-x="676" 
d="M279 830h107l66 -127h-58l-62 87l-63 -87h-58zM244.5 -3q-39.5 7 -77.5 24q-40 18 -61.5 55t-21.5 90v483h93v-482q0 -61 41 -86.5t121 -25.5t119.5 25.5t39.5 86.5v482h93v-483q0 -176 -254 -176q-53 0 -92.5 7z" />
    <glyph glyph-name="Udieresis" unicode="&#xdc;" horiz-adv-x="676" 
d="M201 809h90v-94h-90v94zM371 809h90v-94h-90v94zM244.5 -3q-39.5 7 -77.5 24q-40 18 -61.5 55t-21.5 90v483h93v-482q0 -61 41 -86.5t121 -25.5t119.5 25.5t39.5 86.5v482h93v-483q0 -176 -254 -176q-53 0 -92.5 7z" />
    <glyph glyph-name="Yacute" unicode="&#xdd;" horiz-adv-x="584" 
d="M243 262l-235 387h111l173 -305l173 305h111l-236 -384v-265h-97v262zM332 842h109l-125 -127h-74z" />
    <glyph glyph-name="Thorn" unicode="&#xde;" horiz-adv-x="570" 
d="M84 649h97v-115h115q45 0 72.5 -2t58.5 -9q32 -7 51.5 -21t33.5 -38q13 -23 13 -58v-135q0 -81 -62.5 -116.5t-184.5 -35.5h-97v-119h-97v649zM291 180q63 0 101 23t38 73v118q0 27 -14 44.5t-40 24.5q-25 6 -42 8t-45 2h-108v-293h110z" />
    <glyph glyph-name="germandbls" unicode="&#xdf;" horiz-adv-x="602" 
d="M78 474q0 73 20.5 112.5t68.5 56t138 16.5q83 0 132 -17q45 -16 60.5 -40t15.5 -66v-97q0 -40 -21 -61t-65 -31v-4q53 -9 84 -36t31 -69v-109q0 -71 -53 -100t-177 -29h-60v64h65q73 0 103 15t30 51v101q0 26 -10.5 41.5t-32.5 22.5q-22 6 -39 7.5t-51 1.5h-65v61h61
q61 0 87.5 18.5t26.5 58.5v86q0 36 -29 51.5t-93 15.5q-59 0 -86.5 -7.5t-38 -28t-10.5 -65.5v-494h-92v474z" />
    <glyph glyph-name="agrave" unicode="&#xe0;" horiz-adv-x="538" 
d="M120.5 3q-37.5 13 -54 46t-16.5 95q0 55 15.5 85.5t53 43.5t106.5 13h145v77q0 27 -10.5 41.5t-35 20.5t-71.5 6q-75 0 -166 -12v66q99 9 179 9q84 0 124 -12.5t55 -43.5t15 -96v-342h-87v46q-11 -56 -146 -56q-69 0 -106.5 13zM242 49q49 0 83 7q45 9 45 42v132h-139
q-43 0 -62 -6.5t-25 -24.5t-6 -58q0 -36 7 -55.5t25 -28t54 -8.5h18zM103 680h109l90 -127h-74z" />
    <glyph glyph-name="aacute" unicode="&#xe1;" horiz-adv-x="538" 
d="M120.5 3q-37.5 13 -54 46t-16.5 95q0 55 15.5 85.5t53 43.5t106.5 13h145v77q0 27 -10.5 41.5t-35 20.5t-71.5 6q-75 0 -166 -12v66q99 9 179 9q84 0 124 -12.5t55 -43.5t15 -96v-342h-87v46q-11 -56 -146 -56q-69 0 -106.5 13zM242 49q49 0 83 7q45 9 45 42v132h-139
q-43 0 -62 -6.5t-25 -24.5t-6 -58q0 -36 7 -55.5t25 -28t54 -8.5h18zM309 680h109l-125 -127h-74z" />
    <glyph glyph-name="acircumflex" unicode="&#xe2;" horiz-adv-x="538" 
d="M120.5 3q-37.5 13 -54 46t-16.5 95q0 55 15.5 85.5t53 43.5t106.5 13h145v77q0 27 -10.5 41.5t-35 20.5t-71.5 6q-75 0 -166 -12v66q99 9 179 9q84 0 124 -12.5t55 -43.5t15 -96v-342h-87v46q-11 -56 -146 -56q-69 0 -106.5 13zM242 49q49 0 83 7q45 9 45 42v132h-139
q-43 0 -62 -6.5t-25 -24.5t-6 -58q0 -36 7 -55.5t25 -28t54 -8.5h18zM216 680h107l66 -127h-58l-62 87l-63 -87h-58z" />
    <glyph glyph-name="atilde" unicode="&#xe3;" horiz-adv-x="538" 
d="M120.5 3q-37.5 13 -54 46t-16.5 95q0 55 15.5 85.5t53 43.5t106.5 13h145v77q0 27 -10.5 41.5t-35 20.5t-71.5 6q-75 0 -166 -12v66q99 9 179 9q84 0 124 -12.5t55 -43.5t15 -96v-342h-87v46q-11 -56 -146 -56q-69 0 -106.5 13zM242 49q49 0 83 7q45 9 45 42v132h-139
q-43 0 -62 -6.5t-25 -24.5t-6 -58q0 -36 7 -55.5t25 -28t54 -8.5h18zM132 576q7 27 28 47.5t54 20.5q23 0 62 -15q37 -15 54 -15q15 0 28 8t19 24l31 -18q-8 -28 -31 -50t-56 -22q-23 0 -65 17q-39 16 -51 16q-29 0 -42 -33z" />
    <glyph glyph-name="adieresis" unicode="&#xe4;" horiz-adv-x="538" 
d="M130 659h90v-94h-90v94zM300 659h90v-94h-90v94zM120.5 3q-37.5 13 -54 46t-16.5 95q0 55 15.5 85.5t53 43.5t106.5 13h145v77q0 27 -10.5 41.5t-35 20.5t-71.5 6q-75 0 -166 -12v66q99 9 179 9q84 0 124 -12.5t55 -43.5t15 -96v-342h-87v46q-11 -56 -146 -56
q-69 0 -106.5 13zM242 49q49 0 83 7q45 9 45 42v132h-139q-43 0 -62 -6.5t-25 -24.5t-6 -58q0 -36 7 -55.5t25 -28t54 -8.5h18z" />
    <glyph glyph-name="aring" unicode="&#xe5;" horiz-adv-x="538" 
d="M212 555.5q-19 2.5 -39 11.5t-29 29t-9 55v12q0 37 9 58.5t29 31.5q20 9 39 11.5t56 2.5q30 0 46.5 -1.5t34.5 -6.5q19 -6 29 -16.5t17 -30.5q7 -18 7 -49v-12q0 -35 -8.5 -55t-28.5 -29t-39.5 -11.5t-57.5 -2.5q-37 0 -56 2.5zM312.5 598q14.5 3 20.5 13.5t6 32.5v27
q0 24 -6 35.5t-20.5 15t-44.5 3.5t-44 -3.5t-20 -15t-6 -35.5v-27q0 -22 6 -32.5t20 -13.5t44 -3t44.5 3zM120.5 3q-37.5 13 -54 46t-16.5 95q0 55 15.5 85.5t53 43.5t106.5 13h145v77q0 27 -10.5 41.5t-35 20.5t-71.5 6q-75 0 -166 -12v66q99 9 179 9q84 0 124 -12.5
t55 -43.5t15 -96v-342h-87v46q-11 -56 -146 -56q-69 0 -106.5 13zM242 49q49 0 83 7q45 9 45 42v132h-139q-43 0 -62 -6.5t-25 -24.5t-6 -58q0 -36 7 -55.5t25 -28t54 -8.5h18z" />
    <glyph glyph-name="ae" unicode="&#xe6;" horiz-adv-x="840" 
d="M120 2.5q-38 12.5 -54 44t-16 93.5q0 58 15 89t52 44t108 13h150v75q0 38 -25.5 54t-88.5 16q-108 0 -174 -17v66q78 14 186 14q118 0 158 -35q50 35 153 35q106 0 151.5 -36.5t45.5 -128.5v-107h-315v-73q0 -50 33 -72t105 -22q64 0 158 24v-69q-94 -20 -173 -20
q-127 0 -181 57q-13 -57 -178 -57q-72 0 -110 12.5zM691 281v76q0 45 -24 61t-87 16q-61 0 -87.5 -16.5t-26.5 -60.5v-76h225zM276 48q18 1 38 4q21 3 32.5 9t20.5 18q8 13 8 30v121h-144q-43 0 -62 -6.5t-25 -24.5t-6 -58q0 -39 7 -58t27 -27.5t62 -8.5q24 0 42 1z" />
    <glyph glyph-name="ccedilla" unicode="&#xe7;" horiz-adv-x="464" 
d="M182 -201l21 45q31 -17 58 -17q47 0 47 40q0 19 -22 30t-56 11h-33q24 41 44 82q-37 1 -60 4.5t-47 12.5q-25 9 -40 25.5t-24 45.5q-10 27 -10 70v178q0 81 31 116q17 20 34.5 30.5t45.5 14.5t50 5.5t62 1.5q69 0 138 -15v-66q-80 20 -149 20q-54 0 -78.5 -6.5t-33 -25.5
t-8.5 -62v-200q0 -37 10.5 -54.5t37.5 -24.5t82 -7q73 0 146 19v-68q-65 -12 -124 -13l-21 -43q39 -1 66 -21.5t27 -56.5q0 -42 -32.5 -66t-80.5 -24q-50 0 -81 19z" />
    <glyph glyph-name="egrave" unicode="&#xe8;" horiz-adv-x="535" 
d="M60 138v191q0 88 50.5 126.5t163.5 38.5q107 0 154.5 -37t47.5 -128v-107h-325v-73q0 -50 35 -72t108 -22q69 0 163 24v-69q-92 -20 -175 -20q-222 0 -222 148zM386 281v76q0 44 -26.5 60.5t-90.5 16.5q-62 0 -90 -16.5t-28 -60.5v-76h235zM102 680h109l90 -127h-74z" />
    <glyph glyph-name="eacute" unicode="&#xe9;" horiz-adv-x="535" 
d="M60 138v191q0 88 50.5 126.5t163.5 38.5q107 0 154.5 -37t47.5 -128v-107h-325v-73q0 -50 35 -72t108 -22q69 0 163 24v-69q-92 -20 -175 -20q-222 0 -222 148zM386 281v76q0 44 -26.5 60.5t-90.5 16.5q-62 0 -90 -16.5t-28 -60.5v-76h235zM308 680h109l-125 -127h-74z
" />
    <glyph glyph-name="ecircumflex" unicode="&#xea;" horiz-adv-x="535" 
d="M60 138v191q0 88 50.5 126.5t163.5 38.5q107 0 154.5 -37t47.5 -128v-107h-325v-73q0 -50 35 -72t108 -22q69 0 163 24v-69q-92 -20 -175 -20q-222 0 -222 148zM386 281v76q0 44 -26.5 60.5t-90.5 16.5q-62 0 -90 -16.5t-28 -60.5v-76h235zM215 680h107l66 -127h-58
l-62 87l-63 -87h-58z" />
    <glyph glyph-name="edieresis" unicode="&#xeb;" horiz-adv-x="535" 
d="M130 659h90v-94h-90v94zM300 659h90v-94h-90v94zM60 138v191q0 88 50.5 126.5t163.5 38.5q107 0 154.5 -37t47.5 -128v-107h-325v-73q0 -50 35 -72t108 -22q69 0 163 24v-69q-92 -20 -175 -20q-222 0 -222 148zM386 281v76q0 44 -26.5 60.5t-90.5 16.5q-62 0 -90 -16.5
t-28 -60.5v-76h235z" />
    <glyph glyph-name="igrave" unicode="&#xec;" horiz-adv-x="246" 
d="M79 484h90v-484h-90v484zM-43 680h109l90 -127h-74z" />
    <glyph glyph-name="iacute" unicode="&#xed;" horiz-adv-x="246" 
d="M79 484h90v-484h-90v484zM163 680h109l-125 -127h-74z" />
    <glyph glyph-name="icircumflex" unicode="&#xee;" horiz-adv-x="246" 
d="M75 680h107l66 -127h-58l-62 87l-63 -87h-58zM79 484h90v-484h-90v484z" />
    <glyph glyph-name="idieresis" unicode="&#xef;" horiz-adv-x="246" 
d="M-5 659h90v-94h-90v94zM165 659h90v-94h-90v94zM79 484h90v-484h-90v484z" />
    <glyph glyph-name="eth" unicode="&#xf0;" horiz-adv-x="568" 
d="M199.5 -7.5q-27.5 2.5 -56.5 10.5q-30 9 -45.5 25.5t-25.5 48.5q-10 29 -10 76v168q0 87 36 130q15 17 44 27t63 13q30 3 78 3q61 0 93 -4q-33 62 -71 109l-116 -34v57l76 23q-11 13 -53 55h106l31 -30l101 30v-57l-61 -18q115 -139 115 -304v-168q0 -84 -35 -124
q-15 -16 -44.5 -25t-62.5 -12q-38 -2 -79 -2q-56 0 -83.5 2.5zM363.5 54.5q26.5 6.5 38.5 25.5t12 60v196q0 45 -11 66t-37.5 27.5t-82.5 6.5t-82.5 -6.5t-37.5 -27.5t-11 -66v-196q0 -41 12 -60t38.5 -25.5t80.5 -6.5t80.5 6.5z" />
    <glyph glyph-name="ntilde" unicode="&#xf1;" horiz-adv-x="573" 
d="M150 614q24 29 65 29q23 0 65 -17t60 -17q21 0 35 10t30 33v-69q-22 -39 -65 -39q-25 0 -66 18q-40 18 -59 18q-39 0 -65 -39v73zM78 484h90v-59q14 69 159 69q93 0 130.5 -33.5t37.5 -105.5v-355h-90v350q0 19 -3 31t-12 24q-20 25 -89 25q-53 0 -81.5 -7.5t-40 -24.5
t-11.5 -48v-350h-90v484z" />
    <glyph glyph-name="ograve" unicode="&#xf2;" horiz-adv-x="568" 
d="M187 -5.5q-32 4.5 -64 19.5q-33 15 -48 48.5t-15 90.5v168q0 45 11 79t29 53q15 17 45.5 26.5t62.5 12.5q36 2 75 2q52 0 78.5 -2.5t56.5 -10.5q31 -9 48 -27t29 -52q11 -35 11 -81v-168q0 -85 -39 -124q-16 -16 -46 -25t-62 -12q-38 -2 -76 -2q-64 0 -96 4.5zM344 51
q19 2 37 11q18 8 25.5 26.5t7.5 51.5v196q0 45 -11 65.5t-37.5 27t-82.5 6.5t-82.5 -6.5t-37.5 -27t-11 -65.5v-196q0 -33 7.5 -51.5t25.5 -26.5q18 -9 37 -11t61 -2t61 2zM118 680h109l90 -127h-74z" />
    <glyph glyph-name="oacute" unicode="&#xf3;" horiz-adv-x="568" 
d="M187 -5.5q-32 4.5 -64 19.5q-33 15 -48 48.5t-15 90.5v168q0 45 11 79t29 53q15 17 45.5 26.5t62.5 12.5q36 2 75 2q52 0 78.5 -2.5t56.5 -10.5q31 -9 48 -27t29 -52q11 -35 11 -81v-168q0 -85 -39 -124q-16 -16 -46 -25t-62 -12q-38 -2 -76 -2q-64 0 -96 4.5zM344 51
q19 2 37 11q18 8 25.5 26.5t7.5 51.5v196q0 45 -11 65.5t-37.5 27t-82.5 6.5t-82.5 -6.5t-37.5 -27t-11 -65.5v-196q0 -33 7.5 -51.5t25.5 -26.5q18 -9 37 -11t61 -2t61 2zM324 680h109l-125 -127h-74z" />
    <glyph glyph-name="ocircumflex" unicode="&#xf4;" horiz-adv-x="568" 
d="M187 -5.5q-32 4.5 -64 19.5q-33 15 -48 48.5t-15 90.5v168q0 45 11 79t29 53q15 17 45.5 26.5t62.5 12.5q36 2 75 2q52 0 78.5 -2.5t56.5 -10.5q31 -9 48 -27t29 -52q11 -35 11 -81v-168q0 -85 -39 -124q-16 -16 -46 -25t-62 -12q-38 -2 -76 -2q-64 0 -96 4.5zM344 51
q19 2 37 11q18 8 25.5 26.5t7.5 51.5v196q0 45 -11 65.5t-37.5 27t-82.5 6.5t-82.5 -6.5t-37.5 -27t-11 -65.5v-196q0 -33 7.5 -51.5t25.5 -26.5q18 -9 37 -11t61 -2t61 2zM231 680h107l66 -127h-58l-62 87l-63 -87h-58z" />
    <glyph glyph-name="otilde" unicode="&#xf5;" horiz-adv-x="568" 
d="M187 -5.5q-32 4.5 -64 19.5q-33 15 -48 48.5t-15 90.5v168q0 45 11 79t29 53q15 17 45.5 26.5t62.5 12.5q36 2 75 2q52 0 78.5 -2.5t56.5 -10.5q31 -9 48 -27t29 -52q11 -35 11 -81v-168q0 -85 -39 -124q-16 -16 -46 -25t-62 -12q-38 -2 -76 -2q-64 0 -96 4.5zM344 51
q19 2 37 11q18 8 25.5 26.5t7.5 51.5v196q0 45 -11 65.5t-37.5 27t-82.5 6.5t-82.5 -6.5t-37.5 -27t-11 -65.5v-196q0 -33 7.5 -51.5t25.5 -26.5q18 -9 37 -11t61 -2t61 2zM147 576q7 27 28 47.5t54 20.5q23 0 62 -15q37 -15 54 -15q15 0 28 8t19 24l31 -18q-8 -28 -31 -50
t-56 -22q-23 0 -65 17q-39 16 -51 16q-29 0 -42 -33z" />
    <glyph glyph-name="odieresis" unicode="&#xf6;" horiz-adv-x="568" 
d="M154 659h90v-94h-90v94zM324 659h90v-94h-90v94zM187 -5.5q-32 4.5 -64 19.5q-33 15 -48 48.5t-15 90.5v168q0 45 11 79t29 53q15 17 45.5 26.5t62.5 12.5q36 2 75 2q52 0 78.5 -2.5t56.5 -10.5q31 -9 48 -27t29 -52q11 -35 11 -81v-168q0 -85 -39 -124q-16 -16 -46 -25
t-62 -12q-38 -2 -76 -2q-64 0 -96 4.5zM344 51q19 2 37 11q18 8 25.5 26.5t7.5 51.5v196q0 45 -11 65.5t-37.5 27t-82.5 6.5t-82.5 -6.5t-37.5 -27t-11 -65.5v-196q0 -33 7.5 -51.5t25.5 -26.5q18 -9 37 -11t61 -2t61 2z" />
    <glyph glyph-name="divide" unicode="&#xf7;" horiz-adv-x="500" 
d="M192 555h116v-108h-116v108zM60 349h380v-67h-380v67zM192 179h116v-108h-116v108z" />
    <glyph glyph-name="oslash" unicode="&#xf8;" horiz-adv-x="568" 
d="M187 -5.5q-32 4.5 -64 19.5q-33 15 -48 48.5t-15 90.5v168q0 45 11 79t29 53q15 17 45.5 26.5t62.5 12.5q36 2 75 2q52 0 78.5 -2.5t56.5 -10.5q31 -9 48 -27t29 -52q11 -35 11 -81v-168q0 -85 -39 -124q-16 -16 -46 -25t-62 -12q-38 -2 -76 -2q-64 0 -96 4.5zM373 426
q-24 9 -90 9q-56 0 -82.5 -6.5t-37.5 -27t-11 -65.5v-196q0 -33 7 -48zM344 51q19 2 37 11q18 8 25.5 26.5t7.5 51.5v196q0 32 -7 53l-213 -332q26 -8 89 -8q42 0 61 2z" />
    <glyph glyph-name="ugrave" unicode="&#xf9;" horiz-adv-x="573" 
d="M115.5 23.5q-37.5 33.5 -37.5 105.5v355h90v-350q0 -19 3.5 -30.5t12.5 -23.5q18 -26 88 -26q74 0 104 14q29 14 29 51v365h90v-484h-90v59q-13 -69 -159 -69q-93 0 -130.5 33.5zM121 680h109l90 -127h-74z" />
    <glyph glyph-name="uacute" unicode="&#xfa;" horiz-adv-x="573" 
d="M115.5 23.5q-37.5 33.5 -37.5 105.5v355h90v-350q0 -19 3.5 -30.5t12.5 -23.5q18 -26 88 -26q74 0 104 14q29 14 29 51v365h90v-484h-90v59q-13 -69 -159 -69q-93 0 -130.5 33.5zM327 680h109l-125 -127h-74z" />
    <glyph glyph-name="ucircumflex" unicode="&#xfb;" horiz-adv-x="573" 
d="M228 680h107l66 -127h-58l-62 87l-63 -87h-58zM115.5 23.5q-37.5 33.5 -37.5 105.5v355h90v-350q0 -19 3.5 -30.5t12.5 -23.5q18 -26 88 -26q74 0 104 14q29 14 29 51v365h90v-484h-90v59q-13 -69 -159 -69q-93 0 -130.5 33.5z" />
    <glyph glyph-name="udieresis" unicode="&#xfc;" horiz-adv-x="573" 
d="M150 659h90v-94h-90v94zM320 659h90v-94h-90v94zM115.5 23.5q-37.5 33.5 -37.5 105.5v355h90v-350q0 -19 3.5 -30.5t12.5 -23.5q18 -26 88 -26q74 0 104 14q29 14 29 51v365h90v-484h-90v59q-13 -69 -159 -69q-93 0 -130.5 33.5z" />
    <glyph glyph-name="yacute" unicode="&#xfd;" horiz-adv-x="460" 
d="M193 -7l-187 491h98l135 -395h2l122 395h91l-243 -692h-94zM270 680h109l-125 -127h-74z" />
    <glyph glyph-name="thorn" unicode="&#xfe;" horiz-adv-x="579" 
d="M78 700h90v-268q11 62 165 62q92 0 139 -38.5t47 -98.5v-199q0 -43 -12.5 -75t-32.5 -50q-18 -17 -49.5 -27t-62.5 -13q-28 -3 -68 -3q-44 0 -80.5 10.5t-45.5 30.5v-239h-90v908zM375.5 58.5q27.5 7.5 39.5 27.5t12 61v178q0 45 -12 67t-39.5 29.5t-80.5 7.5t-80.5 -7.5
t-39.5 -29.5t-12 -67v-178q0 -40 12.5 -60.5t40.5 -28t80 -7.5t79.5 7.5z" />
    <glyph glyph-name="ydieresis" unicode="&#xff;" horiz-adv-x="460" 
d="M193 -7l-187 491h98l135 -395h2l122 395h91l-243 -692h-94zM100 659h90v-94h-90v94zM270 659h90v-94h-90v94z" />
    <glyph glyph-name="Amacron" unicode="&#x100;" horiz-adv-x="652" 
d="M215 798h218v-59h-218v59zM273 649h112l252 -649h-101l-74 197h-278l-73 -197h-96zM438 264l-110 293h-9l-110 -293h229z" />
    <glyph glyph-name="amacron" unicode="&#x101;" horiz-adv-x="538" 
d="M160 649h218v-59h-218v59zM120.5 3q-37.5 13 -54 46t-16.5 95q0 55 15.5 85.5t53 43.5t106.5 13h145v77q0 27 -10.5 41.5t-35 20.5t-71.5 6q-75 0 -166 -12v66q99 9 179 9q84 0 124 -12.5t55 -43.5t15 -96v-342h-87v46q-11 -56 -146 -56q-69 0 -106.5 13zM242 49
q49 0 83 7q45 9 45 42v132h-139q-43 0 -62 -6.5t-25 -24.5t-6 -58q0 -36 7 -55.5t25 -28t54 -8.5h18z" />
    <glyph glyph-name="Abreve" unicode="&#x102;" horiz-adv-x="652" 
d="M273 649h112l252 -649h-101l-74 197h-278l-73 -197h-96zM438 264l-110 293h-9l-110 -293h229zM242 748q-31 34 -34 93h36q13 -37 31 -52.5t51 -15.5t51.5 16t29.5 52h37q-4 -59 -35 -93t-83 -34q-53 0 -84 34z" />
    <glyph glyph-name="abreve" unicode="&#x103;" horiz-adv-x="538" 
d="M120.5 3q-37.5 13 -54 46t-16.5 95q0 55 15.5 85.5t53 43.5t106.5 13h145v77q0 27 -10.5 41.5t-35 20.5t-71.5 6q-75 0 -166 -12v66q99 9 179 9q84 0 124 -12.5t55 -43.5t15 -96v-342h-87v46q-11 -56 -146 -56q-69 0 -106.5 13zM242 49q49 0 83 7q45 9 45 42v132h-139
q-43 0 -62 -6.5t-25 -24.5t-6 -58q0 -36 7 -55.5t25 -28t54 -8.5h18zM184.5 587.5q-31.5 34.5 -33.5 92.5h54q6 -68 64 -68t64 68h54q-1 -57 -33 -92t-85 -35t-84.5 34.5z" />
    <glyph glyph-name="Aogonek" unicode="&#x104;" horiz-adv-x="652" 
d="M539 -167q-24 19 -24 61q0 41 21 106l-74 197h-278l-73 -197h-96l258 649h112l252 -649q-43 -52 -43 -97q0 -33 39 -33q10 0 31 7v-53q-20 -10 -50 -10q-51 0 -75 19zM438 264l-110 293h-9l-110 -293h229z" />
    <glyph glyph-name="aogonek" unicode="&#x105;" horiz-adv-x="538" 
d="M361 -167q-24 19 -24 61q0 50 36 106v46q-11 -56 -146 -56q-69 0 -106.5 13t-54 46t-16.5 95q0 55 15.5 85.5t53 43.5t106.5 13h145v77q0 27 -10.5 41.5t-35 20.5t-71.5 6q-75 0 -166 -12v66q99 9 179 9q84 0 124 -12.5t55 -43.5t15 -96v-342q-44 -49 -44 -97
q0 -33 39 -33q10 0 31 7v-53q-20 -10 -50 -10q-51 0 -75 19zM242 47q49 0 83 7q45 9 45 42v134h-139q-43 0 -62 -6.5t-25 -24.5t-6 -58q0 -36 7 -56t25.5 -29t53.5 -9h18z" />
    <glyph glyph-name="Cacute" unicode="&#x106;" horiz-adv-x="564" 
d="M355 830h109l-125 -127h-74zM64 166v308q0 186 273 186q93 0 178 -19v-72q-96 24 -176 24q-39 0 -68 -4.5t-56 -15.5q-58 -25 -58 -98v-304q0 -112 186 -112q80 0 176 24v-74q-85 -19 -182 -19q-273 0 -273 176z" />
    <glyph glyph-name="cacute" unicode="&#x107;" horiz-adv-x="464" 
d="M299 680h109l-125 -127h-74zM200.5 -8q-22.5 2 -51.5 10q-31 8 -48 24t-29 47q-12 30 -12 75v178q0 81 31 116q17 20 34.5 30.5t45.5 14.5t50 5.5t62 1.5q69 0 138 -15v-66q-80 20 -149 20q-52 0 -76.5 -7.5t-34 -27t-9.5 -59.5v-198q0 -37 10.5 -55t38 -25.5t81.5 -7.5
q73 0 146 19v-68q-68 -14 -155 -14q-50 0 -72.5 2z" />
    <glyph glyph-name="Ccircumflex" unicode="&#x108;" horiz-adv-x="564" 
d="M279 830h107l66 -127h-58l-62 87l-63 -87h-58zM64 166v308q0 186 273 186q93 0 178 -19v-72q-96 24 -176 24q-39 0 -68 -4.5t-56 -15.5q-58 -25 -58 -98v-304q0 -112 186 -112q80 0 176 24v-74q-85 -19 -182 -19q-273 0 -273 176z" />
    <glyph glyph-name="ccircumflex" unicode="&#x109;" horiz-adv-x="464" 
d="M220 680h107l66 -127h-58l-62 87l-63 -87h-58zM200.5 -8q-22.5 2 -51.5 10q-31 8 -48 24t-29 47q-12 30 -12 75v178q0 81 31 116q17 20 34.5 30.5t45.5 14.5t50 5.5t62 1.5q69 0 138 -15v-66q-80 20 -149 20q-52 0 -76.5 -7.5t-34 -27t-9.5 -59.5v-198q0 -37 10.5 -55
t38 -25.5t81.5 -7.5q73 0 146 19v-68q-68 -14 -155 -14q-50 0 -72.5 2z" />
    <glyph glyph-name="Cdotaccent" unicode="&#x10a;" horiz-adv-x="564" 
d="M290 830h90v-98h-90v98zM64 166v308q0 186 273 186q93 0 178 -19v-72q-96 24 -176 24q-39 0 -68 -4.5t-56 -15.5q-58 -25 -58 -98v-304q0 -112 186 -112q80 0 176 24v-74q-85 -19 -182 -19q-273 0 -273 176z" />
    <glyph glyph-name="cdotaccent" unicode="&#x10b;" horiz-adv-x="464" 
d="M226 666h90v-98h-90v98zM200.5 -8q-22.5 2 -51.5 10q-31 8 -48 24t-29 47q-12 30 -12 75v178q0 81 31 116q17 20 34.5 30.5t45.5 14.5t50 5.5t62 1.5q69 0 138 -15v-66q-80 20 -149 20q-52 0 -76.5 -7.5t-34 -27t-9.5 -59.5v-198q0 -37 10.5 -55t38 -25.5t81.5 -7.5
q73 0 146 19v-68q-68 -14 -155 -14q-50 0 -72.5 2z" />
    <glyph glyph-name="Ccaron" unicode="&#x10c;" horiz-adv-x="564" 
d="M183 830h58l63 -87l62 87h58l-66 -127h-107zM64 166v308q0 186 273 186q93 0 178 -19v-72q-96 24 -176 24q-39 0 -68 -4.5t-56 -15.5q-58 -25 -58 -98v-304q0 -112 186 -112q80 0 176 24v-74q-85 -19 -182 -19q-273 0 -273 176z" />
    <glyph glyph-name="ccaron" unicode="&#x10d;" horiz-adv-x="464" 
d="M145 680h58l63 -87l62 87h58l-66 -127h-107zM200.5 -8q-22.5 2 -51.5 10q-31 8 -48 24t-29 47q-12 30 -12 75v178q0 81 31 116q17 20 34.5 30.5t45.5 14.5t50 5.5t62 1.5q69 0 138 -15v-66q-80 20 -149 20q-52 0 -76.5 -7.5t-34 -27t-9.5 -59.5v-198q0 -37 10.5 -55
t38 -25.5t81.5 -7.5q73 0 146 19v-68q-68 -14 -155 -14q-50 0 -72.5 2z" />
    <glyph glyph-name="Dcaron" unicode="&#x10e;" horiz-adv-x="679" 
d="M219 845h58l63 -87l62 87h58l-66 -127h-107zM84 649h258q273 0 273 -186v-287q0 -176 -272 -176h-259v649zM336 66q186 0 186 112v286q0 36 -15 61t-42 37q-27 11 -56 15.5t-68 4.5h-160v-516h155z" />
    <glyph glyph-name="dcaron" unicode="&#x10f;" horiz-adv-x="605" 
d="M138 4.5q-41 14.5 -59.5 47.5t-18.5 92v213q0 73 45.5 105t150.5 32q63 0 108.5 -16t46.5 -46h2l-2 123v138h90v-693h-88v57q0 -27 -43 -46q-43 -21 -119 -21q-72 0 -113 14.5zM609 679h94l-83 -150h-57zM378 69q33 17 33 58v239q0 65 -133 65q-80 0 -104 -12
q-25 -12 -25 -53v-239q0 -41 27.5 -58t93.5 -17q75 0 108 17z" />
    <glyph glyph-name="Dcroat" unicode="&#x110;" horiz-adv-x="679" 
d="M84 301h-64v68h64v280h258q273 0 273 -186v-287q0 -176 -272 -176h-259v301zM336 66q186 0 186 112v286q0 36 -15 61t-42 37q-27 11 -56 15.5t-68 4.5h-160v-213h106v-68h-106v-235h155z" />
    <glyph glyph-name="dcroat" unicode="&#x111;" horiz-adv-x="571" 
d="M560 553h-59v-553h-88v57q0 -27 -43 -46q-43 -21 -119 -21q-72 0 -113 14.5t-59.5 47.5t-18.5 92v213q0 73 45.5 105t150.5 32q63 0 108.5 -16t46.5 -46h2l-2 121h-110v52h110v95h90v-95h59v-52zM411 366q0 65 -133 65q-80 0 -104 -12q-25 -12 -25 -53v-239
q0 -41 27.5 -58t93.5 -17q75 0 108 17t33 58v239z" />
    <glyph glyph-name="Emacron" unicode="&#x112;" 
d="M193 798h218v-59h-218v59zM84 649h436v-68h-339v-212h306v-68h-306v-233h349v-68h-446v649z" />
    <glyph glyph-name="emacron" unicode="&#x113;" horiz-adv-x="535" 
d="M154 647h241v-63h-241v63zM60 138v191q0 88 50.5 126.5t163.5 38.5q107 0 154.5 -37t47.5 -128v-107h-325v-73q0 -50 35 -72t108 -22q69 0 163 24v-69q-92 -20 -175 -20q-222 0 -222 148zM386 281v76q0 44 -26.5 60.5t-90.5 16.5q-62 0 -90 -16.5t-28 -60.5v-76h235z" />
    <glyph glyph-name="Ebreve" unicode="&#x114;" 
d="M221 737q-31 34 -34 93h36q13 -37 31 -52.5t51 -15.5t51.5 16t29.5 52h37q-4 -59 -35 -93t-83 -34q-53 0 -84 34zM84 649h436v-68h-339v-212h306v-68h-306v-233h349v-68h-446v649z" />
    <glyph glyph-name="ebreve" unicode="&#x115;" horiz-adv-x="535" 
d="M193.5 587.5q-31.5 34.5 -33.5 92.5h54q6 -68 64 -68t64 68h54q-1 -57 -33 -92t-85 -35t-84.5 34.5zM60 138v191q0 88 50.5 126.5t163.5 38.5q107 0 154.5 -37t47.5 -128v-107h-325v-73q0 -50 35 -72t108 -22q69 0 163 24v-69q-92 -20 -175 -20q-222 0 -222 148zM386 281
v76q0 44 -26.5 60.5t-90.5 16.5q-62 0 -90 -16.5t-28 -60.5v-76h235z" />
    <glyph glyph-name="Edotaccent" unicode="&#x116;" 
d="M256 830h90v-98h-90v98zM84 649h436v-68h-339v-212h306v-68h-306v-233h349v-68h-446v649z" />
    <glyph glyph-name="edotaccent" unicode="&#x117;" horiz-adv-x="535" 
d="M226 666h90v-98h-90v98zM60 138v191q0 88 50.5 126.5t163.5 38.5q107 0 154.5 -37t47.5 -128v-107h-325v-73q0 -50 35 -72t108 -22q69 0 163 24v-69q-92 -20 -175 -20q-222 0 -222 148zM386 281v76q0 44 -26.5 60.5t-90.5 16.5q-62 0 -90 -16.5t-28 -60.5v-76h235z" />
    <glyph glyph-name="Eogonek" unicode="&#x118;" 
d="M362.5 -167q-24.5 19 -24.5 61q0 50 36 106h-290v649h436v-68h-339v-212h306v-68h-306v-233h349v-68h-81q-32 -50 -32 -97q0 -33 39 -33q10 0 31 7v-53q-20 -10 -50 -10q-50 0 -74.5 19z" />
    <glyph glyph-name="eogonek" unicode="&#x119;" horiz-adv-x="535" 
d="M278.5 -167q-24.5 19 -24.5 61q0 47 29 96h-13q-97 0 -153.5 37t-56.5 111v191q0 88 50.5 126.5t163.5 38.5q107 0 154.5 -37t47.5 -128v-107h-325v-73q0 -50 35.5 -72t111.5 -22q65 0 159 24v-69q-50 -11 -96 -16q-28 -46 -28 -91q0 -33 39 -33q10 0 31 7v-53
q-20 -10 -50 -10q-50 0 -74.5 19zM386 281v76q0 43 -26 60t-88 17q-65 0 -93 -16.5t-28 -60.5v-76h235z" />
    <glyph glyph-name="Ecaron" unicode="&#x11a;" 
d="M181 830h58l63 -87l62 87h58l-66 -127h-107zM84 649h436v-68h-339v-212h306v-68h-306v-233h349v-68h-446v649z" />
    <glyph glyph-name="ecaron" unicode="&#x11b;" horiz-adv-x="535" 
d="M150 680h58l63 -87l62 87h58l-66 -127h-107zM60 138v191q0 88 50.5 126.5t163.5 38.5q107 0 154.5 -37t47.5 -128v-107h-325v-73q0 -50 35 -72t108 -22q69 0 163 24v-69q-92 -20 -175 -20q-222 0 -222 148zM386 281v76q0 44 -26.5 60.5t-90.5 16.5q-62 0 -90 -16.5
t-28 -60.5v-76h235z" />
    <glyph glyph-name="Gcircumflex" unicode="&#x11c;" horiz-adv-x="666" 
d="M280 845h107l66 -127h-58l-62 87l-63 -87h-58zM281.5 -6q-35.5 4 -74.5 15q-44 12 -74 30.5t-49 50.5q-20 34 -20 76v307q0 56 29 96t80 58q49 17 93.5 24.5t96.5 7.5q124 0 224 -16v-75q-38 9 -108.5 16.5t-113.5 7.5q-205 0 -205 -118v-306q0 -32 19.5 -56t53.5 -35
q32 -12 64 -16.5t72 -4.5q67 0 143 18v227h-152v68h242v-349q-130 -30 -239 -30q-46 0 -81.5 4z" />
    <glyph glyph-name="gcircumflex" unicode="&#x11d;" horiz-adv-x="569" 
d="M226 680h107l66 -127h-58l-62 87l-63 -87h-58zM94 -209v64q120 -14 175 -14q69 0 100.5 22t31.5 73v116q-2 -32 -43.5 -47t-104.5 -15q-75 0 -116.5 14t-59 46t-17.5 87v197q0 86 46.5 123t152.5 37q126 0 148 -57v47h84v-530q0 -67 -25 -105t-75 -53.5t-130 -15.5
q-99 0 -167 11zM372 67q29 17 29 64v219q0 33 -10.5 50t-38.5 24.5t-82 7.5q-51 0 -76.5 -7t-35 -24.5t-9.5 -50.5v-219q0 -34 10 -51t36 -23.5t77 -6.5q71 0 100 17z" />
    <glyph glyph-name="Gbreve" unicode="&#x11e;" horiz-adv-x="666" 
d="M248.5 752.5q-31.5 34.5 -33.5 92.5h54q6 -68 64 -68t64 68h54q-1 -57 -33 -92t-85 -35t-84.5 34.5zM281.5 -6q-35.5 4 -74.5 15q-44 12 -74 30.5t-49 50.5q-20 34 -20 76v307q0 56 29 96t80 58q49 17 93.5 24.5t96.5 7.5q124 0 224 -16v-75q-38 9 -108.5 16.5
t-113.5 7.5q-205 0 -205 -118v-306q0 -32 19.5 -56t53.5 -35q32 -12 64 -16.5t72 -4.5q67 0 143 18v227h-152v68h242v-349q-130 -30 -239 -30q-46 0 -81.5 4z" />
    <glyph glyph-name="gbreve" unicode="&#x11f;" horiz-adv-x="569" 
d="M180.5 587.5q-31.5 34.5 -33.5 92.5h54q6 -68 64 -68t64 68h54q-1 -57 -33 -92t-85 -35t-84.5 34.5zM94 -209v64q120 -14 175 -14q69 0 100.5 22t31.5 73v116q-2 -32 -43.5 -47t-104.5 -15q-75 0 -116.5 14t-59 46t-17.5 87v197q0 86 46.5 123t152.5 37q126 0 148 -57v47
h84v-530q0 -67 -25 -105t-75 -53.5t-130 -15.5q-99 0 -167 11zM372 67q29 17 29 64v219q0 33 -10.5 50t-38.5 24.5t-82 7.5q-51 0 -76.5 -7t-35 -24.5t-9.5 -50.5v-219q0 -34 10 -51t36 -23.5t77 -6.5q71 0 100 17z" />
    <glyph glyph-name="Gdotaccent" unicode="&#x120;" horiz-adv-x="666" 
d="M288 831h90v-98h-90v98zM281.5 -6q-35.5 4 -74.5 15q-44 12 -74 30.5t-49 50.5q-20 34 -20 76v307q0 56 29 96t80 58q49 17 93.5 24.5t96.5 7.5q124 0 224 -16v-75q-38 9 -108.5 16.5t-113.5 7.5q-205 0 -205 -118v-306q0 -32 19.5 -56t53.5 -35q32 -12 64 -16.5t72 -4.5
q67 0 143 18v227h-152v68h242v-349q-130 -30 -239 -30q-46 0 -81.5 4z" />
    <glyph glyph-name="gdotaccent" unicode="&#x121;" horiz-adv-x="569" 
d="M232 666h90v-98h-90v98zM94 -209v64q120 -14 175 -14q69 0 100.5 22t31.5 73v116q-2 -32 -43.5 -47t-104.5 -15q-75 0 -116.5 14t-59 46t-17.5 87v197q0 86 46.5 123t152.5 37q126 0 148 -57v47h84v-530q0 -67 -25 -105t-75 -53.5t-130 -15.5q-99 0 -167 11zM372 67
q29 17 29 64v219q0 33 -10.5 50t-38.5 24.5t-82 7.5q-51 0 -76.5 -7t-35 -24.5t-9.5 -50.5v-219q0 -34 10 -51t36 -23.5t77 -6.5q71 0 100 17z" />
    <glyph glyph-name="Gcommaaccent" unicode="&#x122;" horiz-adv-x="666" 
d="M281.5 -6q-35.5 4 -74.5 15q-44 12 -74 30.5t-49 50.5q-20 34 -20 76v307q0 56 29 96t80 58q49 17 93.5 24.5t96.5 7.5q124 0 224 -16v-75q-38 9 -108.5 16.5t-113.5 7.5q-205 0 -205 -118v-306q0 -32 19.5 -56t53.5 -35q32 -12 64 -16.5t72 -4.5q67 0 143 18v227h-152
v68h242v-349q-130 -30 -239 -30q-46 0 -81.5 4zM309 -40h94l-83 -150h-57z" />
    <glyph glyph-name="gcommaaccent" unicode="&#x123;" horiz-adv-x="569" 
d="M288 689h94l-83 -150h-57zM94 -179v64q120 -14 175 -14q71 0 104.5 22.5t33.5 72.5v86q-2 -32 -46 -47t-108 -15q-75 0 -116.5 14t-59 46t-17.5 87v197q0 86 46.5 123t152.5 37q126 0 148 -57v47h84v-500q0 -67 -25 -105t-75 -53.5t-130 -15.5q-99 0 -167 11zM372 67
q29 17 29 64v219q0 33 -10.5 50t-38.5 24.5t-82 7.5q-51 0 -76.5 -7t-35 -24.5t-9.5 -50.5v-219q0 -34 10 -51t36 -23.5t77 -6.5q71 0 100 17z" />
    <glyph glyph-name="Hcircumflex" unicode="&#x124;" horiz-adv-x="707" 
d="M298 830h107l66 -127h-58l-62 87l-63 -87h-58zM84 649h97v-280h345v280h97v-649h-97v301h-345v-301h-97v649z" />
    <glyph glyph-name="hcircumflex" unicode="&#x125;" horiz-adv-x="573" 
d="M78 860h107l66 -127h-58l-62 87l-63 -87h-58zM78 700h90v-275q14 69 159 69q93 0 130.5 -33.5t37.5 -105.5v-355h-90v349q0 19 -3 31t-12 24q-20 25 -89 25q-55 0 -83.5 -7.5t-39 -24.5t-10.5 -48v-349h-90v700z" />
    <glyph glyph-name="Hbar" unicode="&#x126;" horiz-adv-x="707" 
d="M84 649h97v-180h345v180h97v-649h-97v241h-345v-241h-97v649zM526 309v92h-345v-92h345z" />
    <glyph glyph-name="hbar" unicode="&#x127;" horiz-adv-x="573" 
d="M78 553h-59v52h59v95h90v-95h110v-52h-110v-128q14 69 159 69q93 0 130.5 -33.5t37.5 -105.5v-355h-90v349q0 19 -3 31t-12 24q-20 25 -89 25q-55 0 -83.5 -7.5t-39 -24.5t-10.5 -48v-349h-90v553z" />
    <glyph glyph-name="Itilde" unicode="&#x128;" horiz-adv-x="265" 
d="M84 649h97v-649h-97v649zM3.5 786.5q28.5 21.5 70.5 21.5q20 0 43 -6.5t27 -7.5q33 -11 47 -11q33 0 33 33l65 -1q-1 -53 -26.5 -74.5t-71.5 -21.5q-9 0 -23.5 4.5t-29.5 9.5q-17 5 -34.5 10t-29.5 5q-35 0 -36 -29h-64q1 46 29.5 67.5z" />
    <glyph glyph-name="itilde" unicode="&#x129;" horiz-adv-x="246" 
d="M79 484h90v-484h-90v484zM-14 576q7 27 28 47.5t54 20.5q23 0 62 -15q37 -15 54 -15q15 0 28 8t19 24l31 -18q-8 -28 -31 -50t-56 -22q-23 0 -65 17q-39 16 -51 16q-29 0 -42 -33z" />
    <glyph glyph-name="Imacron" unicode="&#x12a;" horiz-adv-x="265" 
d="M24 798h218v-59h-218v59zM84 649h97v-649h-97v649z" />
    <glyph glyph-name="imacron" unicode="&#x12b;" horiz-adv-x="246" 
d="M3 654h241v-63h-241v63zM79 484h90v-484h-90v484z" />
    <glyph glyph-name="Ibreve" unicode="&#x12c;" horiz-adv-x="265" 
d="M48.5 752.5q-31.5 34.5 -33.5 92.5h54q6 -68 64 -68t64 68h54q-1 -57 -33 -92t-85 -35t-84.5 34.5zM84 649h97v-649h-97v649z" />
    <glyph glyph-name="ibreve" unicode="&#x12d;" horiz-adv-x="246" 
d="M39.5 587.5q-31.5 34.5 -33.5 92.5h54q6 -68 64 -68t64 68h54q-1 -57 -33 -92t-85 -35t-84.5 34.5zM79 484h90v-484h-90v484z" />
    <glyph glyph-name="Iogonek" unicode="&#x12e;" horiz-adv-x="265" 
d="M83 -167q-24 19 -24 61q0 47 25 106v649h97v-649q-43 -46 -43 -97q0 -33 39 -33q10 0 31 7v-53q-20 -10 -50 -10q-51 0 -75 19z" />
    <glyph glyph-name="iogonek" unicode="&#x12f;" horiz-adv-x="246" 
d="M67 -167q-24 19 -24 61q0 50 36 106v484h90v-484q-47 -45 -47 -97q0 -33 39 -33q10 0 31 7v-53q-20 -10 -50 -10q-51 0 -75 19z" />
    <glyph glyph-name="Idotaccent" unicode="&#x130;" horiz-adv-x="265" 
d="M87 811h90v-98h-90v98zM84 649h97v-649h-97v649z" />
    <glyph glyph-name="dotlessi" unicode="&#x131;" horiz-adv-x="246" 
d="M79 484h90v-484h-90v484z" />
    <glyph glyph-name="IJ" unicode="&#x132;" horiz-adv-x="601" 
d="M84 649h97v-649h-97v649zM218 1v65l27 -3q48 -8 80 -8q40 0 59.5 6t27.5 23.5t8 54.5v510h97v-506q0 -61 -17.5 -93t-55.5 -43.5t-107 -11.5q-17 0 -119 6z" />
    <glyph glyph-name="ij" unicode="&#x133;" horiz-adv-x="477" 
d="M78 660h90v-95h-90v95zM309 660h90v-95h-90v95zM78 484h90v-484h-90v484zM187 -186v56q4 -1 18 -1q41 0 62.5 6t31.5 24t10 54v531h90v-524q0 -60 -15 -91.5t-49 -43.5t-97 -12q-40 0 -51 1z" />
    <glyph glyph-name="Jcircumflex" unicode="&#x134;" horiz-adv-x="403" 
d="M217 839h107l66 -127h-58l-62 87l-63 -87h-58zM20 1v65q60 -16 107 -16q39 0 59 7t28 25.5t8 56.5v510h97v-506q0 -62 -18 -94.5t-56 -45.5t-106 -13q-80 0 -119 11z" />
    <glyph glyph-name="jcircumflex" unicode="&#x135;" horiz-adv-x="247" 
d="M75 680h107l66 -127h-58l-62 87l-63 -87h-58zM-43 -219v56q4 -1 18 -1q41 0 62.5 6t31.5 24t10 54v564h90v-557q0 -60 -15 -91.5t-49 -43.5t-97 -12q-40 0 -51 1z" />
    <glyph glyph-name="Kcommaaccent" unicode="&#x136;" horiz-adv-x="609" 
d="M84 649h97v-649h-97v649zM183 345l290 304h117l-292 -300l321 -349h-126zM290 -40h101l-83 -150h-64z" />
    <glyph glyph-name="kcommaaccent" unicode="&#x137;" horiz-adv-x="514" 
d="M78 693h90v-693h-90v693zM179 265l204 219h110l-210 -219l229 -265h-112zM228 -40h94l-83 -150h-57z" />
    <glyph glyph-name="kgreenlandic" unicode="&#x138;" 
d="M84 484h90v-484h-90v484zM176 250l250 234h117l-252 -230l281 -254h-126z" />
    <glyph glyph-name="Lacute" unicode="&#x139;" horiz-adv-x="520" 
d="M184 830h109l-125 -127h-74zM84 649h97v-581h319v-68h-416v649z" />
    <glyph glyph-name="lacute" unicode="&#x13a;" horiz-adv-x="246" 
d="M168 868h109l-125 -127h-74zM78 700h90v-700h-90v700z" />
    <glyph glyph-name="Lcommaaccent" unicode="&#x13b;" horiz-adv-x="520" 
d="M84 649h97v-581h319v-68h-416v649zM260 -40h101l-83 -150h-64z" />
    <glyph glyph-name="lcommaaccent" unicode="&#x13c;" horiz-adv-x="246" 
d="M78 693h90v-693h-90v693zM88 -40h94l-83 -150h-57z" />
    <glyph glyph-name="Lcaron" unicode="&#x13d;" horiz-adv-x="520" 
d="M84 649h97v-581h319v-68h-416v649zM288 649h101l-83 -150h-64z" />
    <glyph glyph-name="lcaron" unicode="&#x13e;" horiz-adv-x="292" 
d="M78 693h90v-693h-90v693zM268 679h94l-83 -150h-57z" />
    <glyph glyph-name="Ldot" unicode="&#x13f;" horiz-adv-x="520" 
d="M84 649h97v-581h319v-68h-416v649zM240 381h90v-98h-90v98z" />
    <glyph glyph-name="ldot" unicode="&#x140;" horiz-adv-x="300" 
d="M78 693h90v-693h-90v693zM228 468h90v-98h-90v98z" />
    <glyph glyph-name="Lslash" unicode="&#x141;" horiz-adv-x="540" 
d="M104 283l-84 -24v71l84 24v295h97v-267l111 32v-71l-111 -32v-243h319v-68h-416v283z" />
    <glyph glyph-name="lslash" unicode="&#x142;" horiz-adv-x="246" 
d="M78 355l-78 -32v71l78 32v274h90v-238l78 32v-71l-78 -32v-391h-90v355z" />
    <glyph glyph-name="Nacute" unicode="&#x143;" horiz-adv-x="723" 
d="M370 830h109l-125 -127h-74zM84 649h117l353 -536v536h85v-649h-117l-353 545v-545h-85v649z" />
    <glyph glyph-name="nacute" unicode="&#x144;" horiz-adv-x="573" 
d="M310 680h109l-125 -127h-74zM78 484h90v-59q14 69 159 69q93 0 130.5 -33.5t37.5 -105.5v-355h-90v350q0 19 -3 31t-12 24q-20 25 -89 25q-53 0 -81.5 -7.5t-40 -24.5t-11.5 -48v-350h-90v484z" />
    <glyph glyph-name="Ncommaaccent" unicode="&#x145;" horiz-adv-x="723" 
d="M84 649h117l353 -536v536h85v-649h-117l-353 545v-545h-85v649zM333 -40h101l-83 -150h-64z" />
    <glyph glyph-name="ncommaaccent" unicode="&#x146;" horiz-adv-x="573" 
d="M78 484h90v-59q14 69 159 69q93 0 130.5 -33.5t37.5 -105.5v-355h-90v350q0 19 -3 31t-12 24q-20 25 -89 25q-53 0 -81.5 -7.5t-40 -24.5t-11.5 -48v-350h-90v484zM250 -40h94l-83 -150h-57z" />
    <glyph glyph-name="Ncaron" unicode="&#x147;" horiz-adv-x="723" 
d="M258 830h58l63 -87l62 87h58l-66 -127h-107zM84 649h117l353 -536v536h85v-649h-117l-353 545v-545h-85v649z" />
    <glyph glyph-name="ncaron" unicode="&#x148;" horiz-adv-x="573" 
d="M150 680h58l63 -87l62 87h58l-66 -127h-107zM78 484h90v-59q14 69 159 69q93 0 130.5 -33.5t37.5 -105.5v-355h-90v350q0 19 -3 31t-12 24q-20 25 -89 25q-53 0 -81.5 -7.5t-40 -24.5t-11.5 -48v-350h-90v484z" />
    <glyph glyph-name="napostrophe" unicode="&#x149;" horiz-adv-x="573" 
d="M124 679h97l-75 -140h-58zM78 484h90v-59q14 69 159 69q93 0 130.5 -33.5t37.5 -105.5v-355h-90v350q0 19 -3 31t-12 24q-20 25 -89 25q-53 0 -81.5 -7.5t-40 -24.5t-11.5 -48v-350h-90v484z" />
    <glyph glyph-name="Eng" unicode="&#x14a;" horiz-adv-x="723" 
d="M455 -126q53 0 74 23.5t21 66.5l-381 581v-545h-85v649h117l353 -536v536h85v-690q0 -52 -14 -84t-48.5 -48.5t-95.5 -16.5h-26v64z" />
    <glyph glyph-name="eng" unicode="&#x14b;" horiz-adv-x="573" 
d="M310 -156q54 0 74.5 20t20.5 60v426q0 19 -3 31t-12 24q-20 25 -89 25q-53 0 -81.5 -7.5t-40 -24.5t-11.5 -48v-350h-90v484h90v-59q14 69 159 69q93 0 130.5 -33.5t37.5 -105.5v-436q0 -50 -13.5 -80t-48 -44.5t-97.5 -14.5h-26v64z" />
    <glyph glyph-name="Omacron" unicode="&#x14c;" horiz-adv-x="679" 
d="M223 798h218v-59h-218v59zM66 166v307q0 186 272 186q275 0 275 -185v-308q0 -52 -25 -89t-70 -55q-43 -17 -85.5 -24.5t-94.5 -7.5q-272 0 -272 176zM519 167v309q0 120 -180 120q-40 0 -68.5 -4.5t-54.5 -16.5q-57 -27 -57 -99v-309q0 -112 181 -112q179 0 179 112z
" />
    <glyph glyph-name="omacron" unicode="&#x14d;" horiz-adv-x="568" 
d="M164 652h241v-63h-241v63zM187 -5.5q-32 4.5 -64 19.5q-33 15 -48 48.5t-15 90.5v168q0 45 11 79t29 53q15 17 45.5 26.5t62.5 12.5q36 2 75 2q52 0 78.5 -2.5t56.5 -10.5q31 -9 48 -27t29 -52q11 -35 11 -81v-168q0 -85 -39 -124q-16 -16 -46 -25t-62 -12q-38 -2 -76 -2
q-64 0 -96 4.5zM344 51q19 2 37 11q18 8 25.5 26.5t7.5 51.5v196q0 45 -11 65.5t-37.5 27t-82.5 6.5t-82.5 -6.5t-37.5 -27t-11 -65.5v-196q0 -33 7.5 -51.5t25.5 -26.5q18 -9 37 -11t61 -2t61 2z" />
    <glyph glyph-name="Obreve" unicode="&#x14e;" horiz-adv-x="679" 
d="M254.5 752.5q-31.5 34.5 -33.5 92.5h54q6 -68 64 -68t64 68h54q-1 -57 -33 -92t-85 -35t-84.5 34.5zM66 166v307q0 186 272 186q275 0 275 -185v-308q0 -52 -25 -89t-70 -55q-43 -17 -85.5 -24.5t-94.5 -7.5q-272 0 -272 176zM519 167v309q0 120 -180 120
q-40 0 -68.5 -4.5t-54.5 -16.5q-57 -27 -57 -99v-309q0 -112 181 -112q179 0 179 112z" />
    <glyph glyph-name="obreve" unicode="&#x14f;" horiz-adv-x="568" 
d="M194.5 587.5q-31.5 34.5 -33.5 92.5h54q6 -68 64 -68t64 68h54q-1 -57 -33 -92t-85 -35t-84.5 34.5zM187 -5.5q-32 4.5 -64 19.5q-33 15 -48 48.5t-15 90.5v168q0 45 11 79t29 53q15 17 45.5 26.5t62.5 12.5q36 2 75 2q52 0 78.5 -2.5t56.5 -10.5q31 -9 48 -27t29 -52
q11 -35 11 -81v-168q0 -85 -39 -124q-16 -16 -46 -25t-62 -12q-38 -2 -76 -2q-64 0 -96 4.5zM344 51q19 2 37 11q18 8 25.5 26.5t7.5 51.5v196q0 45 -11 65.5t-37.5 27t-82.5 6.5t-82.5 -6.5t-37.5 -27t-11 -65.5v-196q0 -33 7.5 -51.5t25.5 -26.5q18 -9 37 -11t61 -2t61 2z
" />
    <glyph glyph-name="Ohungarumlaut" unicode="&#x150;" horiz-adv-x="679" 
d="M278 831h76l-70 -128h-76zM405 831h76l-70 -128h-76zM66 166v307q0 186 272 186q275 0 275 -185v-308q0 -52 -25 -89t-70 -55q-43 -17 -85.5 -24.5t-94.5 -7.5q-272 0 -272 176zM519 167v309q0 120 -180 120q-40 0 -68.5 -4.5t-54.5 -16.5q-57 -27 -57 -99v-309
q0 -112 181 -112q179 0 179 112z" />
    <glyph glyph-name="ohungarumlaut" unicode="&#x151;" horiz-adv-x="568" 
d="M240 680h76l-70 -128h-76zM367 680h76l-70 -128h-76zM187 -5.5q-32 4.5 -64 19.5q-33 15 -48 48.5t-15 90.5v168q0 45 11 79t29 53q15 17 45.5 26.5t62.5 12.5q36 2 75 2q52 0 78.5 -2.5t56.5 -10.5q31 -9 48 -27t29 -52q11 -35 11 -81v-168q0 -85 -39 -124
q-16 -16 -46 -25t-62 -12q-38 -2 -76 -2q-64 0 -96 4.5zM344 51q19 2 37 11q18 8 25.5 26.5t7.5 51.5v196q0 45 -11 65.5t-37.5 27t-82.5 6.5t-82.5 -6.5t-37.5 -27t-11 -65.5v-196q0 -33 7.5 -51.5t25.5 -26.5q18 -9 37 -11t61 -2t61 2z" />
    <glyph glyph-name="OE" unicode="&#x152;" horiz-adv-x="984" 
d="M84 176v287q0 186 272 186h568v-68h-339v-212h306v-68h-306v-233h349v-68h-578q-272 0 -272 176zM488 66v516h-130q-39 0 -68 -4.5t-55 -15.5q-58 -25 -58 -98v-286q0 -112 185 -112h126z" />
    <glyph glyph-name="oe" unicode="&#x153;" horiz-adv-x="890" 
d="M187 -5.5q-32 4.5 -64 19.5q-33 15 -48 48.5t-15 90.5v168q0 45 11 79t29 53q15 17 45.5 26.5t62.5 12.5q36 2 75 2q137 0 181 -50q39 50 165 50q107 0 154.5 -37t47.5 -128v-107h-325v-73q0 -50 35.5 -72t111.5 -22q65 0 159 24v-69q-97 -20 -187 -20q-94 0 -165 52
q-52 -52 -177 -52q-64 0 -96 4.5zM361.5 57q27.5 8 40 29.5t12.5 62.5v187q0 45 -11 65.5t-37.5 27t-82.5 6.5t-82.5 -6.5t-37.5 -27t-11 -65.5v-196q0 -33 7.5 -51.5t25.5 -26.5q18 -9 37 -11t61 -2q51 0 78.5 8zM741 281v76q0 43 -26.5 60t-88.5 17q-64 0 -92 -16.5
t-28 -60.5v-76h235z" />
    <glyph glyph-name="Racute" unicode="&#x154;" horiz-adv-x="612" 
d="M306 830h109l-125 -127h-74zM84 649h228q86 0 134.5 -10.5t71 -37.5t22.5 -79v-112q0 -58 -47.5 -89.5t-120.5 -31.5l208 -289h-119l-186 277h-94v-277h-97v649zM308 341q72 0 103.5 17.5t31.5 63.5v90q0 73 -126 73h-136v-244h127z" />
    <glyph glyph-name="racute" unicode="&#x155;" horiz-adv-x="351" 
d="M206 680h109l-125 -127h-74zM78 484h85v-79q0 23 20 43.5t51 33t61 12.5h44v-77h-50q-64 0 -92.5 -16.5t-28.5 -59.5v-341h-90v484z" />
    <glyph glyph-name="Rcommaaccent" unicode="&#x156;" horiz-adv-x="612" 
d="M84 649h228q86 0 134.5 -10.5t71 -37.5t22.5 -79v-112q0 -58 -47.5 -89.5t-120.5 -31.5l208 -289h-119l-186 277h-94v-277h-97v649zM308 341q72 0 103.5 17.5t31.5 63.5v90q0 73 -126 73h-136v-244h127zM288 -40h101l-83 -150h-64z" />
    <glyph glyph-name="rcommaaccent" unicode="&#x157;" horiz-adv-x="351" 
d="M78 484h85v-65q0 32 45 53t99 21h32v-80h-50q-67 0 -94 -14.5t-27 -57.5v-341h-90v484zM103 -40h94l-83 -150h-57z" />
    <glyph glyph-name="Rcaron" unicode="&#x158;" horiz-adv-x="612" 
d="M172 830h58l63 -87l62 87h58l-66 -127h-107zM84 649h228q86 0 134.5 -10.5t71 -37.5t22.5 -79v-112q0 -58 -47.5 -89.5t-120.5 -31.5l208 -289h-119l-186 277h-94v-277h-97v649zM308 341q72 0 103.5 17.5t31.5 63.5v90q0 73 -126 73h-136v-244h127z" />
    <glyph glyph-name="rcaron" unicode="&#x159;" horiz-adv-x="351" 
d="M63 680h58l63 -87l62 87h58l-66 -127h-107zM78 484h85v-79q0 23 20 43.5t51 33t61 12.5h44v-77h-50q-64 0 -92.5 -16.5t-28.5 -59.5v-341h-90v484z" />
    <glyph glyph-name="Sacute" unicode="&#x15a;" horiz-adv-x="569" 
d="M322 830h109l-125 -127h-74zM73 6v81q116 -25 204 -25q74 0 108 16.5t34 61.5v84q0 42 -24 59t-84 17h-76q-95 0 -135 38t-40 118v52q0 53 23.5 86t79 49t152.5 16q65 0 167 -11v-73q-114 17 -174 17q-93 0 -123 -18q-31 -19 -31 -63v-74q0 -34 24.5 -49.5t84.5 -15.5h78
q67 0 104.5 -16t53 -48.5t15.5 -87.5v-47q0 -69 -25.5 -109t-78.5 -57t-139 -17q-83 0 -198 16z" />
    <glyph glyph-name="sacute" unicode="&#x15b;" horiz-adv-x="483" 
d="M264 680h109l-125 -127h-74zM60 2v69q117 -19 168 -19q64 0 92 12.5t28 46.5v49q0 31 -21 44t-68 13h-55q-75 0 -114.5 31t-39.5 87v45q0 114 216 114q16 0 147 -8v-65q-89 14 -151 14q-71 0 -97 -14t-26 -47v-41q0 -49 89 -49h56q153 0 153 -114v-42q0 -75 -52 -106.5
t-159 -31.5q-77 0 -166 12z" />
    <glyph glyph-name="Scircumflex" unicode="&#x15c;" horiz-adv-x="569" 
d="M241 830h107l66 -127h-58l-62 87l-63 -87h-58zM73 6v81q116 -25 204 -25q74 0 108 16.5t34 61.5v84q0 42 -24 59t-84 17h-76q-95 0 -135 38t-40 118v52q0 53 23.5 86t79 49t152.5 16q65 0 167 -11v-73q-114 17 -174 17q-93 0 -123 -18q-31 -19 -31 -63v-74
q0 -34 24.5 -49.5t84.5 -15.5h78q67 0 104.5 -16t53 -48.5t15.5 -87.5v-47q0 -69 -25.5 -109t-78.5 -57t-139 -17q-83 0 -198 16z" />
    <glyph glyph-name="scircumflex" unicode="&#x15d;" horiz-adv-x="483" 
d="M185 680h107l66 -127h-58l-62 87l-63 -87h-58zM60 2v69q117 -19 168 -19q64 0 92 12.5t28 46.5v49q0 31 -21 44t-68 13h-55q-75 0 -114.5 31t-39.5 87v45q0 114 216 114q16 0 147 -8v-65q-89 14 -151 14q-71 0 -97 -14t-26 -47v-41q0 -49 89 -49h56q153 0 153 -114v-42
q0 -75 -52 -106.5t-159 -31.5q-77 0 -166 12z" />
    <glyph glyph-name="Scedilla" unicode="&#x15e;" horiz-adv-x="569" 
d="M187 -201l21 45q31 -17 58 -17q47 0 47 40q0 19 -22 30t-56 11h-33q24 41 44 82q-62 1 -173 16v81q116 -25 204 -25q74 0 108 16.5t34 61.5v84q0 42 -24 59t-84 17h-76q-95 0 -135 38t-40 118v52q0 53 23.5 86t79 49t152.5 16q65 0 167 -11v-73q-114 17 -174 17
q-93 0 -123 -18q-31 -19 -31 -63v-74q0 -34 24.5 -49.5t84.5 -15.5h78q67 0 104.5 -16t53 -48.5t15.5 -87.5v-47q0 -94 -48.5 -135.5t-156.5 -46.5l-21 -43q39 -1 66 -21.5t27 -56.5q0 -42 -32.5 -66t-80.5 -24q-50 0 -81 19z" />
    <glyph glyph-name="scedilla" unicode="&#x15f;" horiz-adv-x="483" 
d="M144 -201l21 45q31 -17 58 -17q47 0 47 40q0 19 -22 30t-56 11h-33q23 39 44 83q-70 1 -143 11v69q117 -19 168 -19q64 0 92 12.5t28 46.5v49q0 31 -21 44t-68 13h-55q-75 0 -114.5 31t-39.5 87v45q0 114 216 114q16 0 147 -8v-65q-89 14 -151 14q-71 0 -97 -14t-26 -47
v-41q0 -49 89 -49h56q153 0 153 -114v-42q0 -68 -42.5 -99.5t-128.5 -36.5l-21 -44q39 -1 66 -21.5t27 -56.5q0 -42 -32.5 -66t-80.5 -24q-50 0 -81 19z" />
    <glyph glyph-name="Scaron" unicode="&#x160;" horiz-adv-x="569" 
d="M150 830h58l63 -87l62 87h58l-66 -127h-107zM73 6v81q116 -25 204 -25q74 0 108 16.5t34 61.5v84q0 42 -24 59t-84 17h-76q-95 0 -135 38t-40 118v52q0 53 23.5 86t79 49t152.5 16q65 0 167 -11v-73q-114 17 -174 17q-93 0 -123 -18q-31 -19 -31 -63v-74
q0 -34 24.5 -49.5t84.5 -15.5h78q67 0 104.5 -16t53 -48.5t15.5 -87.5v-47q0 -69 -25.5 -109t-78.5 -57t-139 -17q-83 0 -198 16z" />
    <glyph glyph-name="scaron" unicode="&#x161;" horiz-adv-x="483" 
d="M123 680h58l63 -87l62 87h58l-66 -127h-107zM60 2v69q117 -19 168 -19q64 0 92 12.5t28 46.5v49q0 31 -21 44t-68 13h-55q-75 0 -114.5 31t-39.5 87v45q0 114 216 114q16 0 147 -8v-65q-89 14 -151 14q-71 0 -97 -14t-26 -47v-41q0 -49 89 -49h56q153 0 153 -114v-42
q0 -75 -52 -106.5t-159 -31.5q-77 0 -166 12z" />
    <glyph glyph-name="uni0162" unicode="&#x162;" horiz-adv-x="600" 
d="M322 0l-22 -44q39 -1 66 -21.5t27 -56.5q0 -42 -32.5 -66t-80.5 -24q-50 0 -81 19l21 45q31 -17 58 -17q47 0 47 40q0 19 -22 30t-56 11h-33q21 36 45 84h-15v581h-220v68h537v-68h-219v-581h-20z" />
    <glyph glyph-name="uni0163" unicode="&#x163;" horiz-adv-x="600" 
d="M209 425v-289q0 -36 8.5 -54t30 -25.5t62.5 -7.5q13 0 72 8v-59q-51 -8 -101 -8h-18l-21 -42q39 -1 66 -21.5t27 -56.5q0 -42 -32.5 -66t-80.5 -24q-50 0 -81 19l21 45q31 -17 58 -17q47 0 47 40q0 19 -22 30t-56 11h-33q21 35 48 89q-47 12 -66.5 45t-19.5 99v284h-108
v59h108v150h91v-150h173v-59h-173z" />
    <glyph glyph-name="Tcaron" unicode="&#x164;" horiz-adv-x="585" 
d="M173 830h58l63 -87l62 87h58l-66 -127h-107zM244 581h-220v68h537v-68h-219v-581h-98v581z" />
    <glyph glyph-name="tcaron" unicode="&#x165;" horiz-adv-x="402" 
d="M320 703h94l-83 -150h-57zM185.5 2q-34.5 12 -51 44.5t-16.5 94.5v286h-108v57h108v150h91v-150h173v-57h-173v-291q0 -36 8.5 -54t30 -25.5t62.5 -7.5q13 0 72 8v-59q-51 -8 -101 -8q-61 0 -95.5 12z" />
    <glyph glyph-name="Tbar" unicode="&#x166;" horiz-adv-x="585" 
d="M244 301h-100v68h100v212h-220v68h537v-68h-219v-212h100v-68h-100v-301h-98v301z" />
    <glyph glyph-name="tbar" unicode="&#x167;" horiz-adv-x="402" 
d="M210.5 -2q-25.5 5 -47.5 19q-24 14 -34.5 44t-10.5 80v121h-107v57h107v108h-108v57h108v150h91v-150h173v-57h-173v-108h173v-57h-173v-126q0 -35 8.5 -52.5t29.5 -24.5t63 -7q34 0 72 5v-59q-47 -5 -101 -5q-45 0 -70.5 5z" />
    <glyph glyph-name="Utilde" unicode="&#x168;" horiz-adv-x="676" 
d="M244.5 -3q-39.5 7 -77.5 24q-40 18 -61.5 55t-21.5 90v483h93v-482q0 -61 41 -86.5t121 -25.5t119.5 25.5t39.5 86.5v482h93v-483q0 -176 -254 -176q-53 0 -92.5 7zM208.5 786.5q28.5 21.5 70.5 21.5q20 0 43 -6.5t27 -7.5q33 -11 47 -11q33 0 33 33l65 -1
q-1 -53 -26.5 -74.5t-71.5 -21.5q-9 0 -23.5 4.5t-29.5 9.5q-17 5 -34.5 10t-29.5 5q-35 0 -36 -29h-64q1 46 29.5 67.5z" />
    <glyph glyph-name="utilde" unicode="&#x169;" horiz-adv-x="573" 
d="M115.5 23.5q-37.5 33.5 -37.5 105.5v355h90v-350q0 -19 3.5 -30.5t12.5 -23.5q18 -26 88 -26q74 0 104 14q29 14 29 51v365h90v-484h-90v59q-13 -69 -159 -69q-93 0 -130.5 33.5zM150 576q7 27 28 47.5t54 20.5q23 0 62 -15q37 -15 54 -15q15 0 28 8t19 24l31 -18
q-8 -28 -31 -50t-56 -22q-23 0 -65 17q-39 16 -51 16q-29 0 -42 -33z" />
    <glyph glyph-name="Umacron" unicode="&#x16a;" horiz-adv-x="676" 
d="M225 798h218v-59h-218v59zM244.5 -3q-39.5 7 -77.5 24q-40 18 -61.5 55t-21.5 90v483h93v-482q0 -61 41 -86.5t121 -25.5t119.5 25.5t39.5 86.5v482h93v-483q0 -176 -254 -176q-53 0 -92.5 7z" />
    <glyph glyph-name="umacron" unicode="&#x16b;" horiz-adv-x="573" 
d="M166 651h241v-63h-241v63zM115.5 23.5q-37.5 33.5 -37.5 105.5v355h90v-350q0 -19 3.5 -30.5t12.5 -23.5q18 -26 88 -26q74 0 104 14q29 14 29 51v365h90v-484h-90v59q-13 -69 -159 -69q-93 0 -130.5 33.5z" />
    <glyph glyph-name="Ubreve" unicode="&#x16c;" horiz-adv-x="676" 
d="M253.5 752.5q-31.5 34.5 -33.5 92.5h54q6 -68 64 -68t64 68h54q-1 -57 -33 -92t-85 -35t-84.5 34.5zM244.5 -3q-39.5 7 -77.5 24q-40 18 -61.5 55t-21.5 90v483h93v-482q0 -61 41 -86.5t121 -25.5t119.5 25.5t39.5 86.5v482h93v-483q0 -176 -254 -176q-53 0 -92.5 7z" />
    <glyph glyph-name="ubreve" unicode="&#x16d;" horiz-adv-x="573" 
d="M196.5 587.5q-31.5 34.5 -33.5 92.5h54q6 -68 64 -68t64 68h54q-1 -57 -33 -92t-85 -35t-84.5 34.5zM115.5 23.5q-37.5 33.5 -37.5 105.5v355h90v-350q0 -19 3.5 -30.5t12.5 -23.5q18 -26 88 -26q74 0 104 14q29 14 29 51v365h90v-484h-90v59q-13 -69 -159 -69
q-93 0 -130.5 33.5z" />
    <glyph glyph-name="Uring" unicode="&#x16e;" horiz-adv-x="717" 
d="M288 705.5q-19 2.5 -39 11.5t-29 29t-9 55v12q0 37 9 58.5t29 31.5q20 9 39 11.5t56 2.5q30 0 46.5 -1.5t34.5 -6.5q19 -6 29 -16.5t17 -30.5q7 -18 7 -49v-12q0 -35 -8.5 -55t-28.5 -29t-39.5 -11.5t-57.5 -2.5q-37 0 -56 2.5zM388.5 748q14.5 3 20.5 13.5t6 32.5v27
q0 24 -6 35.5t-20.5 15t-44.5 3.5t-44 -3.5t-20 -15t-6 -35.5v-27q0 -22 6 -32.5t20 -13.5t44 -3t44.5 3zM244.5 -3q-39.5 7 -77.5 24q-40 18 -61.5 55t-21.5 90v483h93v-482q0 -61 41 -86.5t121 -25.5t119.5 25.5t39.5 86.5v482h93v-483q0 -176 -254 -176q-53 0 -92.5 7z
" />
    <glyph glyph-name="uring" unicode="&#x16f;" horiz-adv-x="573" 
d="M228 555.5q-19 2.5 -39 11.5t-29 29t-9 55v12q0 37 9 58.5t29 31.5q20 9 39 11.5t56 2.5q30 0 46.5 -1.5t34.5 -6.5q19 -6 29 -16.5t17 -30.5q7 -18 7 -49v-12q0 -35 -8.5 -55t-28.5 -29t-39.5 -11.5t-57.5 -2.5q-37 0 -56 2.5zM328.5 598q14.5 3 20.5 13.5t6 32.5v27
q0 24 -6 35.5t-20.5 15t-44.5 3.5t-44 -3.5t-20 -15t-6 -35.5v-27q0 -22 6 -32.5t20 -13.5t44 -3t44.5 3zM115.5 23.5q-37.5 33.5 -37.5 105.5v355h90v-350q0 -19 3.5 -30.5t12.5 -23.5q18 -26 88 -26q74 0 104 14q29 14 29 51v365h90v-484h-90v59q-13 -69 -159 -69
q-93 0 -130.5 33.5z" />
    <glyph glyph-name="Uhungarumlaut" unicode="&#x170;" horiz-adv-x="676" 
d="M279 831h76l-70 -128h-76zM406 831h76l-70 -128h-76zM244.5 -3q-39.5 7 -77.5 24q-40 18 -61.5 55t-21.5 90v483h93v-482q0 -61 41 -86.5t121 -25.5t119.5 25.5t39.5 86.5v482h93v-483q0 -176 -254 -176q-53 0 -92.5 7z" />
    <glyph glyph-name="uhungarumlaut" unicode="&#x171;" horiz-adv-x="573" 
d="M228 680h76l-70 -128h-76zM355 680h76l-70 -128h-76zM115.5 23.5q-37.5 33.5 -37.5 105.5v355h90v-350q0 -19 3.5 -30.5t12.5 -23.5q18 -26 88 -26q74 0 104 14q29 14 29 51v365h90v-484h-90v59q-13 -69 -159 -69q-93 0 -130.5 33.5z" />
    <glyph glyph-name="Uogonek" unicode="&#x172;" horiz-adv-x="676" 
d="M304.5 -167q-24.5 19 -24.5 61q0 46 30 97q-226 7 -226 175v483h93v-482q0 -61 41 -86.5t121 -25.5t119.5 25.5t39.5 86.5v482h93v-483q0 -157 -206 -174q-26 -46 -26 -89q0 -33 39 -33q10 0 31 7v-53q-20 -10 -50 -10q-50 0 -74.5 19z" />
    <glyph glyph-name="uogonek" unicode="&#x173;" horiz-adv-x="573" 
d="M393 -167q-24 19 -24 61q0 50 36 106v59q-13 -69 -159 -69q-93 0 -130.5 33.5t-37.5 105.5v355h90v-350q0 -19 3.5 -30.5t12.5 -23.5q18 -26 88 -26q74 0 104 14q29 14 29 51v365h90v-484q-19 -19 -33 -46.5t-14 -50.5q0 -33 39 -33q10 0 31 7v-53q-20 -10 -50 -10
q-51 0 -75 19z" />
    <glyph glyph-name="Wcircumflex" unicode="&#x174;" horiz-adv-x="968" 
d="M433 830h107l66 -127h-58l-62 87l-63 -87h-58zM8 649h103l161 -557h2l161 557h103l161 -557h2l161 557h98l-209 -649h-113l-155 540l-159 -540h-113z" />
    <glyph glyph-name="wcircumflex" unicode="&#x175;" horiz-adv-x="792" 
d="M345 680h107l66 -127h-58l-62 87l-63 -87h-58zM12 484h99l118 -398h6l114 398h101l118 -398h6l114 398h92l-159 -484h-107l-117 391l-115 -391h-107z" />
    <glyph glyph-name="Ycircumflex" unicode="&#x176;" horiz-adv-x="584" 
d="M240 830h107l66 -127h-58l-62 87l-63 -87h-58zM243 262l-235 387h111l173 -305l173 305h111l-236 -384v-265h-97v262z" />
    <glyph glyph-name="ycircumflex" unicode="&#x177;" horiz-adv-x="460" 
d="M180 680h107l66 -127h-58l-62 87l-63 -87h-58zM193 -7l-187 491h98l135 -395h2l122 395h91l-243 -692h-94z" />
    <glyph glyph-name="Ydieresis" unicode="&#x178;" horiz-adv-x="584" 
d="M160 809h90v-94h-90v94zM330 809h90v-94h-90v94zM243 262l-235 387h111l173 -305l173 305h111l-236 -384v-265h-97v262z" />
    <glyph glyph-name="Zacute" unicode="&#x179;" 
d="M303 830h109l-125 -127h-74zM40 68l382 513h-372v68h484v-68l-382 -513h388v-68h-500v68z" />
    <glyph glyph-name="zacute" unicode="&#x17a;" horiz-adv-x="454" 
d="M243 680h109l-125 -127h-74zM40 61l272 362h-262v61h364v-61l-272 -362h278v-61h-380v61z" />
    <glyph glyph-name="Zdotaccent" unicode="&#x17b;" 
d="M237 830h90v-98h-90v98zM40 68l382 513h-372v68h484v-68l-382 -513h388v-68h-500v68z" />
    <glyph glyph-name="zdotaccent" unicode="&#x17c;" horiz-adv-x="454" 
d="M182 666h90v-98h-90v98zM40 61l272 362h-262v61h364v-61l-272 -362h278v-61h-380v61z" />
    <glyph glyph-name="Zcaron" unicode="&#x17d;" 
d="M160 830h58l63 -87l62 87h58l-66 -127h-107zM40 68l382 513h-372v68h484v-68l-382 -513h388v-68h-500v68z" />
    <glyph glyph-name="zcaron" unicode="&#x17e;" horiz-adv-x="454" 
d="M100 680h58l63 -87l62 87h58l-66 -127h-107zM40 61l272 362h-262v61h364v-61l-272 -362h278v-61h-380v61z" />
    <glyph glyph-name="longs" unicode="&#x17f;" horiz-adv-x="298" 
d="M121 425h-111v59h111v78q0 83 36.5 115.5t123.5 32.5q54 0 101 -5v-58q-38 5 -68 5q-43 0 -64.5 -7t-30 -24.5t-8.5 -52.5v-568h-90v425z" />
    <glyph glyph-name="florin" unicode="&#x192;" 
d="M69 -183v58q38 -5 80 -5q50 0 70.5 18t20.5 66v350h-124v62h124v145q0 81 43 114.5t135 33.5q36 0 83 -5v-58q-38 5 -80 5q-50 0 -70.5 -18t-20.5 -66v-151h143v-62h-143v-344q0 -81 -43 -114.5t-135 -33.5q-36 0 -83 5z" />
    <glyph glyph-name="Ohorn" unicode="&#x1a0;" horiz-adv-x="679" 
d="M613 474v-308q0 -94 -76 -135t-199 -41q-272 0 -272 176v307q0 186 272 186q66 0 113 -10q40 1 57.5 7t23.5 23.5t6 57.5l83 -1q0 -59 -12.5 -90.5t-47.5 -45.5q52 -45 52 -126zM519 476q0 120 -180 120q-87 0 -133.5 -27t-46.5 -93v-309q0 -112 181 -112q179 0 179 112
v309z" />
    <glyph glyph-name="ohorn" unicode="&#x1a1;" horiz-adv-x="568" 
d="M553 471q-18 -32 -69 -44q8 -16 11 -25q11 -35 11 -81v-168q0 -85 -39 -124q-16 -16 -46 -25t-62 -12q-38 -2 -76 -2q-64 0 -96 4.5t-64 19.5q-33 15 -48 48.5t-15 90.5v168q0 45 11 79t29 53q15 17 45.5 26.5t62.5 12.5q36 2 75 2q47 0 72 -2t51 -8q37 1 53.5 7t22.5 24
t6 57l83 -1q0 -68 -18 -100zM414 336q0 45 -11 65.5t-37.5 27t-82.5 6.5t-82.5 -6.5t-37.5 -27t-11 -65.5v-196q0 -33 7.5 -51.5t25.5 -26.5q18 -9 37 -11t61 -2t61 2t37 11q18 8 25.5 26.5t7.5 51.5v196z" />
    <glyph glyph-name="Uhorn" unicode="&#x1af;" horiz-adv-x="676" 
d="M670 631.5q-20 -32.5 -79 -42.5v-423q0 -176 -254 -176q-53 0 -92.5 7t-77.5 24q-40 18 -61.5 55t-21.5 90v483h93v-482q0 -61 41 -86.5t121 -25.5t119.5 25.5t39.5 86.5v482h13q45 0 63.5 5.5t25.5 23t7 59.5l83 -1q0 -72 -20 -104.5z" />
    <glyph glyph-name="uhorn" unicode="&#x1b0;" horiz-adv-x="573" 
d="M591.5 492q-8.5 -29 -31 -46t-65.5 -23v-423h-90v59q-13 -69 -159 -69q-93 0 -130.5 33.5t-37.5 105.5v355h90v-350q0 -19 3.5 -30.5t12.5 -23.5q18 -26 88 -26q74 0 104 14q29 14 29 51v365h16q45 0 63.5 5.5t25.5 23t7 59.5l83 -1q0 -50 -8.5 -79z" />
    <glyph glyph-name="Scommaaccent" unicode="&#x218;" horiz-adv-x="569" 
d="M73 6v81q116 -25 204 -25q74 0 108 16.5t34 61.5v84q0 42 -24 59t-84 17h-76q-95 0 -135 38t-40 118v52q0 53 23.5 86t79 49t152.5 16q65 0 167 -11v-73q-114 17 -174 17q-93 0 -123 -18q-31 -19 -31 -63v-74q0 -34 24.5 -49.5t84.5 -15.5h78q67 0 104.5 -16t53 -48.5
t15.5 -87.5v-47q0 -69 -25.5 -109t-78.5 -57t-139 -17q-83 0 -198 16zM255 -40h101l-83 -150h-64z" />
    <glyph glyph-name="scommaaccent" unicode="&#x219;" horiz-adv-x="483" 
d="M60 2v69q117 -19 168 -19q64 0 92 12.5t28 46.5v49q0 31 -21 44t-68 13h-55q-75 0 -114.5 31t-39.5 87v45q0 114 216 114q16 0 147 -8v-65q-89 14 -151 14q-71 0 -97 -14t-26 -47v-41q0 -49 89 -49h56q153 0 153 -114v-42q0 -75 -52 -106.5t-159 -31.5q-77 0 -166 12z
M225 -40h94l-83 -150h-57z" />
    <glyph glyph-name="uni021A" unicode="&#x21a;" horiz-adv-x="585" 
d="M244 581h-220v68h537v-68h-219v-581h-98v581zM249 -40h101l-83 -150h-64z" />
    <glyph glyph-name="uni021B" unicode="&#x21b;" horiz-adv-x="402" 
d="M185.5 2q-34.5 12 -51 44.5t-16.5 94.5v286h-108v57h108v150h91v-150h173v-57h-173v-291q0 -36 8.5 -54t30 -25.5t62.5 -7.5q13 0 72 8v-59q-51 -8 -101 -8q-61 0 -95.5 12zM171 -40h94l-83 -150h-57z" />
    <glyph glyph-name="uni0237" unicode="&#x237;" horiz-adv-x="247" 
d="M-43 -219v56q4 -1 18 -1q41 0 62.5 6t31.5 24t10 54v564h90v-557q0 -60 -15 -91.5t-49 -43.5t-97 -12q-40 0 -51 1z" />
    <glyph glyph-name="uni02BC" unicode="&#x2bc;" horiz-adv-x="183" 
d="M36 679h97l-75 -140h-58z" />
    <glyph glyph-name="circumflex" unicode="&#x2c6;" horiz-adv-x="600" 
d="M168 680h107l66 -127h-58l-62 87l-63 -87h-58z" />
    <glyph glyph-name="caron" unicode="&#x2c7;" horiz-adv-x="441" 
d="M100 680h58l63 -87l62 87h58l-66 -127h-107z" />
    <glyph glyph-name="uni02C9" unicode="&#x2c9;" horiz-adv-x="418" 
d="M100 649h218v-59h-218v59z" />
    <glyph glyph-name="breve" unicode="&#x2d8;" horiz-adv-x="600" 
d="M133.5 587.5q-31.5 34.5 -33.5 92.5h54q6 -68 64 -68t64 68h54q-1 -57 -33 -92t-85 -35t-84.5 34.5z" />
    <glyph glyph-name="dotaccent" unicode="&#x2d9;" horiz-adv-x="290" 
d="M100 666h90v-98h-90v98z" />
    <glyph glyph-name="ring" unicode="&#x2da;" horiz-adv-x="467" 
d="M177 555.5q-19 2.5 -39 11.5t-29 29t-9 55v12q0 37 9 58.5t29 31.5q20 9 39 11.5t56 2.5q30 0 46.5 -1.5t34.5 -6.5q19 -6 29 -16.5t17 -30.5q7 -18 7 -49v-12q0 -35 -8.5 -55t-28.5 -29t-39.5 -11.5t-57.5 -2.5q-37 0 -56 2.5zM277.5 598q14.5 3 20.5 13.5t6 32.5v27
q0 24 -6 35.5t-20.5 15t-44.5 3.5t-44 -3.5t-20 -15t-6 -35.5v-27q0 -22 6 -32.5t20 -13.5t44 -3t44.5 3z" />
    <glyph glyph-name="ogonek" unicode="&#x2db;" horiz-adv-x="349" 
d="M124 -167q-24 19 -24 61q0 50 36 106h75q-32 -50 -32 -97q0 -33 39 -33q10 0 31 7v-53q-20 -10 -50 -10q-51 0 -75 19z" />
    <glyph glyph-name="tilde" unicode="&#x2dc;" horiz-adv-x="600" 
d="M91 576q7 27 28 47.5t54 20.5q23 0 62 -15q37 -15 54 -15q15 0 28 8t19 24l31 -18q-8 -28 -31 -50t-56 -22q-23 0 -65 17q-39 16 -51 16q-29 0 -42 -33z" />
    <glyph glyph-name="hungarumlaut" unicode="&#x2dd;" horiz-adv-x="473" 
d="M170 680h76l-70 -128h-76zM297 680h76l-70 -128h-76z" />
    <glyph glyph-name="gravecomb" unicode="&#x300;" horiz-adv-x="0" 
d="M-299 680h109l90 -127h-74z" />
    <glyph glyph-name="acutecomb" unicode="&#x301;" horiz-adv-x="0" 
d="M-209 680h109l-125 -127h-74z" />
    <glyph glyph-name="uni0302" unicode="&#x302;" horiz-adv-x="0" 
d="M-273 680h107l66 -127h-58l-62 87l-63 -87h-58z" />
    <glyph glyph-name="tildecomb" unicode="&#x303;" horiz-adv-x="0" 
d="M-364 576q7 27 28 47.5t54 20.5q23 0 62 -15q37 -15 54 -15q15 0 28 8t19 24l31 -18q-8 -28 -31 -50t-56 -22q-23 0 -65 17q-39 16 -51 16q-29 0 -42 -33z" />
    <glyph glyph-name="uni0304" unicode="&#x304;" horiz-adv-x="0" 
d="M-318 649h218v-59h-218v59z" />
    <glyph glyph-name="uni0306" unicode="&#x306;" horiz-adv-x="0" 
d="M-302.5 587.5q-31.5 34.5 -33.5 92.5h54q6 -68 64 -68t64 68h54q-1 -57 -33 -92t-85 -35t-84.5 34.5z" />
    <glyph glyph-name="uni0307" unicode="&#x307;" horiz-adv-x="0" 
d="M-140 666h90v-98h-90v98z" />
    <glyph glyph-name="uni0308" unicode="&#x308;" horiz-adv-x="0" 
d="M-360 659h90v-94h-90v94zM-190 659h90v-94h-90v94z" />
    <glyph glyph-name="hookabovecomb" unicode="&#x309;" horiz-adv-x="0" 
d="M-269 581q0 15 5 22t15 15q13 9 17 19t4 27q0 16 -10 21.5t-34 5.5q-14 0 -25.5 -3t-14.5 -4v55q10 4 19.5 5.5t27.5 1.5q49 0 72.5 -21.5t23.5 -57.5q0 -17 -5 -33.5t-14 -23.5q-14 -11 -20 -18t-6 -20h-55v9z" />
    <glyph glyph-name="uni030B" unicode="&#x30b;" horiz-adv-x="0" 
d="M-303 680h76l-70 -128h-76zM-176 680h76l-70 -128h-76z" />
    <glyph glyph-name="uni031B" unicode="&#x31b;" horiz-adv-x="0" 
d="M-239 484q45 0 63.5 5.5t25.5 23t7 59.5l83 -1q0 -61 -14 -93t-52.5 -45.5t-114.5 -13.5z" />
    <glyph glyph-name="dotbelowcomb" unicode="&#x323;" horiz-adv-x="0" 
d="M-175 -62h95v-89h-95v89z" />
    <glyph glyph-name="uni0326" unicode="&#x326;" horiz-adv-x="0" 
d="M-194 -40h94l-83 -150h-57z" />
    <glyph glyph-name="uni0335" unicode="&#x335;" horiz-adv-x="0" 
d="M-457 469h357v-68h-357v68z" />
    <glyph glyph-name="uni0344" unicode="&#x344;" horiz-adv-x="0" 
d="M-32 692h119l-55 -127h-74zM-164 659h90v-94h-90v94zM105 659h90v-94h-90v94z" />
    <glyph glyph-name="uni0374" unicode="&#x374;" horiz-adv-x="276" 
d="M97 680h119l-102 -177h-74z" />
    <glyph glyph-name="uni0375" unicode="&#x375;" horiz-adv-x="276" 
d="M179 -157h-119l102 177h74z" />
    <glyph glyph-name="uni037E" unicode="&#x37e;" horiz-adv-x="256" 
d="M70 484h116v-108h-116v108zM85 108h106l-94 -220h-58z" />
    <glyph glyph-name="tonos" unicode="&#x384;" horiz-adv-x="356" 
d="M137 680h119l-82 -127h-74z" />
    <glyph glyph-name="dieresistonos" unicode="&#x385;" horiz-adv-x="559" 
d="M232 692h119l-55 -127h-74zM100 659h90v-94h-90v94zM369 659h90v-94h-90v94z" />
    <glyph glyph-name="Alphatonos" unicode="&#x386;" horiz-adv-x="652" 
d="M273 649h112l252 -649h-101l-74 197h-278l-73 -197h-96zM438 264l-110 293h-9l-110 -293h229zM88 649h119l-82 -127h-74z" />
    <glyph glyph-name="anoteleia" unicode="&#x387;" horiz-adv-x="256" 
d="M70 484h116v-108h-116v108z" />
    <glyph glyph-name="Epsilontonos" unicode="&#x388;" 
d="M84 649h436v-68h-339v-212h306v-68h-306v-233h349v-68h-446v649zM-119 649h119l-82 -127h-74z" />
    <glyph glyph-name="Etatonos" unicode="&#x389;" horiz-adv-x="707" 
d="M84 649h97v-280h345v280h97v-649h-97v301h-345v-301h-97v649zM-119 649h119l-82 -127h-74z" />
    <glyph glyph-name="Iotatonos" unicode="&#x38a;" horiz-adv-x="265" 
d="M84 649h97v-649h-97v649zM-119 649h119l-82 -127h-74z" />
    <glyph glyph-name="Omicrontonos" unicode="&#x38c;" horiz-adv-x="679" 
d="M66 166v307q0 186 272 186q275 0 275 -185v-308q0 -94 -76 -135t-199 -41q-272 0 -272 176zM519 167v309q0 120 -180 120q-87 0 -133.5 -27t-46.5 -93v-309q0 -112 181 -112q179 0 179 112zM-69 649h119l-82 -127h-74z" />
    <glyph glyph-name="Upsilontonos" unicode="&#x38e;" horiz-adv-x="584" 
d="M243 262l-235 387h111l173 -305l173 305h111l-236 -384v-265h-97v262zM-144 649h119l-82 -127h-74z" />
    <glyph glyph-name="Omegatonos" unicode="&#x38f;" horiz-adv-x="679" 
d="M66 68h98q-46 23 -72 68.5t-26 99.5v238q0 185 276 185q137 0 204 -47.5t67 -137.5v-238q0 -54 -26 -99.5t-73 -68.5h99v-68h-229v74q65 20 100 65.5t35 107.5v229q0 120 -177 120q-98 0 -140.5 -29.5t-42.5 -90.5v-229q0 -62 35 -107.5t100 -65.5v-74h-228v68zM-69 649
h119l-82 -127h-74z" />
    <glyph glyph-name="iotadieresistonos" unicode="&#x390;" horiz-adv-x="362" 
d="M144 3.5q-35 13.5 -50.5 46t-15.5 91.5v343h91v-348q0 -36 8.5 -54t30 -25.5t62.5 -7.5q13 0 72 8v-59q-51 -8 -101 -8q-62 0 -97 13.5zM97 692h119l-55 -127h-74zM-35 659h90v-94h-90v94zM234 659h90v-94h-90v94z" />
    <glyph glyph-name="Alpha" unicode="&#x391;" horiz-adv-x="652" 
d="M273 649h112l252 -649h-101l-74 197h-278l-73 -197h-96zM438 264l-110 293h-9l-110 -293h229z" />
    <glyph glyph-name="Beta" unicode="&#x392;" horiz-adv-x="613" 
d="M84 649h232q83 0 132 -17q45 -16 60.5 -40t15.5 -66v-87q0 -39 -22 -60.5t-67 -31.5v-4q53 -9 85.5 -36.5t32.5 -68.5v-109q0 -71 -53 -100t-177 -29h-239v649zM319 365q61 0 87.5 18.5t26.5 58.5v76q0 37 -27 52t-90 15h-135v-220h138zM323 67q73 0 103 15t30 51v98
q0 26 -10.5 41.5t-32.5 22.5q-22 6 -39 7.5t-51 1.5h-142v-237h142z" />
    <glyph glyph-name="Gamma" unicode="&#x393;" horiz-adv-x="540" 
d="M84 649h426v-68h-329v-581h-97v649z" />
    <glyph glyph-name="uni0394" unicode="&#x394;" horiz-adv-x="653" 
d="M25 50l248 599h112l243 -599v-50h-603v50zM521 67l-193 490h-9l-190 -490h392z" />
    <glyph glyph-name="Epsilon" unicode="&#x395;" 
d="M84 649h436v-68h-339v-212h306v-68h-306v-233h349v-68h-446v649z" />
    <glyph glyph-name="Zeta" unicode="&#x396;" 
d="M40 68l382 513h-372v68h484v-68l-382 -513h388v-68h-500v68z" />
    <glyph glyph-name="Eta" unicode="&#x397;" horiz-adv-x="707" 
d="M84 649h97v-280h345v280h97v-649h-97v301h-345v-301h-97v649z" />
    <glyph glyph-name="Theta" unicode="&#x398;" horiz-adv-x="679" 
d="M66 166v307q0 186 272 186q275 0 275 -185v-308q0 -94 -76 -135t-199 -41q-272 0 -272 176zM519 167v309q0 120 -180 120q-87 0 -133.5 -27t-46.5 -93v-309q0 -112 181 -112q179 0 179 112zM214 362h249v-68h-249v68z" />
    <glyph glyph-name="Iota" unicode="&#x399;" horiz-adv-x="265" 
d="M84 649h97v-649h-97v649z" />
    <glyph glyph-name="Kappa" unicode="&#x39a;" horiz-adv-x="609" 
d="M84 649h97v-649h-97v649zM183 345l290 304h117l-292 -300l321 -349h-126z" />
    <glyph glyph-name="Lambda" unicode="&#x39b;" horiz-adv-x="632" 
d="M263 649h112l242 -649h-101l-198 557h-9l-198 -557h-96z" />
    <glyph glyph-name="Mu" unicode="&#x39c;" horiz-adv-x="861" 
d="M84 649h145l208 -540l3 -1l197 541h140v-649h-85v549h-5l-209 -549h-87l-215 549h-5v-549h-87v649z" />
    <glyph glyph-name="Nu" unicode="&#x39d;" horiz-adv-x="723" 
d="M84 649h117l353 -536v536h85v-649h-117l-353 545v-545h-85v649z" />
    <glyph glyph-name="Xi" unicode="&#x39e;" horiz-adv-x="650" 
d="M60 649h530v-76h-530v76zM113 373h423v-76h-423v76zM50 76h550v-76h-550v76z" />
    <glyph glyph-name="Omicron" unicode="&#x39f;" horiz-adv-x="679" 
d="M66 166v307q0 186 272 186q275 0 275 -185v-308q0 -94 -76 -135t-199 -41q-272 0 -272 176zM519 167v309q0 120 -180 120q-87 0 -133.5 -27t-46.5 -93v-309q0 -112 181 -112q179 0 179 112z" />
    <glyph glyph-name="Pi" unicode="&#x3a0;" horiz-adv-x="687" 
d="M84 649h519v-649h-97v581h-325v-581h-97v649z" />
    <glyph glyph-name="Rho" unicode="&#x3a1;" horiz-adv-x="570" 
d="M84 649h212q45 0 72.5 -2t58.5 -9q32 -7 51.5 -21t33.5 -38q13 -23 13 -58v-135q0 -81 -62.5 -116.5t-184.5 -35.5h-97v-234h-97v649zM291 295q63 0 101 23t38 73v118q0 27 -14 44.5t-40 24.5q-25 6 -42 8t-45 2h-109v-293h111z" />
    <glyph glyph-name="Sigma" unicode="&#x3a3;" 
d="M40 68l191 256l-191 257v68h500v-68h-383l181 -243v-14l-191 -256h393v-68h-500v68z" />
    <glyph glyph-name="Tau" unicode="&#x3a4;" horiz-adv-x="585" 
d="M244 581h-220v68h537v-68h-219v-581h-98v581z" />
    <glyph glyph-name="Upsilon" unicode="&#x3a5;" horiz-adv-x="584" 
d="M243 262l-235 387h111l173 -305l173 305h111l-236 -384v-265h-97v262z" />
    <glyph glyph-name="Phi" unicode="&#x3a6;" horiz-adv-x="739" 
d="M322 57q-134 0 -205 53t-71 143v177q0 95 71 150.5t205 55.5v63h97v-63q134 0 204.5 -55.5t69.5 -150.5l-2 -177q3 -90 -67 -143t-205 -53v-77h-97v77zM322 573q-84 0 -133.5 -36t-49.5 -104v-179q0 -59 47.5 -95.5t135.5 -36.5v451zM554.5 158.5q47.5 36.5 47.5 95.5
l-1 179q-1 69 -50 104.5t-132 35.5v-451q88 0 135.5 36.5z" />
    <glyph glyph-name="Chi" unicode="&#x3a7;" horiz-adv-x="604" 
d="M247 331l-229 318h111l173 -251l173 251h111l-229 -318l239 -331h-111l-183 264l-183 -264h-111z" />
    <glyph glyph-name="Psi" unicode="&#x3a8;" horiz-adv-x="794" 
d="M348 172q-122 5 -193 55t-71 129v293h93v-292q0 -52 40.5 -85t130.5 -35v412h97v-412q89 1 130 34t41 86v292h93v-293q0 -82 -65.5 -131t-198.5 -53v-172h-97v172z" />
    <glyph glyph-name="uni03A9" unicode="&#x3a9;" horiz-adv-x="679" 
d="M66 68h98q-46 23 -72 68.5t-26 99.5v238q0 185 276 185q137 0 204 -47.5t67 -137.5v-238q0 -54 -26 -99.5t-73 -68.5h99v-68h-229v74q65 20 100 65.5t35 107.5v229q0 120 -177 120q-98 0 -140.5 -29.5t-42.5 -90.5v-229q0 -62 35 -107.5t100 -65.5v-74h-228v68z" />
    <glyph glyph-name="Iotadieresis" unicode="&#x3aa;" horiz-adv-x="265" 
d="M84 649h97v-649h-97v649zM3 849h90v-94h-90v94zM173 849h90v-94h-90v94z" />
    <glyph glyph-name="Upsilondieresis" unicode="&#x3ab;" horiz-adv-x="584" 
d="M243 262l-235 387h111l173 -305l173 305h111l-236 -384v-265h-97v262zM162 849h90v-94h-90v94zM332 849h90v-94h-90v94z" />
    <glyph glyph-name="alphatonos" unicode="&#x3ac;" horiz-adv-x="614" 
d="M139.5 5.5q-43.5 15.5 -61.5 54t-18 112.5v165q0 57 17 90.5t61.5 50t126.5 16.5q55 0 100 -16t48 -46v52h88v-353q0 -35 4.5 -52.5t17.5 -24.5t39 -7h7v-53q-13 -1 -42 -1q-46 0 -71.5 11.5t-36.5 46.5q-9 -38 -47 -49.5t-107 -11.5q-82 0 -125.5 15.5zM354 57
q27 5 42 25.5t15 65.5v190q0 41 -14 60.5t-40.5 25t-78.5 5.5q-58 0 -83 -6.5t-34 -27t-9 -66.5v-132q0 -65 4 -90t29 -40t85 -15q57 0 84 5zM267 680h119l-82 -127h-74z" />
    <glyph glyph-name="epsilontonos" unicode="&#x3ad;" horiz-adv-x="459" 
d="M89 22.5q-54 32.5 -54 111.5v3q0 52 22 81.5t73 38.5q-42 13 -59 35.5t-17 62.5v19q0 68 49 94t139 26q60 0 89.5 -3.5t63.5 -11.5v-66q-10 2 -34.5 8.5t-49.5 9t-62 2.5q-53 0 -77 -15t-24 -52v-16q0 -26 12 -39.5t39.5 -19t78.5 -5.5h54v-62h-71q-61 0 -95 -13.5
t-34 -54.5v-29q0 -42 33.5 -58t101.5 -16q57 0 136 19v-68l-27 -4q-42 -6 -62.5 -8t-61.5 -2q-109 0 -163 32.5zM240 680h119l-82 -127h-74z" />
    <glyph glyph-name="etatonos" unicode="&#x3ae;" horiz-adv-x="573" 
d="M78 484h90v-59q14 69 159 69q93 0 130.5 -33.5t37.5 -105.5v-563h-90v558q0 46 -24 63t-80 17q-53 0 -81.5 -7.5t-40 -24.5t-11.5 -48v-350h-90v484zM265 680h119l-82 -127h-74z" />
    <glyph glyph-name="iotatonos" unicode="&#x3af;" horiz-adv-x="362" 
d="M144 3.5q-35 13.5 -50.5 46t-15.5 91.5v343h91v-348q0 -36 8.5 -54t30 -25.5t62.5 -7.5q13 0 72 8v-59q-51 -8 -101 -8q-62 0 -97 13.5zM126 680h119l-82 -127h-74z" />
    <glyph glyph-name="upsilondieresistonos" unicode="&#x3b0;" horiz-adv-x="564" 
d="M124 27.5q-46 37.5 -46 111.5v345h90v-350q0 -44 29 -62t85 -18t85 18t29 62v350h90v-345q0 -74 -46 -111.5t-158 -37.5t-158 37.5zM260 692h119l-55 -127h-74zM128 659h90v-94h-90v94zM397 659h90v-94h-90v94z" />
    <glyph glyph-name="alpha" unicode="&#x3b1;" horiz-adv-x="614" 
d="M139.5 5.5q-43.5 15.5 -61.5 54t-18 112.5v165q0 57 17 90.5t61.5 50t126.5 16.5q55 0 100 -16t48 -46v52h88v-353q0 -35 4.5 -52.5t17.5 -24.5t39 -7h7v-53q-13 -1 -42 -1q-46 0 -71.5 11.5t-36.5 46.5q-9 -38 -47 -49.5t-107 -11.5q-82 0 -125.5 15.5zM354 57
q27 5 42 25.5t15 65.5v190q0 41 -14 60.5t-40.5 25t-78.5 5.5q-58 0 -83 -6.5t-34 -27t-9 -66.5v-132q0 -65 4 -90t29 -40t85 -15q57 0 84 5z" />
    <glyph glyph-name="beta" unicode="&#x3b2;" horiz-adv-x="589" 
d="M78 520q0 75 17 115t62.5 57.5t134.5 17.5q104 0 156 -26.5t52 -96.5v-105q0 -41 -17 -62t-60 -31v-4q52 -9 79 -35.5t27 -69.5v-121q0 -98 -54 -133.5t-158 -35.5q-53 0 -93 7.5t-56 32.5v-238h-90v728zM380.5 57q27.5 6 42 25t14.5 57v134q0 44 -28.5 58.5t-91.5 14.5
h-65v64h61q53 0 77 18t24 60v70q0 41 -11.5 60.5t-36.5 26t-74 6.5q-54 0 -79 -8.5t-33.5 -30t-9.5 -67.5l-3 -401q0 -42 14.5 -61.5t42.5 -25.5t80 -6q49 0 76.5 6z" />
    <glyph glyph-name="gamma" unicode="&#x3b3;" horiz-adv-x="463" 
d="M281 7v-185h-90v182l-185 480h95l135 -373l134 373h87z" />
    <glyph glyph-name="delta" unicode="&#x3b4;" horiz-adv-x="558" 
d="M152 2q-46 12 -69 46.5t-23 101.5v135q0 79 33 113.5t106 43.5q-102 31 -102 122v18q0 71 49.5 99.5t153.5 28.5q103 0 160 -8v-65q-89 14 -161 14q-64 0 -93.5 -13.5t-29.5 -55.5v-17q0 -33 22.5 -53t86.5 -34l83 -18q57 -12 84.5 -37.5t35.5 -59.5t8 -89v-118
q0 -69 -21.5 -104.5t-67 -48.5t-129.5 -13q-80 0 -126 12zM354.5 54.5q25.5 5.5 37.5 24t12 58.5v159q0 44 -10.5 64t-36.5 27t-79 7q-54 0 -79.5 -6.5t-36 -27t-10.5 -64.5v-159q0 -39 12.5 -58t38 -24.5t75.5 -5.5q51 0 76.5 5.5z" />
    <glyph glyph-name="epsilon" unicode="&#x3b5;" horiz-adv-x="459" 
d="M89 22.5q-54 32.5 -54 111.5v3q0 52 22 81.5t73 38.5q-42 13 -59 35.5t-17 62.5v19q0 68 49 94t139 26q60 0 89.5 -3.5t63.5 -11.5v-66q-10 2 -34.5 8.5t-49.5 9t-62 2.5q-53 0 -77 -15t-24 -52v-16q0 -26 12 -39.5t39.5 -19t78.5 -5.5h54v-62h-71q-61 0 -95 -13.5
t-34 -54.5v-29q0 -42 33.5 -58t101.5 -16q57 0 136 19v-68l-27 -4q-42 -6 -62.5 -8t-61.5 -2q-109 0 -163 32.5z" />
    <glyph glyph-name="zeta" unicode="&#x3b6;" horiz-adv-x="495" 
d="M368 -182q15 49 15 81q0 27 -13 39.5t-43 12.5h-56q-107 0 -158.5 37t-52.5 117v116q0 76 12.5 124.5t39 84t76.5 77.5l153 127h-277v65h384v-75l-178 -146q-52 -43 -77 -77t-33 -73t-8 -107v-109q0 -56 35 -76t104 -20h40q70 0 99 -20t29 -75q0 -24 -7.5 -55t-16.5 -49z
" />
    <glyph glyph-name="eta" unicode="&#x3b7;" horiz-adv-x="573" 
d="M78 484h90v-59q14 69 159 69q93 0 130.5 -33.5t37.5 -105.5v-563h-90v558q0 46 -24 63t-80 17q-53 0 -81.5 -7.5t-40 -24.5t-11.5 -48v-350h-90v484z" />
    <glyph glyph-name="theta" unicode="&#x3b8;" horiz-adv-x="588" 
d="M425.5 696.5q45.5 -13.5 68 -54.5t22.5 -125v-344q0 -80 -23.5 -119t-69.5 -51.5t-130 -12.5q-87 0 -133.5 13.5t-68 52.5t-21.5 117v344q0 83 23.5 124.5t70 55t129.5 13.5q87 0 132.5 -13.5zM210.5 643.5q-26.5 -7.5 -37.5 -32t-11 -79.5v-143h262v143q0 55 -11 79.5
t-37.5 32t-82.5 7.5t-82.5 -7.5zM374.5 56q26.5 7 38 30t11.5 74v170h-262v-170q0 -51 12 -74t38.5 -30t80.5 -7q55 0 81.5 7z" />
    <glyph glyph-name="iota" unicode="&#x3b9;" horiz-adv-x="362" 
d="M144 3.5q-35 13.5 -50.5 46t-15.5 91.5v343h91v-348q0 -36 8.5 -54t30 -25.5t62.5 -7.5q13 0 72 8v-59q-51 -8 -101 -8q-62 0 -97 13.5z" />
    <glyph glyph-name="kappa" unicode="&#x3ba;" horiz-adv-x="514" 
d="M78 484h90v-484h-90v484zM179 265l204 219h110l-210 -219l229 -265h-112z" />
    <glyph glyph-name="lambda" unicode="&#x3bb;" horiz-adv-x="488" 
d="M406 0l-155 385l-147 -385h-94l201 485l-55 137q-10 20 -23 27t-40 7h-7v53q13 1 42 1q44 0 68 -11.5t37 -46.5l260 -652h-87z" />
    <glyph glyph-name="uni03BC" unicode="&#x3bc;" horiz-adv-x="608" 
d="M78 484h90v-350q0 -45 27.5 -62.5t92.5 -17.5q58 0 87.5 13t29.5 52v365h90v-353q0 -35 4.5 -52.5t17.5 -24.5t39 -7h7v-53q-13 -1 -42 -1q-46 0 -71.5 11.5t-36.5 46.5q-12 -27 -46 -44t-89 -17q-78 0 -110 21v-219h-90v692z" />
    <glyph glyph-name="nu" unicode="&#x3bd;" horiz-adv-x="463" 
d="M6 484h95l134 -406h5l130 406h87l-169 -484h-108z" />
    <glyph glyph-name="xi" unicode="&#x3be;" horiz-adv-x="505" 
d="M393 -101q0 27 -13 39.5t-43 12.5h-66q-89 0 -150 31t-61 123v128q0 52 21.5 80t68.5 38v3q-32 9 -51 34t-19 57v150q0 114 216 114q51 0 121 -6l26 -2v-70q-89 14 -151 14q-59 0 -92.5 -12t-33.5 -44v-143q0 -30 21.5 -46.5t62.5 -16.5h158v-65h-167q-47 0 -68 -14
t-21 -46v-146q0 -56 35 -76t104 -20h50q70 0 99 -20t29 -75q0 -24 -7.5 -55t-16.5 -49l-67 1q15 49 15 81z" />
    <glyph glyph-name="omicron" unicode="&#x3bf;" horiz-adv-x="568" 
d="M187 -5.5q-32 4.5 -64 19.5q-33 15 -48 48.5t-15 90.5v168q0 45 11 79t29 53q15 17 45.5 26.5t62.5 12.5q36 2 75 2q52 0 78.5 -2.5t56.5 -10.5q31 -9 48 -27t29 -52q11 -35 11 -81v-168q0 -85 -39 -124q-16 -16 -46 -25t-62 -12q-38 -2 -76 -2q-64 0 -96 4.5zM344 51
q19 2 37 11q18 8 25.5 26.5t7.5 51.5v196q0 45 -11 65.5t-37.5 27t-82.5 6.5t-82.5 -6.5t-37.5 -27t-11 -65.5v-196q0 -33 7.5 -51.5t25.5 -26.5q18 -9 37 -11t61 -2t61 2z" />
    <glyph glyph-name="pi" unicode="&#x3c0;" horiz-adv-x="626" 
d="M460.5 4.5q-28.5 11.5 -41.5 42.5t-13 90v283h-193v-420h-90v420h-98v64h571v-64h-100v-289q0 -50 17.5 -67t64.5 -17h7v-53q-8 -1 -43 -1q-53 0 -81.5 11.5z" />
    <glyph glyph-name="rho" unicode="&#x3c1;" horiz-adv-x="576" 
d="M68 287q0 88 17.5 131t63.5 59.5t142 16.5q91 0 137.5 -15.5t66 -55.5t19.5 -119v-130q0 -79 -19 -117.5t-65.5 -52.5t-138.5 -14q-48 0 -86 10.5t-47 30.5v-239h-90v495zM371 54.5q26 5.5 38.5 24t12.5 56.5v190q0 51 -9 73t-36.5 29.5t-91.5 7.5q-56 0 -81.5 -8.5
t-34.5 -31t-9 -70.5v-180q0 -42 9.5 -61.5t37.5 -27t88 -7.5q50 0 76 5.5z" />
    <glyph glyph-name="uni03C2" unicode="&#x3c2;" horiz-adv-x="475" 
d="M348 -182q15 49 15 81q0 27 -13 39.5t-43 12.5h-36q-88 0 -148.5 30t-62.5 119v226q0 71 23.5 107.5t70 48.5t129.5 12q69 0 138 -15v-66q-80 20 -149 20q-52 0 -76.5 -7.5t-34 -27t-9.5 -59.5v-227q0 -56 35 -76t104 -20h20q70 0 99 -20t29 -75q0 -24 -7.5 -55
t-16.5 -49z" />
    <glyph glyph-name="sigma" unicode="&#x3c3;" horiz-adv-x="618" 
d="M150 2.5q-47 12.5 -68.5 47.5t-21.5 103v158q0 74 23.5 111t70 49.5t129.5 12.5h305v-64h-115q20 -15 26.5 -41t6.5 -68v-158q0 -71 -24 -106t-70.5 -46t-128.5 -11q-86 0 -133 12.5zM364.5 55q26.5 6 38 25t11.5 60v181q0 45 -11 65.5t-37.5 27t-82.5 6.5t-82.5 -6.5
t-37.5 -27t-11 -65.5v-181q0 -41 12 -60t38.5 -25t80.5 -6q55 0 81.5 6z" />
    <glyph glyph-name="tau" unicode="&#x3c4;" horiz-adv-x="467" 
d="M232 3.5q-35 13.5 -50.5 46t-15.5 91.5v279h-151v64h432v-64h-190v-284q0 -36 8.5 -54t30 -25.5t62.5 -7.5q7 0 47 5l20 3v-59q-51 -8 -96 -8q-62 0 -97 13.5z" />
    <glyph glyph-name="upsilon" unicode="&#x3c5;" horiz-adv-x="564" 
d="M124 27.5q-46 37.5 -46 111.5v345h90v-350q0 -44 29 -62t85 -18t85 18t29 62v350h90v-345q0 -74 -46 -111.5t-158 -37.5t-158 37.5z" />
    <glyph glyph-name="phi" unicode="&#x3c6;" horiz-adv-x="718" 
d="M313 -10q-98 0 -151.5 15t-77.5 52t-24 106v148q0 74 24.5 113.5t78.5 54.5t150 15v140h90v-140q96 0 150 -15t78.5 -54.5t24.5 -113.5v-148q0 -69 -24 -106t-77.5 -52t-151.5 -15v-198h-90v198zM313 435q-69 0 -102.5 -9t-46 -31.5t-12.5 -68.5v-176q0 -41 13.5 -62.5
t47 -30t100.5 -8.5v386zM503.5 57.5q33.5 8.5 47 30t13.5 62.5v176q0 46 -12.5 68.5t-46 31.5t-102.5 9v-386q67 0 100.5 8.5z" />
    <glyph glyph-name="chi" unicode="&#x3c7;" horiz-adv-x="485" 
d="M383 -208l-141 271l-136 -271h-91l184 352l-189 340h93l140 -266l134 266h91l-181 -347l193 -345h-97z" />
    <glyph glyph-name="psi" unicode="&#x3c8;" horiz-adv-x="716" 
d="M638 485v-325q0 -78 -51 -123t-177 -46h-6v-198h-90v197h-8q-126 1 -177 46t-51 123v325h90v-330q0 -47 36 -73.5t110 -26.5v560h90v-559q73 1 108.5 27t35.5 73v330h90z" />
    <glyph glyph-name="omega" unicode="&#x3c9;" horiz-adv-x="822" 
d="M135.5 8q-39.5 18 -57.5 69.5t-18 154.5q0 76 13.5 145.5t40.5 106.5h89q-23 -35 -37 -99t-14 -153q0 -83 6 -118.5t28.5 -50t74.5 -14.5q43 0 65 14.5t30.5 48t8.5 96.5v180h90v-180q0 -63 8.5 -96.5t30.5 -48t65 -14.5q52 0 74.5 14.5t28.5 50t6 118.5q0 89 -14 153
t-37 99h89q27 -37 40.5 -106.5t13.5 -145.5q0 -103 -18 -154.5t-57.5 -69.5t-114.5 -18q-64 0 -101.5 20t-58.5 72q-21 -52 -58.5 -72t-101.5 -20q-75 0 -114.5 18z" />
    <glyph glyph-name="iotadieresis" unicode="&#x3ca;" horiz-adv-x="362" 
d="M144 3.5q-35 13.5 -50.5 46t-15.5 91.5v343h91v-348q0 -36 8.5 -54t30 -25.5t62.5 -7.5q13 0 72 8v-59q-51 -8 -101 -8q-62 0 -97 13.5zM-1 659h90v-94h-90v94zM169 659h90v-94h-90v94z" />
    <glyph glyph-name="upsilondieresis" unicode="&#x3cb;" horiz-adv-x="564" 
d="M124 27.5q-46 37.5 -46 111.5v345h90v-350q0 -44 29 -62t85 -18t85 18t29 62v350h90v-345q0 -74 -46 -111.5t-158 -37.5t-158 37.5zM162 659h90v-94h-90v94zM332 659h90v-94h-90v94z" />
    <glyph glyph-name="omicrontonos" unicode="&#x3cc;" horiz-adv-x="568" 
d="M187 -5.5q-32 4.5 -64 19.5q-33 15 -48 48.5t-15 90.5v168q0 45 11 79t29 53q15 17 45.5 26.5t62.5 12.5q36 2 75 2q52 0 78.5 -2.5t56.5 -10.5q31 -9 48 -27t29 -52q11 -35 11 -81v-168q0 -85 -39 -124q-16 -16 -46 -25t-62 -12q-38 -2 -76 -2q-64 0 -96 4.5zM344 51
q19 2 37 11q18 8 25.5 26.5t7.5 51.5v196q0 45 -11 65.5t-37.5 27t-82.5 6.5t-82.5 -6.5t-37.5 -27t-11 -65.5v-196q0 -33 7.5 -51.5t25.5 -26.5q18 -9 37 -11t61 -2t61 2zM285 680h119l-82 -127h-74z" />
    <glyph glyph-name="upsilontonos" unicode="&#x3cd;" horiz-adv-x="564" 
d="M124 27.5q-46 37.5 -46 111.5v345h90v-350q0 -44 29 -62t85 -18t85 18t29 62v350h90v-345q0 -74 -46 -111.5t-158 -37.5t-158 37.5zM289 680h119l-82 -127h-74z" />
    <glyph glyph-name="omegatonos" unicode="&#x3ce;" horiz-adv-x="822" 
d="M135.5 8q-39.5 18 -57.5 69.5t-18 154.5q0 76 13.5 145.5t40.5 106.5h89q-23 -35 -37 -99t-14 -153q0 -83 6 -118.5t28.5 -50t74.5 -14.5q43 0 65 14.5t30.5 48t8.5 96.5v180h90v-180q0 -63 8.5 -96.5t30.5 -48t65 -14.5q52 0 74.5 14.5t28.5 50t6 118.5q0 89 -14 153
t-37 99h89q27 -37 40.5 -106.5t13.5 -145.5q0 -103 -18 -154.5t-57.5 -69.5t-114.5 -18q-64 0 -101.5 20t-58.5 72q-21 -52 -58.5 -72t-101.5 -20q-75 0 -114.5 18zM412 680h119l-82 -127h-74z" />
    <glyph glyph-name="uni03CF" unicode="&#x3cf;" horiz-adv-x="609" 
d="M84 649h97v-649h-97v649zM473 649h117l-292 -300l321 -349l-194 -208h-142l210 208l-310 345z" />
    <glyph glyph-name="uni03D7" unicode="&#x3d7;" horiz-adv-x="514" 
d="M78 484h90v-484h-90v484zM383 484h110l-210 -219l229 -265l-194 -208h-120l210 208l-229 265z" />
    <glyph glyph-name="uni0400" unicode="&#x400;" 
d="M84 649h436v-68h-339v-212h306v-68h-306v-233h349v-68h-446v649zM146 839h109l90 -127h-74z" />
    <glyph glyph-name="uni0401" unicode="&#x401;" 
d="M84 649h436v-68h-339v-212h306v-68h-306v-233h349v-68h-446v649zM180 849h90v-94h-90v94zM350 849h90v-94h-90v94z" />
    <glyph glyph-name="uni0402" unicode="&#x402;" horiz-adv-x="691" 
d="M353 0v66q44 -11 76 -11q64 0 95 41t31 126q0 84 -29.5 117t-96.5 33q-75 0 -138 -40v-332h-97v581h-170v68h527v-68h-260v-181q78 40 170 40q101 0 145.5 -51t44.5 -157q0 -241 -209 -241q-35 0 -89 9z" />
    <glyph glyph-name="uni0403" unicode="&#x403;" horiz-adv-x="510" 
d="M84 649h396v-68h-299v-581h-97v649zM333 842h109l-125 -127h-74z" />
    <glyph glyph-name="uni0404" unicode="&#x404;" horiz-adv-x="564" 
d="M64 166v308q0 186 273 186q93 0 178 -19v-72q-96 24 -176 24q-39 0 -68 -4.5t-56 -15.5q-58 -25 -58 -98v-107h330v-67h-330v-130q0 -112 186 -112q80 0 176 24v-74q-85 -19 -182 -19q-273 0 -273 176z" />
    <glyph glyph-name="uni0405" unicode="&#x405;" horiz-adv-x="569" 
d="M73 6v81q113 -25 193 -25q83 0 118 16t35 62v84q0 42 -24 59t-84 17h-76q-95 0 -135 38t-40 118v52q0 53 24 86t80 49t153 16q63 0 165 -11v-73q-114 17 -170 17q-95 0 -127 -18q-31 -18 -31 -63v-74q0 -34 24.5 -49.5t84.5 -15.5h78q67 0 104.5 -16t53 -48.5t15.5 -87.5
v-47q0 -70 -26 -110t-80 -56.5t-144 -16.5q-76 0 -191 16z" />
    <glyph glyph-name="uni0406" unicode="&#x406;" horiz-adv-x="265" 
d="M84 649h97v-649h-97v649z" />
    <glyph glyph-name="uni0407" unicode="&#x407;" horiz-adv-x="265" 
d="M84 649h97v-649h-97v649zM3 849h90v-94h-90v94zM173 849h90v-94h-90v94z" />
    <glyph glyph-name="uni0408" unicode="&#x408;" horiz-adv-x="403" 
d="M20 1v65l107 -11q40 0 59.5 6t27.5 23.5t8 54.5v510h97v-506q0 -61 -17.5 -93t-55.5 -43.5t-107 -11.5q-17 0 -119 6z" />
    <glyph glyph-name="uni0409" unicode="&#x409;" horiz-adv-x="926" 
d="M18 1v97q15 -3 29 -3q39 0 65 35t39.5 123t13.5 244v152h390v-1l1 1v-240h77q81 0 132.5 -8.5t83 -37.5t31.5 -86v-136q0 -141 -229 -141h-192v581h-209v-120q0 -218 -46 -340.5t-142 -122.5q-23 0 -44 3zM644 66q70 0 105.5 17t35.5 62v121q0 32 -13 48t-42.5 22.5
t-83.5 6.5h-91v-277h89z" />
    <glyph glyph-name="uni040A" unicode="&#x40a;" horiz-adv-x="1012" 
d="M852.5 400.5q51.5 -8.5 83 -37.5t31.5 -86v-136q0 -141 -229 -141h-212v301h-345v-301h-97v649h97v-280h345v280h97v-240h97q81 0 132.5 -8.5zM872 266q0 32 -13 48t-42.5 22.5t-83.5 6.5h-110v-277h108q70 0 105.5 17t35.5 62v121z" />
    <glyph glyph-name="uni040B" unicode="&#x40b;" horiz-adv-x="730" 
d="M616.5 399.5q44.5 -40.5 44.5 -122.5v-277h-96v269q0 56 -28.5 79.5t-88.5 23.5q-47 0 -81.5 -10t-65.5 -30v-332h-97v581h-180v68h527v-68h-250v-181q78 40 170 40q101 0 145.5 -40.5z" />
    <glyph glyph-name="uni040C" unicode="&#x40c;" horiz-adv-x="606" 
d="M420 293q40 -33 70 -90l106 -203h-97l-95 176q-28 51 -57 77.5t-67.5 37t-97.5 10.5v-301h-98v649h98v-280q60 0 93 11.5t60 50.5l155 218h106l-185 -243q-37 -48 -85 -66q54 -14 94 -47zM353 842h109l-125 -127h-74z" />
    <glyph glyph-name="uni040D" unicode="&#x40d;" horiz-adv-x="723" 
d="M85 649h89v-526l367 526h89v-649h-89v535l-367 -535h-89v649zM188 839h109l90 -127h-74z" />
    <glyph glyph-name="uni040E" unicode="&#x40e;" horiz-adv-x="544" 
d="M574 649l-250 -534q-21 -45 -39 -71t-43 -40t-62 -14q-40 0 -84 10v70q29 -7 61 -7q33 0 52 19.5t40 64.5l11 25l-260 477h108l196 -381l174 381h96zM180 752.5q-42 34.5 -45 92.5h74q9 -78 84 -78t84 78h74q-2 -57 -44 -92t-114 -35q-71 0 -113 34.5z" />
    <glyph glyph-name="uni040F" unicode="&#x40f;" horiz-adv-x="687" 
d="M302 0h-218v649h97v-582h325v582h97v-649h-210v-166h-91v166z" />
    <glyph glyph-name="uni0410" unicode="&#x410;" horiz-adv-x="652" 
d="M273 649h112l252 -649h-101l-74 197h-278l-73 -197h-96zM438 264l-110 293h-9l-110 -293h229z" />
    <glyph glyph-name="uni0411" unicode="&#x411;" horiz-adv-x="570" 
d="M84 649h397v-69h-300v-211h97q52 0 85 -2.5t65 -10.5q33 -8 53 -22t32 -38q12 -25 12 -59v-96q0 -141 -229 -141h-212v649zM289 66q28 0 45 2t42 8q26 7 40 24.5t14 44.5v81q0 42 -32 59.5t-107 17.5h-111v-237h109z" />
    <glyph glyph-name="uni0412" unicode="&#x412;" horiz-adv-x="613" 
d="M84 649h232q83 0 132 -17q45 -16 60.5 -40t15.5 -66v-87q0 -39 -22 -60.5t-67 -31.5v-4q53 -9 85.5 -36.5t32.5 -68.5v-109q0 -71 -53 -100t-177 -29h-239v649zM319 365q61 0 87.5 18.5t26.5 58.5v76q0 37 -27 52t-90 15h-135v-220h138zM323 67q73 0 103 15t30 51v98
q0 26 -10.5 41.5t-32.5 22.5q-22 6 -39 7.5t-51 1.5h-142v-237h142z" />
    <glyph glyph-name="uni0413" unicode="&#x413;" horiz-adv-x="510" 
d="M84 649h396v-68h-299v-581h-97v649z" />
    <glyph glyph-name="uni0414" unicode="&#x414;" horiz-adv-x="651" 
d="M622 68v-234h-84v166h-428v-166h-85v234h8q45 0 72.5 38.5t41.5 138t14 282.5v122h391v-581h70zM455 68v513h-209v-130q0 -283 -81 -383h290z" />
    <glyph glyph-name="uni0415" unicode="&#x415;" 
d="M84 649h436v-68h-339v-212h306v-68h-306v-233h349v-68h-446v649z" />
    <glyph glyph-name="uni0416" unicode="&#x416;" horiz-adv-x="896" 
d="M886 0h-97l-95 176q-27 50 -55.5 77t-63 37.5t-83.5 10.5v-301h-88v301q-49 0 -83.5 -10.5t-63 -37.5t-55.5 -77l-95 -176h-97l106 203q30 57 70 90t93 47q-24 9 -44.5 23.5t-39.5 42.5l-165 243h106l135 -218q24 -39 54.5 -50.5t78.5 -11.5v280h88v-280q48 0 78.5 11.5
t54.5 50.5l135 218h106l-165 -243q-19 -28 -39.5 -42.5t-44.5 -23.5q53 -14 93 -47t70 -90z" />
    <glyph glyph-name="uni0417" unicode="&#x417;" 
d="M54 9v74q119 -25 199 -25q75 0 114 15.5t39 59.5v109q0 62 -134 62h-135v62h118q135 0 135 64v109q0 52 -130 52q-35 0 -117 -5l-76 -6v68q130 8 192 8q113 0 167.5 -25t54.5 -84v-121q0 -31 -25 -51.5t-64 -26.5v-4q24 -4 39.5 -8.5t33.5 -13.5q35 -18 35 -63v-130
q0 -78 -63 -108.5t-174 -30.5q-104 0 -209 19z" />
    <glyph glyph-name="uni0418" unicode="&#x418;" horiz-adv-x="723" 
d="M85 649h89v-526l367 526h89v-649h-89v535l-367 -535h-89v649z" />
    <glyph glyph-name="uni0419" unicode="&#x419;" horiz-adv-x="723" 
d="M85 649h89v-526l367 526h89v-649h-89v535l-367 -535h-89v649zM239 752.5q-42 34.5 -45 92.5h74q9 -78 84 -78t84 78h74q-2 -57 -44 -92t-114 -35q-71 0 -113 34.5z" />
    <glyph glyph-name="uni041A" unicode="&#x41a;" horiz-adv-x="606" 
d="M420 293q40 -33 70 -90l106 -203h-97l-95 176q-28 51 -57 77.5t-67.5 37t-97.5 10.5v-301h-98v649h98v-280q60 0 93 11.5t60 50.5l155 218h106l-185 -243q-37 -48 -85 -66q54 -14 94 -47z" />
    <glyph glyph-name="uni041B" unicode="&#x41b;" horiz-adv-x="652" 
d="M30 1v97q15 -3 29 -3q39 0 65 35t39.5 123t13.5 244v152h391v-649h-97v581h-209v-120q0 -218 -46 -340.5t-142 -122.5q-23 0 -44 3z" />
    <glyph glyph-name="uni041C" unicode="&#x41c;" horiz-adv-x="861" 
d="M84 649h145l208 -540l3 -1l197 541h140v-649h-85v549h-5l-209 -549h-87l-215 549h-5v-549h-87v649z" />
    <glyph glyph-name="uni041D" unicode="&#x41d;" horiz-adv-x="707" 
d="M84 649h97v-280h345v280h97v-649h-97v301h-345v-301h-97v649z" />
    <glyph glyph-name="uni041E" unicode="&#x41e;" horiz-adv-x="679" 
d="M66 166v307q0 186 272 186q275 0 275 -185v-308q0 -94 -76 -135t-199 -41q-272 0 -272 176zM519 167v309q0 120 -180 120q-87 0 -133.5 -27t-46.5 -93v-309q0 -112 181 -112q179 0 179 112z" />
    <glyph glyph-name="uni041F" unicode="&#x41f;" horiz-adv-x="687" 
d="M84 649h519v-649h-97v582h-325v-582h-97v649z" />
    <glyph glyph-name="uni0420" unicode="&#x420;" horiz-adv-x="570" 
d="M84 649h212q45 0 72.5 -2t58.5 -9q32 -7 51.5 -21t33.5 -38q13 -23 13 -58v-135q0 -81 -62.5 -116.5t-184.5 -35.5h-97v-234h-97v649zM291 295q63 0 101 23t38 73v118q0 27 -14 44.5t-40 24.5q-25 6 -42 8t-45 2h-109v-293h111z" />
    <glyph glyph-name="uni0421" unicode="&#x421;" horiz-adv-x="564" 
d="M64 166v308q0 186 273 186q93 0 178 -19v-72q-96 24 -176 24q-39 0 -68 -4.5t-56 -15.5q-58 -25 -58 -98v-304q0 -112 186 -112q80 0 176 24v-74q-85 -19 -182 -19q-273 0 -273 176z" />
    <glyph glyph-name="uni0422" unicode="&#x422;" horiz-adv-x="585" 
d="M244 581h-220v68h537v-68h-220v-581h-97v581z" />
    <glyph glyph-name="uni0423" unicode="&#x423;" horiz-adv-x="544" 
d="M574 649l-250 -534q-21 -45 -39 -71t-43 -40t-62 -14q-40 0 -84 10v70q29 -7 61 -7q33 0 52 19.5t40 64.5l11 25l-260 477h108l196 -381l174 381h96z" />
    <glyph glyph-name="uni0424" unicode="&#x424;" horiz-adv-x="779" 
d="M713 440l-2 -197q3 -88 -65.5 -132t-206.5 -44v-87h-97v87q-276 0 -276 176v197q0 186 276 186v73h97v-73q277 0 274 -186zM342 132v431q-88 0 -135.5 -27t-47.5 -93v-199q0 -112 183 -112zM622 244l-1 199q1 66 -46.5 93t-135.5 27v-431q183 0 183 112z" />
    <glyph glyph-name="uni0425" unicode="&#x425;" horiz-adv-x="604" 
d="M247 331l-229 318h111l173 -251l173 251h111l-229 -318l239 -331h-111l-183 264l-183 -264h-111z" />
    <glyph glyph-name="uni0426" unicode="&#x426;" horiz-adv-x="672" 
d="M559 0h-475v649h97v-581h295v581h97v-581h70v-204h-84v136z" />
    <glyph glyph-name="uni0427" unicode="&#x427;" horiz-adv-x="610" 
d="M526 649v-649h-97v249q-78 -40 -170 -40q-101 0 -145.5 40.5t-44.5 122.5v277h96v-269q0 -56 28.5 -79.5t88.5 -23.5q47 0 81.5 10t65.5 30v332h97z" />
    <glyph glyph-name="uni0428" unicode="&#x428;" horiz-adv-x="929" 
d="M84 649h97v-582h235v582h97v-582h235v582h97v-649h-761v649z" />
    <glyph glyph-name="uni0429" unicode="&#x429;" horiz-adv-x="944" 
d="M915 68v-234h-84v166h-747v649h97v-581h235v581h97v-581h235v581h97v-581h70z" />
    <glyph glyph-name="uni042A" unicode="&#x42a;" horiz-adv-x="621" 
d="M461.5 400.5q51.5 -8.5 83 -37.5t31.5 -86v-136q0 -141 -229 -141h-192v581h-155v68h252v-240h77q81 0 132.5 -8.5zM481 266q0 32 -13 48t-42.5 22.5t-83.5 6.5h-91v-277h89q70 0 105.5 17t35.5 62v121z" />
    <glyph glyph-name="uni042B" unicode="&#x42b;" horiz-adv-x="786" 
d="M84 649h97v-240h77q81 0 132.5 -8.5t83 -37.5t31.5 -86v-136q0 -141 -229 -141h-192v649zM605 649h97v-649h-97v649zM269 66q70 0 105.5 17t35.5 62v121q0 32 -13 48t-42.5 22.5t-83.5 6.5h-91v-277h89z" />
    <glyph glyph-name="uni042C" unicode="&#x42c;" horiz-adv-x="570" 
d="M84 649h97v-240h97q81 0 132.5 -8.5t83 -37.5t31.5 -86v-136q0 -141 -229 -141h-212v649zM289 66q70 0 105.5 17t35.5 62v121q0 32 -13 48t-42.5 22.5t-83.5 6.5h-111v-277h109z" />
    <glyph glyph-name="uni042D" unicode="&#x42d;" horiz-adv-x="563" 
d="M44 9v74q96 -24 176 -24q186 0 186 112v130h-240v67h240v107q0 73 -58 98q-27 11 -56 15.5t-68 4.5q-80 0 -176 -24v72q85 19 178 19q273 0 273 -186v-308q0 -176 -273 -176q-97 0 -182 19z" />
    <glyph glyph-name="uni042E" unicode="&#x42e;" horiz-adv-x="934" 
d="M321 166v133h-140v-299h-97v649h97v-288h140v112q0 186 272 186q275 0 275 -185v-308q0 -52 -25 -89t-70 -55q-43 -17 -85.5 -24.5t-94.5 -7.5q-272 0 -272 176zM774 167v309q0 120 -180 120q-40 0 -68.5 -4.5t-54.5 -16.5q-57 -27 -57 -99v-309q0 -112 181 -112
q179 0 179 112z" />
    <glyph glyph-name="uni042F" unicode="&#x42f;" horiz-adv-x="612" 
d="M528 649v-649h-97v247h-148l-132 -247h-119l155 264q-52 10 -83.5 40t-31.5 76v142q0 52 22 79t70.5 37.5t135.5 10.5h228zM431 585h-136q-126 0 -126 -73v-120q0 -41 30 -61t105 -20h127v274z" />
    <glyph glyph-name="uni0430" unicode="&#x430;" horiz-adv-x="538" 
d="M120.5 3q-37.5 13 -54 46t-16.5 95q0 55 15.5 85.5t53 43.5t106.5 13h145v77q0 27 -10.5 41.5t-35 20.5t-71.5 6q-75 0 -166 -12v66q99 9 179 9q84 0 124 -12.5t55 -43.5t15 -96v-342h-87v46q-11 -56 -146 -56q-69 0 -106.5 13zM242 49q49 0 83 7q45 9 45 42v132h-139
q-43 0 -62 -6.5t-25 -24.5t-6 -58q0 -36 7 -55.5t25 -28t54 -8.5h18z" />
    <glyph glyph-name="uni0431" unicode="&#x431;" horiz-adv-x="568" 
d="M153 7q-46 17 -64 59.5t-18 125.5v195q0 106 62.5 171.5t194.5 98.5q107 30 161 51v-85q-77 -28 -186 -57q-61 -12 -95 -29t-47.5 -40.5t-12.5 -58.5v-63q23 44 66 61.5t111 17.5q95 0 139.5 -38.5t44.5 -115.5v-144q0 -65 -24 -101t-71.5 -50.5t-124.5 -14.5
q-90 0 -136 17zM370.5 56.5q26.5 7.5 38 29t11.5 65.5v148q0 34 -10 52.5t-35 26.5t-71 8q-71 0 -109 -20t-37 -58l2 -157q1 -44 12.5 -65.5t38.5 -29t80 -7.5t79.5 7.5z" />
    <glyph glyph-name="uni0432" unicode="&#x432;" horiz-adv-x="573" 
d="M84 484h212q65 0 104 -7.5t57 -25.5q17 -17 22 -35t5 -50v-17q0 -39 -20 -58t-67 -29v-4q116 -20 116 -101v-29q0 -49 -19.5 -76.5t-64.5 -39.5t-126 -12h-219v484zM304 280q40 0 60 6.5t27 21t7 44.5v6q0 27 -7.5 40t-28 18.5t-61.5 5.5h-127v-142h130zM308 65
q47 0 71 6t33 19.5t9 40.5v32q0 25 -21 42q-22 16 -87 16h-139v-156h134z" />
    <glyph glyph-name="uni0433" unicode="&#x433;" horiz-adv-x="420" 
d="M84 484h316v-66h-226v-418h-90v484z" />
    <glyph glyph-name="uni0434" unicode="&#x434;" horiz-adv-x="567" 
d="M537 59v-193h-77v134h-373v-134h-77v193h31q22 0 43 33.5t35 108t14 189.5v94h336v-425h68zM379 59v366h-167v-70q0 -104 -13.5 -178.5t-49.5 -117.5h230z" />
    <glyph glyph-name="uni0435" unicode="&#x435;" horiz-adv-x="535" 
d="M60 138v191q0 88 50.5 126.5t163.5 38.5q107 0 154.5 -37t47.5 -128v-107h-325v-73q0 -50 35 -72t108 -22q69 0 163 24v-69q-92 -20 -175 -20q-222 0 -222 148zM386 281v76q0 44 -26.5 60.5t-90.5 16.5q-62 0 -90 -16.5t-28 -60.5v-76h235z" />
    <glyph glyph-name="uni0436" unicode="&#x436;" horiz-adv-x="753" 
d="M119 150q48 54 72.5 78t37.5 27l-220 229h110l148 -182q21 -27 68 -27v209h83v-209q47 0 68 27l148 182h110l-220 -229q13 -3 37.5 -27t72.5 -78l135 -150h-111l-132 150q-27 31 -53 49q-19 13 -27 16t-16 2.5t-12 -0.5v-217h-83v217q-4 0 -13 0.5t-18 -3.5t-24 -15
q-26 -18 -53 -49l-132 -150h-111z" />
    <glyph glyph-name="uni0437" unicode="&#x437;" horiz-adv-x="473" 
d="M50 7v71q75 -22 136 -22q69 0 101 15.5t32 59.5v31q0 37 -32.5 49.5t-91.5 12.5h-55v62h38q61 0 93 14t32 50v30q0 52 -120 52q-63 0 -123 -12v65q57 9 122 9q77 0 120 -8t67 -30q25 -22 25 -71v-39q0 -32 -23.5 -52.5t-60.5 -26.5v-4q103 -16 103 -89v-50
q0 -34 -13.5 -60.5t-35.5 -40.5q-30 -19 -75.5 -26t-102.5 -7q-59 0 -136 17z" />
    <glyph glyph-name="uni0438" unicode="&#x438;" horiz-adv-x="588" 
d="M510 484v-484h-90v357l-252 -357h-90v484h90v-369l257 369h85z" />
    <glyph glyph-name="uni0439" unicode="&#x439;" horiz-adv-x="588" 
d="M510 484v-484h-90v357l-252 -357h-90v484h90v-369l257 369h85zM188 587.5q-39 34.5 -42 92.5h74q7 -78 74 -78q66 0 74 78h74q-2 -57 -41.5 -92t-106.5 -35t-106 34.5z" />
    <glyph glyph-name="uni043A" unicode="&#x43a;" horiz-adv-x="502" 
d="M77 484h90v-209q15 0 24.5 6.5t23.5 20.5l168 182h110l-220 -229q13 -3 37.5 -27t72.5 -78l135 -150h-111l-132 150q-27 31 -53 49q-20 13 -28 15.5t-16 2.5h-11v-217h-90v484z" />
    <glyph glyph-name="uni043B" unicode="&#x43b;" horiz-adv-x="559" 
d="M30 2v77q14 -3 28 -3q43 0 68.5 62.5t25.5 231.5v114h329v-484h-90v425h-159v-70q0 -165 -39 -260.5t-134 -95.5q-15 0 -29 3z" />
    <glyph glyph-name="uni043C" unicode="&#x43c;" horiz-adv-x="741" 
d="M84 484h145l147 -394h4l137 394h140v-484h-83v402h-5l-149 -402h-91l-155 402h-5v-402h-85v484z" />
    <glyph glyph-name="uni043D" unicode="&#x43d;" horiz-adv-x="574" 
d="M78 484h90v-201h238v201h90v-484h-90v217h-238v-217h-90v484z" />
    <glyph glyph-name="uni043E" unicode="&#x43e;" horiz-adv-x="568" 
d="M187 -5.5q-32 4.5 -64 19.5q-33 15 -48 48.5t-15 90.5v168q0 45 11 79t29 53q15 17 45.5 26.5t62.5 12.5q36 2 75 2q52 0 78.5 -2.5t56.5 -10.5q31 -9 48 -27t29 -52q11 -35 11 -81v-168q0 -85 -39 -124q-16 -16 -46 -25t-62 -12q-38 -2 -76 -2q-64 0 -96 4.5zM344 51
q19 2 37 11q18 8 25.5 26.5t7.5 51.5v196q0 45 -11 65.5t-37.5 27t-82.5 6.5t-82.5 -6.5t-37.5 -27t-11 -65.5v-196q0 -33 7.5 -51.5t25.5 -26.5q18 -9 37 -11t61 -2t61 2z" />
    <glyph glyph-name="uni043F" unicode="&#x43f;" horiz-adv-x="577" 
d="M84 484h409v-484h-90v418h-229v-418h-90v484z" />
    <glyph glyph-name="uni0440" unicode="&#x440;" horiz-adv-x="579" 
d="M78 484h90v-52q11 62 165 62q92 0 139 -38.5t47 -98.5v-199q0 -43 -12.5 -75t-32.5 -50q-18 -17 -49.5 -27t-62.5 -13q-28 -3 -68 -3q-44 0 -80.5 10.5t-45.5 30.5v-229h-90v682zM375.5 58.5q27.5 7.5 39.5 27.5t12 61v178q0 45 -12 67t-39.5 29.5t-80.5 7.5t-80.5 -7.5
t-39.5 -29.5t-12 -67v-178q0 -40 12.5 -60.5t40.5 -28t80 -7.5t79.5 7.5z" />
    <glyph glyph-name="uni0441" unicode="&#x441;" horiz-adv-x="464" 
d="M200.5 -8q-22.5 2 -51.5 10q-31 8 -48 24t-29 47q-12 30 -12 75v178q0 81 31 116q17 20 34.5 30.5t45.5 14.5t50 5.5t62 1.5q69 0 138 -15v-66q-80 20 -149 20q-52 0 -76.5 -7.5t-34 -27t-9.5 -59.5v-198q0 -37 10.5 -55t38 -25.5t81.5 -7.5q73 0 146 19v-68
q-68 -14 -155 -14q-50 0 -72.5 2z" />
    <glyph glyph-name="uni0442" unicode="&#x442;" horiz-adv-x="489" 
d="M200 418h-170v66h429v-66h-169v-418h-90v418z" />
    <glyph glyph-name="uni0443" unicode="&#x443;" horiz-adv-x="460" 
d="M193 -7l-187 491h98l135 -395h2l122 395h91l-243 -692h-94z" />
    <glyph glyph-name="uni0444" unicode="&#x444;" horiz-adv-x="718" 
d="M554.5 471.5q52.5 -12.5 77 -49.5t24.5 -111v-148q0 -69 -23.5 -103.5t-76.5 -47t-153 -12.5v-198h-90v198q-100 0 -153 12.5t-76.5 47t-23.5 103.5v148q0 74 24.5 111t77 49.5t151.5 12.5v209h90v-209q99 0 151.5 -12.5zM313 425q-71 0 -103.5 -6.5t-45 -26.5t-12.5 -66
v-176q0 -41 13 -59.5t46 -25t102 -6.5v366zM564 326q0 46 -12.5 66t-45 26.5t-103.5 6.5v-366q69 0 102 6.5t46 25t13 59.5v176z" />
    <glyph glyph-name="uni0445" unicode="&#x445;" horiz-adv-x="519" 
d="M200 249l-180 235h109l130 -177l131 177h109l-190 -235l200 -249h-109l-141 191l-140 -191h-109z" />
    <glyph glyph-name="uni0446" unicode="&#x446;" horiz-adv-x="601" 
d="M494 0h-410v484h90v-418h239v418h90v-418h68v-190h-77v124z" />
    <glyph glyph-name="uni0447" unicode="&#x447;" horiz-adv-x="573" 
d="M405 218q-13 -69 -159 -69q-93 0 -130.5 33.5t-37.5 105.5v196h90v-190q0 -46 24 -63t80 -17q55 0 83.5 7.5t39 24.5t10.5 48v190h90v-484h-90v218z" />
    <glyph glyph-name="uni0448" unicode="&#x448;" horiz-adv-x="817" 
d="M84 484h90v-418h189v418h91v-418h189v418h90v-484h-649v484z" />
    <glyph glyph-name="uni0449" unicode="&#x449;" horiz-adv-x="831" 
d="M714 0h-630v484h90v-418h189v418h91v-418h189v418h90v-418h68v-200h-87v134z" />
    <glyph glyph-name="uni044A" unicode="&#x44a;" horiz-adv-x="565" 
d="M170 418h-140v66h232v-175h104q62 0 98.5 -9t53.5 -31.5t17 -63.5v-100q0 -105 -177 -105h-188v418zM352 58q29 0 60 8q35 9 35 51v61q0 29 -7.5 44t-27 21t-58.5 6h-93v-191h91z" />
    <glyph glyph-name="uni044B" unicode="&#x44b;" horiz-adv-x="678" 
d="M78 484h92v-175h94q62 0 98.5 -9t53.5 -31.5t17 -63.5v-100q0 -105 -177 -105h-178v484zM510 484h90v-484h-90v484zM250 58q29 0 60 8q35 9 35 51v61q0 29 -7.5 44t-27 21t-58.5 6h-83v-191h81z" />
    <glyph glyph-name="uni044C" unicode="&#x44c;" horiz-adv-x="491" 
d="M78 484h90v-175h124q62 0 98.5 -9t53.5 -31.5t17 -63.5v-100q0 -105 -177 -105h-206v484zM278 58q29 0 60 8q35 9 35 51v61q0 29 -7.5 44t-27 21t-58.5 6h-113v-191h111z" />
    <glyph glyph-name="uni044D" unicode="&#x44d;" horiz-adv-x="464" 
d="M36 4v68q73 -19 146 -19q55 0 82 7t37.5 24.5t10.5 54.5v73h-184v68h184v59q0 43 -8.5 62t-33 25.5t-78.5 6.5q-69 0 -149 -20v66q69 15 138 15q40 0 62 -1.5t51 -5.5q27 -4 44.5 -14.5t34.5 -30.5q31 -35 31 -116v-178q0 -43 -11 -74t-29 -48q-15 -14 -45.5 -23
t-58.5 -11q-34 -2 -69 -2q-87 0 -155 14z" />
    <glyph glyph-name="uni044E" unicode="&#x44e;" horiz-adv-x="808" 
d="M427 -5.5q-32 4.5 -64 19.5q-33 15 -48 48.5t-15 90.5v58h-126v-211h-90v484h90v-218h126v55q0 45 11 79t29 53q15 17 45.5 26.5t62.5 12.5q36 2 75 2q52 0 78.5 -2.5t56.5 -10.5q31 -9 48 -27t29 -52q11 -35 11 -81v-168q0 -85 -39 -124q-16 -16 -46 -25t-62 -12
q-38 -2 -76 -2q-64 0 -96 4.5zM584 51q19 2 37 11q18 8 25.5 26.5t7.5 51.5v196q0 45 -11 65.5t-37.5 27t-82.5 6.5t-82.5 -6.5t-37.5 -27t-11 -65.5v-196q0 -33 7.5 -51.5t25.5 -26.5q18 -9 37 -11t61 -2t61 2z" />
    <glyph glyph-name="uni044F" unicode="&#x44f;" horiz-adv-x="546" 
d="M468 484v-484h-90v174h-106l-123 -174h-119l148 191q-57 9 -82.5 37.5t-25.5 78.5v52q0 52 14.5 78t49.5 36.5t104 10.5h230zM378 422h-131q-37 0 -55 -6t-24.5 -21t-6.5 -44v-34q0 -39 18.5 -60t56.5 -21h142v186z" />
    <glyph glyph-name="uni0450" unicode="&#x450;" horiz-adv-x="535" 
d="M60 138v191q0 88 50.5 126.5t163.5 38.5q107 0 154.5 -37t47.5 -128v-107h-325v-73q0 -50 35 -72t108 -22q69 0 163 24v-69q-92 -20 -175 -20q-222 0 -222 148zM386 281v76q0 44 -26.5 60.5t-90.5 16.5q-62 0 -90 -16.5t-28 -60.5v-76h235zM112 680h109l90 -127h-74z" />
    <glyph glyph-name="uni0451" unicode="&#x451;" horiz-adv-x="535" 
d="M60 138v191q0 88 50.5 126.5t163.5 38.5q107 0 154.5 -37t47.5 -128v-107h-325v-73q0 -50 35 -72t108 -22q69 0 163 24v-69q-92 -20 -175 -20q-222 0 -222 148zM386 281v76q0 44 -26.5 60.5t-90.5 16.5q-62 0 -90 -16.5t-28 -60.5v-76h235zM148 659h90v-94h-90v94z
M318 659h90v-94h-90v94z" />
    <glyph glyph-name="uni0452" unicode="&#x452;" horiz-adv-x="542" 
d="M305 -77q51 35 74.5 77.5t30 96.5t6.5 152q0 70 -26.5 105t-84.5 35q-48 0 -87 -20t-39 -60v-309h-90v543h-89v52h89v105h90v-105h200v-52h-200v-158q7 33 47.5 51t101.5 18q87 0 133 -47t46 -132q0 -114 -9 -182t-48 -126.5t-123 -95.5z" />
    <glyph glyph-name="uni0453" unicode="&#x453;" horiz-adv-x="420" 
d="M84 484h316v-66h-226v-418h-90v484zM283 680h109l-125 -127h-74z" />
    <glyph glyph-name="uni0454" unicode="&#x454;" horiz-adv-x="464" 
d="M200.5 -8q-22.5 2 -51.5 10q-31 8 -48 24t-29 47q-12 30 -12 75v178q0 81 31 116q17 20 34.5 30.5t45.5 14.5t50 5.5t62 1.5q69 0 138 -15v-66q-80 20 -149 20q-54 0 -78.5 -6.5t-33 -25.5t-8.5 -62v-59h244v-68h-244v-73q0 -37 10.5 -54.5t37.5 -24.5t82 -7q73 0 146 19
v-68q-68 -14 -155 -14q-50 0 -72.5 2z" />
    <glyph glyph-name="uni0455" unicode="&#x455;" horiz-adv-x="483" 
d="M60 2v69q117 -19 168 -19q64 0 92 12.5t28 46.5v49q0 31 -21 44t-68 13h-55q-75 0 -114.5 31t-39.5 87v45q0 114 216 114q16 0 147 -8v-65q-89 14 -151 14q-71 0 -97 -14t-26 -47v-41q0 -49 89 -49h56q153 0 153 -114v-42q0 -75 -52 -106.5t-159 -31.5q-77 0 -166 12z
" />
    <glyph glyph-name="uni0456" unicode="&#x456;" horiz-adv-x="246" 
d="M78 659h90v-94h-90v94zM78 484h90v-484h-90v484z" />
    <glyph glyph-name="uni0457" unicode="&#x457;" horiz-adv-x="246" 
d="M-5 659h90v-94h-90v94zM165 659h90v-94h-90v94zM79 484h90v-484h-90v484z" />
    <glyph glyph-name="uni0458" unicode="&#x458;" horiz-adv-x="247" 
d="M79 659h90v-94h-90v94zM-43 -216v59q21 -4 38 -4q44 0 64 17.5t20 63.5v564h90v-557q0 -81 -38 -114t-123 -33q-28 0 -51 4z" />
    <glyph glyph-name="uni0459" unicode="&#x459;" horiz-adv-x="754" 
d="M30 77h30q37 0 64 80t27 273v54h310v-175h94q62 0 98.5 -9t53.5 -31.5t17 -63.5v-100q0 -105 -177 -105h-176v425h-136v-30q0 -191 -38 -293t-128 -102h-39v77zM541 58q29 0 60 8q35 9 35 51v61q0 29 -7.5 44t-27 21t-58.5 6h-82v-191h80z" />
    <glyph glyph-name="uni045A" unicode="&#x45a;" horiz-adv-x="776" 
d="M78 484h90v-175h223v175h92v-175h94q62 0 98.5 -9t53.5 -31.5t17 -63.5v-100q0 -105 -177 -105h-178v249h-223v-249h-90v484zM563 58q49 0 72 13t23 46v61q0 29 -7.5 44t-27 21t-58.5 6h-83v-191h81z" />
    <glyph glyph-name="uni045B" unicode="&#x45b;" horiz-adv-x="584" 
d="M89 543h-89v52h89v105h90v-105h180v-52h-180v-158q14 69 159 69q93 0 130.5 -33.5t37.5 -105.5v-315h-90v309q0 19 -3 31t-12 24q-20 25 -89 25q-55 0 -83.5 -7.5t-39 -24.5t-10.5 -48v-309h-90v543z" />
    <glyph glyph-name="uni045C" unicode="&#x45c;" horiz-adv-x="502" 
d="M77 484h90v-209q15 0 24.5 6.5t23.5 20.5l168 182h110l-220 -229q13 -3 37.5 -27t72.5 -78l135 -150h-111l-132 150q-27 31 -53 49q-20 13 -28 15.5t-16 2.5h-11v-217h-90v484zM301 680h109l-125 -127h-74z" />
    <glyph glyph-name="uni045D" unicode="&#x45d;" horiz-adv-x="588" 
d="M510 484v-484h-90v357l-252 -357h-90v484h90v-369l257 369h85zM128 680h109l90 -127h-74z" />
    <glyph glyph-name="uni045E" unicode="&#x45e;" horiz-adv-x="460" 
d="M193 -7l-187 491h98l135 -395h2l122 395h91l-243 -692h-94zM131 587.5q-39 34.5 -42 92.5h74q7 -78 74 -78q66 0 74 78h74q-2 -57 -41.5 -92t-106.5 -35t-106 34.5z" />
    <glyph glyph-name="uni045F" unicode="&#x45f;" horiz-adv-x="617" 
d="M267 0h-183v484h90v-418h269v418h90v-484h-179v-134h-87v134z" />
    <glyph glyph-name="uni0462" unicode="&#x462;" horiz-adv-x="610" 
d="M450.5 400.5q51.5 -8.5 83 -37.5t31.5 -86v-136q0 -141 -229 -141h-212v501h-100v68h100v80h97v-80h170v-68h-170v-92h97q81 0 132.5 -8.5zM470 266q0 32 -13 48t-42.5 22.5t-83.5 6.5h-111v-277h109q70 0 105.5 17t35.5 62v121z" />
    <glyph glyph-name="uni0463" unicode="&#x463;" horiz-adv-x="529" 
d="M428.5 300q36.5 -9 53.5 -31.5t17 -63.5v-100q0 -105 -177 -105h-208v418h-114v66h114v165h92v-165h150v-66h-150v-109h124q62 0 98.5 -9zM411 178q0 29 -7.5 44t-27 21t-58.5 6h-113v-191h111q29 0 60 8q35 9 35 51v61z" />
    <glyph glyph-name="uni046A" unicode="&#x46a;" horiz-adv-x="896" 
d="M886 0h-97l-95 176q-27 50 -55.5 77t-63 37.5t-83.5 10.5v-301h-88v301q-49 0 -83.5 -10.5t-63 -37.5t-55.5 -77l-95 -176h-97l106 203q37 70 89.5 106t146.5 36h16l-254 304h668l-254 -304h16q94 0 146.5 -36t89.5 -106zM270 581l178 -219l178 219h-356z" />
    <glyph glyph-name="uni046B" unicode="&#x46b;" horiz-adv-x="753" 
d="M769 0h-111l-132 150q-27 31 -53 49q-19 13 -27 16t-16 2.5t-12 -0.5v-217h-83v217q-4 0 -13 0.5t-18 -3.5t-24 -15q-26 -18 -53 -49l-132 -150h-111l135 150q43 47 61.5 66t41 33.5t52.5 20.5l-194 214h584l-191 -213q32 -6 56 -20t44 -34t61 -67zM233 418l141 -162h5
l141 162h-287z" />
    <glyph glyph-name="uni0472" unicode="&#x472;" horiz-adv-x="679" 
d="M613 474v-308q0 -94 -76 -135t-199 -41q-272 0 -272 176v307q0 186 272 186q275 0 275 -185zM205.5 569q-46.5 -27 -46.5 -93v-107h360v107q0 120 -180 120q-87 0 -133.5 -27zM519 167v134h-360v-134q0 -112 181 -112q179 0 179 112z" />
    <glyph glyph-name="uni0473" unicode="&#x473;" horiz-adv-x="568" 
d="M506 321v-168q0 -85 -39 -124q-16 -16 -46 -25t-62 -12q-38 -2 -76 -2q-64 0 -96 4.5t-64 19.5q-33 15 -48 48.5t-15 90.5v168q0 45 11 79t29 53q15 17 45.5 26.5t62.5 12.5q36 2 75 2q52 0 78.5 -2.5t56.5 -10.5q31 -9 48 -27t29 -52q11 -35 11 -81zM200.5 428.5
q-26.5 -6.5 -37.5 -27t-11 -65.5v-53h262v53q0 45 -11 65.5t-37.5 27t-82.5 6.5t-82.5 -6.5zM406.5 88.5q7.5 18.5 7.5 51.5v77h-262v-77q0 -33 7.5 -51.5t25.5 -26.5q18 -9 37 -11t61 -2t61 2t37 11q18 8 25.5 26.5z" />
    <glyph glyph-name="uni0474" unicode="&#x474;" horiz-adv-x="657" 
d="M4 649h106l169 -472q17 -47 25 -74l25 74l133 392q31 91 113 91q23 0 41.5 -6.5t40.5 -21.5l-20 -56q-19 8 -35 8q-44 0 -65 -56l-193 -528h-88z" />
    <glyph glyph-name="uni0475" unicode="&#x475;" horiz-adv-x="503" 
d="M6 484h86l105 -290q16 -46 30 -97l31 92l75 206q19 51 44.5 75t69.5 24q18 0 32.5 -4t33.5 -13l-13 -50q-18 6 -34 6q-23 0 -39 -13.5t-27 -42.5l-143 -377h-67z" />
    <glyph glyph-name="uni048A" unicode="&#x48a;" horiz-adv-x="723" 
d="M258 738.5q-39 35.5 -42 91.5h86q15 -41 28 -54t45 -13q28 0 44.5 15.5t27.5 51.5h45q-4 -56 -43.5 -91.5t-94.5 -35.5q-57 0 -96 35.5zM621 0h-70v545l-349 -545h-117v649h89v-536l349 536h117v-582h80l-70 -247h-80z" />
    <glyph glyph-name="uni048B" unicode="&#x48b;" horiz-adv-x="608" 
d="M221 587.5q-39 35.5 -42 91.5h86q15 -41 28 -54t45 -13q28 0 44.5 15.5t27.5 51.5h45q-4 -56 -43.5 -91.5t-94.5 -35.5q-57 0 -96 35.5zM511 0h-66v400l-250 -400h-117v484h85v-391l250 391h117v-417h80l-70 -247h-80z" />
    <glyph glyph-name="uni048C" unicode="&#x48c;" horiz-adv-x="570" 
d="M21 574h63v75h97v-75h86v-63h-86v-142h97q52 0 85 -2.5t64 -10.5q49 -12 73.5 -40t24.5 -79v-96q0 -141 -229 -141h-212v511h-63v63zM398 285.5q-32 17.5 -107 17.5h-111v-237h109q28 0 45 2t42 8q26 7 40 24.5t14 44.5v81q0 42 -32 59.5z" />
    <glyph glyph-name="uni048D" unicode="&#x48d;" horiz-adv-x="533" 
d="M21 574h63v75h92v-75h91v-63h-91v-202h144q62 0 98.5 -9t53.5 -31.5t17 -63.5v-100q0 -105 -177 -105h-228v511h-63v63zM383 234q-16 15 -75 15h-133v-191h131q28 0 60 7q35 11 35 52v61q0 43 -18 56z" />
    <glyph glyph-name="uni048E" unicode="&#x48e;" horiz-adv-x="570" 
d="M409 248q-54 -14 -131 -14h-97v-234h-97v649h212q45 0 72.5 -2t57.5 -10q47 -10 71.5 -37.5t27.5 -78.5v-135q0 -73 -52 -109l50 -50l-46 -46zM416 553.5q-14 17.5 -40 24.5q-25 6 -42 8t-45 2h-109v-293h111q37 0 64 7l-55 55l47 47l66 -67q17 25 17 54v118
q0 27 -14 44.5z" />
    <glyph glyph-name="uni048F" unicode="&#x48f;" horiz-adv-x="579" 
d="M411 2q-46 -12 -117 -12q-44 0 -80.5 10.5t-45.5 30.5v-217h-90v670h89v-52h1q11 62 165 62q97 0 141 -41q45 -40 45 -96v-199q0 -84 -47 -125l54 -54l-46 -46zM398 410q-28 19 -103 19q-76 0 -104 -19q-28 -18 -28 -85v-178q0 -61 29 -79q31 -17 104 -17q35 0 62 3
l-55 55l47 47l66 -67q11 24 11 58v178q0 67 -29 85z" />
    <glyph glyph-name="uni0490" unicode="&#x490;" horiz-adv-x="510" 
d="M84 649h319v113h77v-181h-299v-581h-97v649z" />
    <glyph glyph-name="uni0491" unicode="&#x491;" horiz-adv-x="440" 
d="M84 484h246v92h70v-158h-226v-418h-90v484z" />
    <glyph glyph-name="uni0492" unicode="&#x492;" horiz-adv-x="560" 
d="M181 581v-212h183v-68h-183v-301h-97v301h-74v68h74v280h396v-68h-299z" />
    <glyph glyph-name="uni0493" unicode="&#x493;" horiz-adv-x="420" 
d="M174 418v-154h116v-52h-116v-212h-90v212h-61v52h61v220h316v-66h-226z" />
    <glyph glyph-name="uni0494" unicode="&#x494;" horiz-adv-x="581" 
d="M493.5 352.5q47.5 -57.5 47.5 -173.5q0 -144 -58.5 -206t-150.5 -62q-35 0 -89 9v66q44 -11 76 -11q70 0 98 42.5t28 138.5q0 71 -14 111t-44 57.5t-82 17.5q-61 0 -124 -20v-322h-97v649h396v-68h-299v-191q78 20 151 20q114 0 161.5 -57.5z" />
    <glyph glyph-name="uni0495" unicode="&#x495;" horiz-adv-x="515" 
d="M445 239.5q51 -54.5 51 -154.5q0 -66 -26.5 -127.5t-83.5 -109t-145 -68.5l-22 52q99 29 142.5 89t43.5 148q0 160 -121 160q-51 0 -83.5 -19.5t-32.5 -60.5v-149h-90v484h316v-66h-226v-193q6 33 45.5 51t93.5 18q87 0 138 -54.5z" />
    <glyph glyph-name="uni0496" unicode="&#x496;" horiz-adv-x="946" 
d="M926 68v-204h-84v136h-53l-95 176q-27 50 -55.5 77t-63 37.5t-83.5 10.5v-301h-88v301q-49 0 -83.5 -10.5t-63 -37.5t-55.5 -77l-95 -176h-97l106 203q30 57 70 90t93 47q-24 9 -44.5 23.5t-39.5 42.5l-165 243h106l135 -218q24 -39 54.5 -50.5t78.5 -11.5v280h88v-280
q48 0 78.5 11.5t54.5 50.5l135 218h106l-165 -243q-19 -28 -39.5 -42.5t-44.5 -23.5q53 -14 93 -47t70 -90l70 -135h76z" />
    <glyph glyph-name="uni0497" unicode="&#x497;" horiz-adv-x="753" 
d="M786 66v-190h-77v124h-51l-132 150q-27 31 -53 49q-19 13 -27 16t-16 2.5t-12 -0.5v-217h-83v217q-4 0 -13 0.5t-18 -3.5t-24 -15q-26 -18 -53 -49l-132 -150h-111l135 150q48 54 72.5 78t37.5 27l-220 229h110l148 -182q21 -27 68 -27v209h83v-209q47 0 68 27l148 182
h110l-220 -229q13 -3 37.5 -27t72.5 -78l76 -84h76z" />
    <glyph glyph-name="uni0498" unicode="&#x498;" 
d="M500 259v-130q0 -68 -48 -99t-134 -38q10 -47 10 -76q0 -48 -28.5 -77t-76.5 -29q-49 0 -105 29v57q43 -22 81 -22q31 0 50 20.5t19 52.5q0 20 -6 43q-103 0 -208 19v74q119 -25 199 -25q75 0 114 15.5t39 59.5v109q0 62 -134 62h-135v62h118q135 0 135 64v109
q0 52 -130 52q-35 0 -117 -5l-76 -6v68q130 8 192 8q113 0 167.5 -25t54.5 -84v-121q0 -31 -25 -51.5t-64 -26.5v-4q24 -4 39.5 -8.5t33.5 -13.5q35 -18 35 -63z" />
    <glyph glyph-name="uni0499" unicode="&#x499;" horiz-adv-x="473" 
d="M413 174v-50q0 -34 -13.5 -60.5t-35.5 -40.5q-29 -18 -82 -27q14 -53 14 -87q0 -46 -27.5 -74t-74.5 -28q-49 0 -101 28v56q40 -22 78 -22q30 0 48.5 20t18.5 51q0 24 -9 51q-15 -1 -43 -1q-59 0 -136 17v71q75 -22 136 -22q69 0 101 15.5t32 59.5v31q0 37 -32.5 49.5
t-91.5 12.5h-55v62h38q61 0 93 14t32 50v30q0 52 -120 52q-63 0 -123 -12v65q57 9 122 9q77 0 120 -8t67 -30q25 -22 25 -71v-39q0 -32 -23.5 -52.5t-60.5 -26.5v-4q103 -16 103 -89z" />
    <glyph glyph-name="uni049A" unicode="&#x49a;" horiz-adv-x="656" 
d="M636 68v-204h-84v136h-53l-95 176q-28 51 -57 77.5t-67.5 37t-97.5 10.5v-301h-98v649h98v-280q60 0 93 11.5t60 50.5l155 218h106l-185 -243q-37 -48 -85 -66q54 -14 94 -47t70 -90l70 -135h76z" />
    <glyph glyph-name="uni049B" unicode="&#x49b;" horiz-adv-x="555" 
d="M535 66v-190h-77v124h-51l-132 150q-27 31 -53 49q-20 13 -28 15.5t-16 2.5h-11v-217h-90v484h90v-209q15 0 24.5 6.5t23.5 20.5l168 182h110l-220 -229q13 -3 37.5 -27t72.5 -78l76 -84h76z" />
    <glyph glyph-name="uni049C" unicode="&#x49c;" horiz-adv-x="606" 
d="M420 293q40 -33 70 -90l106 -203h-97l-95 176q-21 39 -42.5 63t-46.5 37v-102h-51v120q-34 7 -82 7v-301h-98v649h98v-280q56 0 82 8v114h51v-84q6 6 20 24l155 218h106l-185 -243q-37 -48 -85 -66q54 -14 94 -47z" />
    <glyph glyph-name="uni049D" unicode="&#x49d;" horiz-adv-x="502" 
d="M548 0h-111l-132 150q-24 29 -51 48v-109h-47v127q-12 2 -24 1.5t-16 -0.5v-217h-90v484h90v-209q16 0 40 7v113h47v-83l159 172h110l-220 -229q13 -3 37.5 -27t72.5 -78z" />
    <glyph glyph-name="uni049E" unicode="&#x49e;" horiz-adv-x="611" 
d="M182 649v-68h95v-52h-95v-161q41 0 62 18q22 19 60 76l61 92q40 61 71 78t101 17h35v-68h-41q-53 0 -97 -71l-44 -73q-21 -36 -51 -64.5t-56 -34.5q36 -9 151 -136l182 -202h-115l-184 202q-58 64 -86 81q-25 18 -49 18v-301h-97v529h-95v52h95v68h97z" />
    <glyph glyph-name="uni049F" unicode="&#x49f;" horiz-adv-x="503" 
d="M84 360h-64v52h64v72h83v-72h70v-52h-70v-87q34 0 51.5 11t38.5 46l49 79q28 46 56 60q27 15 82 15h27v-51h-19q-51 0 -84 -53l-38 -62q-34 -61 -72 -70q28 -7 110 -98l135 -150h-104l-132 150q-30 33 -50 50q-19 17 -27.5 20.5t-22.5 3.5v-224h-83v360z" />
    <glyph glyph-name="uni04A0" unicode="&#x4a0;" horiz-adv-x="692" 
d="M506 293q40 -33 70 -90l106 -203h-97l-95 176q-28 51 -57 77.5t-67.5 37t-97.5 10.5v-301h-98v581h-170v68h268v-280q60 0 93 11.5t60 50.5l155 218h106l-185 -243q-37 -48 -85 -66q54 -14 94 -47z" />
    <glyph glyph-name="uni04A1" unicode="&#x4a1;" horiz-adv-x="605" 
d="M180 418h-150v66h240v-209q15 0 24.5 6.5t23.5 20.5l168 182h110l-220 -229q13 -3 37.5 -27t72.5 -78l135 -150h-111l-132 150q-27 31 -53 49q-20 13 -28 15.5t-16 2.5h-11v-217h-90v418z" />
    <glyph glyph-name="uni04A2" unicode="&#x4a2;" horiz-adv-x="707" 
d="M693 68v-204h-84v136h-83v301h-345v-301h-97v649h97v-280h345v280h97v-581h70z" />
    <glyph glyph-name="uni04A3" unicode="&#x4a3;" horiz-adv-x="574" 
d="M564 66v-190h-77v124h-81v217h-238v-217h-90v484h90v-201h238v201h90v-418h68z" />
    <glyph glyph-name="uni04A4" unicode="&#x4a4;" horiz-adv-x="861" 
d="M84 649h97v-280h345v280h305v-68h-208v-581h-97v301h-345v-301h-97v649z" />
    <glyph glyph-name="uni04A5" unicode="&#x4a5;" horiz-adv-x="684" 
d="M84 484h90v-201h229v201h261v-65h-171v-419h-90v217h-229v-217h-90v484z" />
    <glyph glyph-name="uni04A6" unicode="&#x4a6;" horiz-adv-x="1093" 
d="M506 0v582h-325v-582h-97v649h519v-282q92 43 176 43q112 0 172 -71t60 -205q0 -156 -70 -240t-199 -84q-82 0 -150 33q-66 33 -75 86h86q8 -21 46 -33.5t90 -12.5q90 0 138.5 62.5t48.5 179.5q0 220 -159 220q-67 0 -164 -41v-304h-97z" />
    <glyph glyph-name="uni04A7" unicode="&#x4a7;" horiz-adv-x="885" 
d="M765 -125q-62 -65 -158 -65q-79 0 -135 35q-54 34 -61 91h82q19 -67 114 -67q59 0 95.5 47.5t36.5 120.5q0 72 -40.5 115t-110.5 43q-42 0 -95 -13v-182h-91v418h-228v-418h-90v484h409v-239q49 16 106 16q98 0 163 -62t65 -155q0 -104 -62 -169z" />
    <glyph glyph-name="uni04A8" unicode="&#x4a8;" horiz-adv-x="700" 
d="M435 -4q-26 -6 -72 -6q-151 0 -232 99q-73 89 -73 240q0 147 81 238q82 94 226 94q104 0 175 -59l-50 -50q-47 44 -127 44q-105 0 -167 -86q-50 -68 -50 -180q0 -114 47 -185q61 -91 163 -91l25 2q-48 87 -48 197q0 101 34 150q39 62 134 62q154 0 154 -207
q0 -74 -34.5 -135t-98.5 -97q68 -42 133 -44v-76q-133 9 -220 90zM555 361.5q-19 37.5 -54 37.5q-52 0 -71 -46q-12 -28 -12 -100q0 -110 46 -177q54 24 82 71t28 110q0 67 -19 104.5z" />
    <glyph glyph-name="uni04A9" unicode="&#x4a9;" horiz-adv-x="521" 
d="M322 0q-24 -7 -56 -7q-103 0 -161 66.5t-58 182.5q0 117 57.5 185t161.5 68q76 0 126 -38l-53 -43q-29 24 -69 24q-69 0 -104.5 -49.5t-35.5 -143.5t34.5 -144.5t100.5 -50.5h9q-49 79 -49 166q0 55 31.5 89t83.5 34q119 0 119 -128q0 -118 -69 -180q26 -23 69 -44v-71
q-89 38 -137 84zM374.5 267q-10.5 16 -34.5 16q-40 0 -40 -70q0 -81 40 -133q45 38 45 132q0 39 -10.5 55z" />
    <glyph glyph-name="uni04AA" unicode="&#x4aa;" horiz-adv-x="564" 
d="M519 9q-71 -16 -154 -19q11 -54 11 -81q0 -46 -27.5 -74t-74.5 -28q-49 0 -101 28v56q40 -22 78 -22q30 0 48.5 20t18.5 51q0 18 -7 50q-247 9 -247 176v308q0 186 273 186q93 0 178 -19v-72q-96 24 -176 24q-39 0 -68 -4.5t-56 -15.5q-58 -25 -58 -98v-304
q0 -112 186 -112q80 0 176 24v-74z" />
    <glyph glyph-name="uni04AB" unicode="&#x4ab;" horiz-adv-x="464" 
d="M428 4q-57 -11 -125 -14q13 -51 13 -81q0 -46 -27.5 -74t-74.5 -28q-49 0 -101 28v56q40 -22 78 -22q30 0 48.5 20t18.5 51q0 24 -9 50q-33 0 -53.5 2.5t-46.5 9.5q-31 8 -48 24t-29 47q-12 30 -12 75v178q0 81 31 116q17 20 34.5 30.5t45.5 14.5t50 5.5t62 1.5
q69 0 138 -15v-66q-80 20 -149 20q-52 0 -76.5 -7.5t-34 -27t-9.5 -59.5v-198q0 -37 10.5 -55t38 -25.5t81.5 -7.5q73 0 146 19v-68z" />
    <glyph glyph-name="uni04AC" unicode="&#x4ac;" horiz-adv-x="585" 
d="M322 -180v180h-78v581h-220v68h537v-68h-219v-514h60v-247h-80z" />
    <glyph glyph-name="uni04AD" unicode="&#x4ad;" horiz-adv-x="517" 
d="M284 -180v180h-70v418h-190v66h469v-66h-189v-351h60v-247h-80z" />
    <glyph glyph-name="uni04AE" unicode="&#x4ae;" horiz-adv-x="584" 
d="M243 262l-235 387h111l173 -305l173 305h111l-236 -384v-265h-97v262z" />
    <glyph glyph-name="uni04AF" unicode="&#x4af;" horiz-adv-x="463" 
d="M186 21l-180 463h95l134 -366h5l130 366h87l-181 -483v-209h-90v229z" />
    <glyph glyph-name="uni04B0" unicode="&#x4b0;" horiz-adv-x="584" 
d="M243 262l-24 39h-169v68h128l-170 280h111l173 -305l173 305h111l-172 -280h110v-68h-152l-22 -36v-265h-97v262z" />
    <glyph glyph-name="uni04B1" unicode="&#x4b1;" horiz-adv-x="463" 
d="M186 -68h-156v68h156v21l-180 463h95l134 -366h5l130 366h87l-181 -480v-4h157v-68h-157v-140h-90v140z" />
    <glyph glyph-name="uni04B2" unicode="&#x4b2;" horiz-adv-x="604" 
d="M545 -180v180h-60l-183 264l-183 -264h-111l239 331l-229 318h111l173 -251l173 251h111l-229 -318l190 -264h78v-247h-80z" />
    <glyph glyph-name="uni04B3" unicode="&#x4b3;" horiz-adv-x="479" 
d="M417 -180v180h-47l-131 191l-130 -191h-99l180 249l-170 235h99l120 -177l121 177h99l-170 -235l131 -182h77v-247h-80z" />
    <glyph glyph-name="uni04B4" unicode="&#x4b4;" horiz-adv-x="925" 
d="M805 -180h-85v180h-489v581h-209v68h517v-68h-210v-513h310v581h97v-581h69v-248z" />
    <glyph glyph-name="uni04B5" unicode="&#x4b5;" horiz-adv-x="691" 
d="M662 -147h-75v147h-401v418h-167v66h414v-66h-157v-352h229v418h90v-418h67v-213z" />
    <glyph glyph-name="uni04B6" unicode="&#x4b6;" horiz-adv-x="610" 
d="M596 68v-204h-84v136h-83v255q-79 -46 -170 -46q-101 0 -145.5 40.5t-44.5 122.5v277h96v-269q0 -56 28.5 -79.5t88.5 -23.5q47 0 81.5 10t65.5 30v332h97v-581h70z" />
    <glyph glyph-name="uni04B7" unicode="&#x4b7;" horiz-adv-x="573" 
d="M563 66v-190h-77v124h-81v218q-13 -69 -159 -69q-93 0 -130.5 33.5t-37.5 105.5v196h90v-190q0 -46 24 -63t80 -17q55 0 83.5 7.5t39 24.5t10.5 48v190h90v-418h68z" />
    <glyph glyph-name="uni04B8" unicode="&#x4b8;" horiz-adv-x="610" 
d="M526 649v-649h-97v255q-44 -26 -99 -39v-123h-51v117q-7 -1 -20 -1q-101 0 -145.5 40.5t-44.5 122.5v277h96v-269q0 -55 27.5 -78.5t86.5 -24.5v133h51v-130q54 8 99 37v332h97z" />
    <glyph glyph-name="uni04B9" unicode="&#x4b9;" horiz-adv-x="573" 
d="M495 484v-484h-90v218q-10 -52 -95 -65v-104h-47v100h-17q-93 0 -130.5 33.5t-37.5 105.5v196h90v-190q0 -44 22 -61t73 -19v141h47v-140q57 4 76 21t19 58v190h90z" />
    <glyph glyph-name="uni04BA" unicode="&#x4ba;" horiz-adv-x="610" 
d="M496.5 399.5q44.5 -40.5 44.5 -122.5v-277h-96v269q0 56 -28.5 79.5t-88.5 23.5q-47 0 -81.5 -10t-65.5 -30v-332h-97v649h97v-255q79 46 170 46q101 0 145.5 -40.5z" />
    <glyph glyph-name="uni04BB" unicode="&#x4bb;" horiz-adv-x="573" 
d="M78 700h90v-275q14 69 159 69q93 0 130.5 -33.5t37.5 -105.5v-355h-90v349q0 19 -3 31t-12 24q-20 25 -89 25q-55 0 -83.5 -7.5t-39 -24.5t-10.5 -48v-349h-90v700z" />
    <glyph glyph-name="uni04BC" unicode="&#x4bc;" horiz-adv-x="750" 
d="M225 288v-109q0 -125 223 -125q81 0 211 32v-70q-128 -26 -249 -26q-123 0 -202 47q-77 47 -77 149v112q-68 0 -99 23t-31 76q0 29 9 65l68 -16q-6 -19 -6 -39q0 -27 13.5 -38.5t45.5 -11.5v84q0 80 29.5 127.5t92 69.5t163.5 22q138 0 203 -48t65 -171v-153h-459z
M225 357h365v135q0 104 -177 104q-92 0 -140 -23.5t-48 -80.5v-135z" />
    <glyph glyph-name="uni04BD" unicode="&#x4bd;" horiz-adv-x="604" 
d="M220 222v-73q0 -50 35.5 -72t111.5 -22q64 0 159 24v-69q-97 -20 -187 -20q-97 0 -153.5 37t-56.5 111v84q-68 0 -99 23t-31 76q0 29 9 65l68 -16q-6 -19 -6 -39q0 -27 13.5 -38.5t45.5 -11.5v48q0 88 50.5 126.5t163.5 38.5q107 0 154.5 -37t47.5 -128v-107h-325z
M455 357q0 43 -26 60t-88 17q-65 0 -93 -16.5t-28 -60.5v-76h235v76z" />
    <glyph glyph-name="uni04BE" unicode="&#x4be;" horiz-adv-x="750" 
d="M225 288v-109q0 -125 223 -125q81 0 211 32v-70q-90 -18 -178 -24q-27 -45 -27 -89q0 -33 39 -33q10 0 31 7v-53q-20 -10 -50 -10q-51 0 -75 19t-24 61q0 46 30 96q-120 1 -197 47q-77 47 -77 149v112q-68 0 -99 23t-31 76q0 29 9 65l68 -16q-6 -19 -6 -39
q0 -27 13.5 -38.5t45.5 -11.5v84q0 80 29.5 127.5t92 69.5t163.5 22q138 0 203 -48t65 -171v-153h-459zM225 357h365v135q0 104 -177 104q-92 0 -140 -23.5t-48 -80.5v-135z" />
    <glyph glyph-name="uni04BF" unicode="&#x4bf;" horiz-adv-x="604" 
d="M220 222v-73q0 -50 35.5 -72t111.5 -22q64 0 159 24v-69q-61 -12 -122 -18q-26 -44 -26 -86q0 -33 39 -33q10 0 31 7v-53q-20 -10 -50 -10q-51 0 -75 19t-24 61q0 46 28 93q-92 2 -145 39t-53 109v84q-68 0 -99 23t-31 76q0 29 9 65l68 -16q-6 -19 -6 -39
q0 -27 13.5 -38.5t45.5 -11.5v48q0 88 50.5 126.5t163.5 38.5q107 0 154.5 -37t47.5 -128v-107h-325zM220 281h235v76q0 43 -26 60t-88 17q-65 0 -93 -16.5t-28 -60.5v-76z" />
    <glyph glyph-name="uni04C0" unicode="&#x4c0;" horiz-adv-x="265" 
d="M84 649h97v-649h-97v649z" />
    <glyph glyph-name="uni04C1" unicode="&#x4c1;" horiz-adv-x="896" 
d="M335 752.5q-42 34.5 -45 92.5h74q9 -78 84 -78t84 78h74q-2 -57 -44 -92t-114 -35q-71 0 -113 34.5zM886 0h-97l-95 176q-27 50 -55.5 77t-63 37.5t-83.5 10.5v-301h-88v301q-49 0 -83.5 -10.5t-63 -37.5t-55.5 -77l-95 -176h-97l106 203q30 57 70 90t93 47
q-24 9 -44.5 23.5t-39.5 42.5l-165 243h106l135 -218q24 -39 54.5 -50.5t78.5 -11.5v280h88v-280q48 0 78.5 11.5t54.5 50.5l135 218h106l-165 -243q-19 -28 -39.5 -42.5t-44.5 -23.5q53 -14 93 -47t70 -90z" />
    <glyph glyph-name="uni04C2" unicode="&#x4c2;" horiz-adv-x="753" 
d="M271 587.5q-39 34.5 -42 92.5h74q8 -78 74 -78q67 0 74 78h74q-2 -57 -41.5 -92t-106.5 -35t-106 34.5zM119 150q48 54 72.5 78t37.5 27l-220 229h110l148 -182q21 -27 68 -27v209h83v-209q47 0 68 27l148 182h110l-220 -229q13 -3 37.5 -27t72.5 -78l135 -150h-111
l-132 150q-27 31 -53 49q-19 13 -27 16t-16 2.5t-12 -0.5v-217h-83v217q-4 0 -13 0.5t-18 -3.5t-24 -15q-26 -18 -53 -49l-132 -150h-111z" />
    <glyph glyph-name="uni04C3" unicode="&#x4c3;" horiz-adv-x="667" 
d="M515 -111.5q-71 -79.5 -199 -79.5q-82 0 -150 38t-76 91h85q11 -24 50 -40t88 -16q87 0 134.5 58.5t47.5 164.5q0 91 -46 145t-126 54h-142v-304h-97v649h97v-285q56 0 78 21q25 25 61 112q28 68 45 91q17 24 50 43q31 18 71 18q51 0 52 -1v-74l-34 1q-40 0 -62 -19
q-21 -19 -46 -85q-33 -83 -57 -107q117 0 182 -66.5t65 -184.5q0 -145 -71 -224.5z" />
    <glyph glyph-name="uni04C4" unicode="&#x4c4;" horiz-adv-x="543" 
d="M436 -122q-65 -68 -163 -68q-78 0 -132 36.5t-63 95.5h82q21 -65 113 -65q61 0 101 46t40 118q0 76 -40 119t-111 43h-95v-203h-90v484h90v-209q35 0 51 12t32 49l45 99q15 31 36 40t73 9h17v-68h-24q-29 0 -40 -11q-9 -9 -29 -58q-16 -43 -44 -72q95 0 155 -64
q61 -62 61 -162q0 -103 -65 -171z" />
    <glyph glyph-name="uni04C5" unicode="&#x4c5;" horiz-adv-x="656" 
d="M667 84l-91 -283h-84l67 199h-78v581h-255v-378q0 -119 -32 -166t-110 -47q-31 0 -75 12l16 66q23 -9 40 -9q37 0 50 28q14 30 14 110v452h449v-565h89z" />
    <glyph glyph-name="uni04C6" unicode="&#x4c6;" horiz-adv-x="656" 
d="M634 84l-91 -283h-84l67 199h-71v418h-229v-205q0 -122 -32 -174q-32 -51 -110 -51q-31 0 -75 12l16 66q23 -9 40 -9q39 0 55 29.5t16 108.5v289h409v-400h89z" />
    <glyph glyph-name="uni04C7" unicode="&#x4c7;" horiz-adv-x="707" 
d="M623 130q0 -173 -75 -246q-76 -74 -209 -74q-105 0 -170.5 35.5t-74.5 93.5h86q20 -56 156 -56q96 0 143 56t47 197v165h-345v-301h-97v649h97v-280h345v280h97v-519z" />
    <glyph glyph-name="uni04C8" unicode="&#x4c8;" horiz-adv-x="577" 
d="M493 34q0 -104 -57.5 -164t-155.5 -60q-79 0 -135 35q-54 34 -61 91h82q19 -67 114 -67q59 0 91 42t32 116v190h-229v-217h-90v484h90v-201h229v201h90v-450z" />
    <glyph glyph-name="uni04C9" unicode="&#x4c9;" horiz-adv-x="707" 
d="M553 -180l51 180h-78v301h-345v-301h-97v649h97v-280h345v280h97v-582h80l-70 -247h-80z" />
    <glyph glyph-name="uni04CA" unicode="&#x4ca;" horiz-adv-x="577" 
d="M423 -180l51 180h-71v217h-229v-217h-90v484h90v-201h229v201h90v-417h80l-70 -247h-80z" />
    <glyph glyph-name="uni04CB" unicode="&#x4cb;" horiz-adv-x="610" 
d="M368 67h61v182q-78 -40 -170 -40q-101 0 -145.5 40.5t-44.5 122.5v277h96v-269q0 -56 28.5 -79.5t88.5 -23.5q47 0 81.5 10t65.5 30v332h97v-649h-78v-180h-80v247z" />
    <glyph glyph-name="uni04CC" unicode="&#x4cc;" horiz-adv-x="573" 
d="M495 484v-484h-68v-124h-77v190h55v152q-13 -69 -159 -69q-93 0 -130.5 33.5t-37.5 105.5v196h90v-190q0 -46 24 -63t80 -17q55 0 83.5 7.5t39 24.5t10.5 48v190h90z" />
    <glyph glyph-name="uni04CD" unicode="&#x4cd;" horiz-adv-x="861" 
d="M706 -180l51 180h-65v549h-5l-209 -549h-87l-215 549h-5v-549h-87v649h145l208 -540l3 -1l197 541h140v-582h79l-70 -247h-80z" />
    <glyph glyph-name="uni04CE" unicode="&#x4ce;" horiz-adv-x="741" 
d="M587 -180l51 180h-64v402h-5l-149 -402h-91l-155 402h-5v-402h-85v484h145l147 -394h4l137 394h140v-417h80l-70 -247h-80z" />
    <glyph glyph-name="uni04CF" unicode="&#x4cf;" horiz-adv-x="265" 
d="M84 649h97v-649h-97v649z" />
    <glyph glyph-name="uni04D0" unicode="&#x4d0;" horiz-adv-x="652" 
d="M273 649h112l252 -649h-101l-74 197h-278l-73 -197h-96zM438 264l-110 293h-9l-110 -293h229zM213 752.5q-42 34.5 -45 92.5h74q9 -78 84 -78t84 78h74q-2 -57 -44 -92t-114 -35q-71 0 -113 34.5z" />
    <glyph glyph-name="uni04D1" unicode="&#x4d1;" horiz-adv-x="538" 
d="M120.5 3q-37.5 13 -54 46t-16.5 95q0 55 15.5 85.5t53 43.5t106.5 13h145v77q0 27 -10.5 41.5t-35 20.5t-71.5 6q-75 0 -166 -12v66q99 9 179 9q84 0 124 -12.5t55 -43.5t15 -96v-342h-87v46q-11 -56 -146 -56q-69 0 -106.5 13zM242 49q49 0 83 7q45 9 45 42v132h-139
q-43 0 -62 -6.5t-25 -24.5t-6 -58q0 -36 7 -55.5t25 -28t54 -8.5h18zM153 587.5q-39 34.5 -42 92.5h74q7 -78 74 -78q66 0 74 78h74q-2 -57 -41.5 -92t-106.5 -35t-106 34.5z" />
    <glyph glyph-name="uni04D2" unicode="&#x4d2;" horiz-adv-x="652" 
d="M273 649h112l252 -649h-101l-74 197h-278l-73 -197h-96zM438 264l-110 293h-9l-110 -293h229zM196 849h90v-94h-90v94zM366 849h90v-94h-90v94z" />
    <glyph glyph-name="uni04D3" unicode="&#x4d3;" horiz-adv-x="538" 
d="M120.5 3q-37.5 13 -54 46t-16.5 95q0 55 15.5 85.5t53 43.5t106.5 13h145v77q0 27 -10.5 41.5t-35 20.5t-71.5 6q-75 0 -166 -12v66q99 9 179 9q84 0 124 -12.5t55 -43.5t15 -96v-342h-87v46q-11 -56 -146 -56q-69 0 -106.5 13zM242 49q49 0 83 7q45 9 45 42v132h-139
q-43 0 -62 -6.5t-25 -24.5t-6 -58q0 -36 7 -55.5t25 -28t54 -8.5h18zM129 659h90v-94h-90v94zM299 659h90v-94h-90v94z" />
    <glyph glyph-name="uni04D4" unicode="&#x4d4;" horiz-adv-x="923" 
d="M358 649h505v-68h-309v-212h276v-68h-276v-233h319v-68h-416v197h-246l-102 -197h-109zM457 264v317h-48l-164 -317h212z" />
    <glyph glyph-name="uni04D5" unicode="&#x4d5;" horiz-adv-x="840" 
d="M120 2.5q-38 12.5 -54 44t-16 93.5q0 58 15 89t52 44t108 13h150v75q0 38 -25.5 54t-88.5 16q-108 0 -174 -17v66q78 14 186 14q118 0 158 -35q50 35 153 35q106 0 151.5 -36.5t45.5 -128.5v-107h-315v-73q0 -50 33 -72t105 -22q64 0 158 24v-69q-94 -20 -173 -20
q-127 0 -181 57q-13 -57 -178 -57q-72 0 -110 12.5zM691 281v76q0 45 -24 61t-87 16q-61 0 -87.5 -16.5t-26.5 -60.5v-76h225zM276 48q18 1 38 4q21 3 32.5 9t20.5 18q8 13 8 30v121h-144q-43 0 -62 -6.5t-25 -24.5t-6 -58q0 -39 7 -58t27 -27.5t62 -8.5q24 0 42 1z" />
    <glyph glyph-name="uni04D6" unicode="&#x4d6;" 
d="M84 649h436v-68h-339v-212h306v-68h-306v-233h349v-68h-446v649zM197 752.5q-42 34.5 -45 92.5h74q9 -78 84 -78t84 78h74q-2 -57 -44 -92t-114 -35q-71 0 -113 34.5z" />
    <glyph glyph-name="uni04D7" unicode="&#x4d7;" horiz-adv-x="535" 
d="M60 138v191q0 88 50.5 126.5t163.5 38.5q107 0 154.5 -37t47.5 -128v-107h-325v-73q0 -50 35 -72t108 -22q69 0 163 24v-69q-92 -20 -175 -20q-222 0 -222 148zM386 281v76q0 44 -26.5 60.5t-90.5 16.5q-62 0 -90 -16.5t-28 -60.5v-76h235zM172 587.5q-39 34.5 -42 92.5
h74q7 -78 74 -78q66 0 74 78h74q-2 -57 -41.5 -92t-106.5 -35t-106 34.5z" />
    <glyph glyph-name="uni04D8" unicode="&#x4d8;" horiz-adv-x="681" 
d="M176.5 11q-58.5 21 -86.5 68.5t-28 129.5v153h459v109q0 125 -223 125q-81 0 -211 -32v70q128 26 249 26q129 0 204 -49t75 -147v-255q0 -80 -29.5 -127.5t-92 -69.5t-163.5 -22q-95 0 -153.5 21zM473 77.5q48 23.5 48 80.5v135h-365v-135q0 -104 177 -104q92 0 140 23.5
z" />
    <glyph glyph-name="uni04D9" unicode="&#x4d9;" horiz-adv-x="535" 
d="M109.5 27q-47.5 37 -47.5 128v107h325v73q0 50 -35.5 72t-111.5 22q-65 0 -159 -24v69q97 20 187 20q97 0 153.5 -37t56.5 -111v-191q0 -88 -50.5 -126.5t-163.5 -38.5q-107 0 -154.5 37zM359 66.5q28 16.5 28 60.5v76h-235v-76q0 -43 26 -60t88 -17q65 0 93 16.5z" />
    <glyph glyph-name="uni04DA" unicode="&#x4da;" horiz-adv-x="681" 
d="M210 730v94h90v-94h-90zM380 730v94h90v-94h-90zM521 362v109q0 125 -223 125q-81 0 -211 -32v70q128 26 249 26q124 0 201 -47q78 -46 78 -149v-255q0 -80 -29.5 -127.5t-92 -69.5t-163.5 -22q-139 0 -204 48q-64 48 -64 171v153h459zM156 158q0 -104 177 -104
q92 0 140 23.5t48 80.5v135h-365v-135z" />
    <glyph glyph-name="uni04DB" unicode="&#x4db;" horiz-adv-x="535" 
d="M137 565v94h90v-94h-90zM307 565v94h90v-94h-90zM385 262v73q0 50 -35.5 72t-111.5 22q-65 0 -159 -24v69q97 20 187 20q97 0 153.5 -37t56.5 -111v-191q0 -88 -50.5 -126.5t-163.5 -38.5q-107 0 -154.5 37t-47.5 128v107h325zM150 127q0 -43 26 -60t88 -17q65 0 93 16.5
t28 60.5v76h-235v-76z" />
    <glyph glyph-name="uni04DC" unicode="&#x4dc;" horiz-adv-x="896" 
d="M886 0h-97l-95 176q-27 50 -55.5 77t-63 37.5t-83.5 10.5v-301h-88v301q-49 0 -83.5 -10.5t-63 -37.5t-55.5 -77l-95 -176h-97l106 203q30 57 70 90t93 47q-24 9 -44.5 23.5t-39.5 42.5l-165 243h106l135 -218q24 -39 54.5 -50.5t78.5 -11.5v280h88v-280q48 0 78.5 11.5
t54.5 50.5l135 218h106l-165 -243q-19 -28 -39.5 -42.5t-44.5 -23.5q53 -14 93 -47t70 -90zM318 849h90v-94h-90v94zM488 849h90v-94h-90v94z" />
    <glyph glyph-name="uni04DD" unicode="&#x4dd;" horiz-adv-x="753" 
d="M119 150q48 54 72.5 78t37.5 27l-220 229h110l148 -182q21 -27 68 -27v209h83v-209q47 0 68 27l148 182h110l-220 -229q13 -3 37.5 -27t72.5 -78l135 -150h-111l-132 150q-27 31 -53 49q-19 13 -27 16t-16 2.5t-12 -0.5v-217h-83v217q-4 0 -13 0.5t-18 -3.5t-24 -15
q-26 -18 -53 -49l-132 -150h-111zM247 659h90v-94h-90v94zM417 659h90v-94h-90v94z" />
    <glyph glyph-name="uni04DE" unicode="&#x4de;" 
d="M54 9v74q119 -25 199 -25q75 0 114 15.5t39 59.5v109q0 62 -134 62h-135v62h118q135 0 135 64v109q0 52 -130 52q-35 0 -117 -5l-76 -6v68q130 8 192 8q113 0 167.5 -25t54.5 -84v-121q0 -31 -25 -51.5t-64 -26.5v-4q24 -4 39.5 -8.5t33.5 -13.5q35 -18 35 -63v-130
q0 -78 -63 -108.5t-174 -30.5q-104 0 -209 19zM140 849h90v-94h-90v94zM310 849h90v-94h-90v94z" />
    <glyph glyph-name="uni04DF" unicode="&#x4df;" horiz-adv-x="473" 
d="M50 7v71q75 -22 136 -22q69 0 101 15.5t32 59.5v31q0 37 -32.5 49.5t-91.5 12.5h-55v62h38q61 0 93 14t32 50v30q0 52 -120 52q-63 0 -123 -12v65q57 9 122 9q77 0 120 -8t67 -30q25 -22 25 -71v-39q0 -32 -23.5 -52.5t-60.5 -26.5v-4q103 -16 103 -89v-50
q0 -34 -13.5 -60.5t-35.5 -40.5q-30 -19 -75.5 -26t-102.5 -7q-59 0 -136 17zM97 659h90v-94h-90v94zM267 659h90v-94h-90v94z" />
    <glyph glyph-name="uni04E0" unicode="&#x4e0;" horiz-adv-x="604" 
d="M525 582l-192 -201q84 -11 133 -62.5t49 -129.5q0 -93 -64.5 -147t-172.5 -54q-184 0 -240 195l82 21q12 -64 57 -107q44 -43 101 -43q64 0 105.5 37t41.5 95q0 60 -41 95.5t-114 35.5h-38v68l191 197h-363v67h465v-67z" />
    <glyph glyph-name="uni04E1" unicode="&#x4e1;" horiz-adv-x="545" 
d="M425 -122q-64 -69 -163 -69q-88 0 -147 51q-58 49 -66 137l86 7q10 -61 43 -94.5t84 -33.5q61 0 100 47q40 46 40 117q0 70 -41.5 110.5t-112.5 40.5h-42v71l152 159q-68 -3 -92 -3h-196v67h393v-54l-167 -171q85 -4 139 -64q55 -59 55 -149q0 -101 -65 -169z" />
    <glyph glyph-name="uni04E2" unicode="&#x4e2;" horiz-adv-x="723" 
d="M85 649h89v-526l367 526h89v-649h-89v535l-367 -535h-89v649zM203 829h288v-59h-288v59z" />
    <glyph glyph-name="uni04E3" unicode="&#x4e3;" horiz-adv-x="588" 
d="M510 484v-484h-90v357l-252 -357h-90v484h90v-369l257 369h85zM185 649h218v-59h-218v59z" />
    <glyph glyph-name="uni04E4" unicode="&#x4e4;" horiz-adv-x="723" 
d="M85 649h89v-526l367 526h89v-649h-89v535l-367 -535h-89v649zM222 849h90v-94h-90v94zM392 849h90v-94h-90v94z" />
    <glyph glyph-name="uni04E5" unicode="&#x4e5;" horiz-adv-x="588" 
d="M510 484v-484h-90v357l-252 -357h-90v484h90v-369l257 369h85zM164 659h90v-94h-90v94zM334 659h90v-94h-90v94z" />
    <glyph glyph-name="uni04E6" unicode="&#x4e6;" horiz-adv-x="679" 
d="M66 166v307q0 186 272 186q275 0 275 -185v-308q0 -94 -76 -135t-199 -41q-272 0 -272 176zM519 167v309q0 120 -180 120q-87 0 -133.5 -27t-46.5 -93v-309q0 -112 181 -112q179 0 179 112zM210 849h90v-94h-90v94zM380 849h90v-94h-90v94z" />
    <glyph glyph-name="uni04E7" unicode="&#x4e7;" horiz-adv-x="568" 
d="M187 -5.5q-32 4.5 -64 19.5q-33 15 -48 48.5t-15 90.5v168q0 45 11 79t29 53q15 17 45.5 26.5t62.5 12.5q36 2 75 2q52 0 78.5 -2.5t56.5 -10.5q31 -9 48 -27t29 -52q11 -35 11 -81v-168q0 -85 -39 -124q-16 -16 -46 -25t-62 -12q-38 -2 -76 -2q-64 0 -96 4.5zM344 51
q19 2 37 11q18 8 25.5 26.5t7.5 51.5v196q0 45 -11 65.5t-37.5 27t-82.5 6.5t-82.5 -6.5t-37.5 -27t-11 -65.5v-196q0 -33 7.5 -51.5t25.5 -26.5q18 -9 37 -11t61 -2t61 2zM154 659h90v-94h-90v94zM324 659h90v-94h-90v94z" />
    <glyph glyph-name="uni04E8" unicode="&#x4e8;" horiz-adv-x="679" 
d="M613 474v-308q0 -94 -76 -135t-199 -41q-272 0 -272 176v307q0 186 272 186q275 0 275 -185zM205.5 569q-46.5 -27 -46.5 -93v-107h360v107q0 120 -180 120q-87 0 -133.5 -27zM519 167v134h-360v-134q0 -112 181 -112q179 0 179 112z" />
    <glyph glyph-name="uni04E9" unicode="&#x4e9;" horiz-adv-x="568" 
d="M506 321v-168q0 -85 -39 -124q-16 -16 -46 -25t-62 -12q-38 -2 -76 -2q-64 0 -96 4.5t-64 19.5q-33 15 -48 48.5t-15 90.5v168q0 45 11 79t29 53q15 17 45.5 26.5t62.5 12.5q36 2 75 2q52 0 78.5 -2.5t56.5 -10.5q31 -9 48 -27t29 -52q11 -35 11 -81zM200.5 428.5
q-26.5 -6.5 -37.5 -27t-11 -65.5v-53h262v53q0 45 -11 65.5t-37.5 27t-82.5 6.5t-82.5 -6.5zM406.5 88.5q7.5 18.5 7.5 51.5v77h-262v-77q0 -33 7.5 -51.5t25.5 -26.5q18 -9 37 -11t61 -2t61 2t37 11q18 8 25.5 26.5z" />
    <glyph glyph-name="uni04EA" unicode="&#x4ea;" horiz-adv-x="679" 
d="M209 730v94h90v-94h-90zM379 730v94h90v-94h-90zM588 76.5q-25 -37.5 -70 -55.5q-43 -17 -85.5 -24t-94.5 -7q-272 0 -272 176v307q0 186 272 186q275 0 275 -185v-308q0 -52 -25 -89.5zM519 369v107q0 120 -180 120q-40 0 -68.5 -5t-54.5 -17q-27 -12 -42 -37t-15 -61
v-107h360zM159 301v-134q0 -112 181 -112q179 0 179 112v134h-360z" />
    <glyph glyph-name="uni04EB" unicode="&#x4eb;" horiz-adv-x="568" 
d="M154 565v94h90v-94h-90zM324 565v94h90v-94h-90zM467 29q-17 -17 -49 -26q-29 -8 -56 -10.5t-79 -2.5q-63 0 -94 4q-34 5 -67 19q-33 16 -47.5 49.5t-14.5 90.5v168q0 45 11 78.5t28 53.5q16 18 49 27q30 9 56.5 11.5t78.5 2.5t78.5 -2.5t56.5 -11.5q45 -13 64.5 -49
t23.5 -110v-168q0 -85 -39 -124zM414 273v63q0 67 -27 83q-26 16 -104 16t-104 -16q-27 -16 -27 -83v-63h262zM152 209v-69q0 -33 7.5 -51.5t25.5 -27.5q18 -8 37 -10t61 -2t61 2t37 10q18 9 25.5 27.5t7.5 51.5v69h-262z" />
    <glyph glyph-name="uni04EC" unicode="&#x4ec;" horiz-adv-x="563" 
d="M151 730v94h90v-94h-90zM321 730v94h90v-94h-90zM220 59q186 0 186 112v130h-330v67h330v107q0 36 -15 61t-43 36q-27 12 -55.5 16.5t-68.5 4.5q-80 0 -176 -24v72q85 19 178 19q273 0 273 -186v-308q0 -176 -273 -176q-97 0 -182 19v74q96 -24 176 -24z" />
    <glyph glyph-name="uni04ED" unicode="&#x4ed;" horiz-adv-x="464" 
d="M102 565v94h90v-94h-90zM272 565v94h90v-94h-90zM182 53q80 0 105 16t25 70v73h-244v68h244v59q0 62 -22 78q-20 16 -98 16q-69 0 -149 -20v66q69 15 138 15q30 0 60 -2q70 -2 99 -21q31 -20 47.5 -53.5t16.5 -91.5v-178q0 -43 -11.5 -74t-29.5 -48q-16 -16 -48 -25
q-32 -8 -56 -9q-32 -2 -68 -2q-87 0 -155 14v68q73 -19 146 -19z" />
    <glyph glyph-name="uni04EE" unicode="&#x4ee;" horiz-adv-x="544" 
d="M574 649l-250 -534q-21 -45 -39 -71t-43 -40t-62 -14q-40 0 -84 10v70q29 -7 61 -7q33 0 52 19.5t40 64.5l11 25l-260 477h108l196 -381l174 381h96zM144 829h288v-59h-288v59z" />
    <glyph glyph-name="uni04EF" unicode="&#x4ef;" horiz-adv-x="460" 
d="M193 -7l-187 491h98l135 -395h2l122 395h91l-243 -692h-94zM128 649h218v-59h-218v59z" />
    <glyph glyph-name="uni04F0" unicode="&#x4f0;" horiz-adv-x="544" 
d="M574 649l-250 -534q-21 -45 -39 -71t-43 -40t-62 -14q-40 0 -84 10v70q29 -7 61 -7q33 0 52 19.5t40 64.5l11 25l-260 477h108l196 -381l174 381h96zM163 849h90v-94h-90v94zM333 849h90v-94h-90v94z" />
    <glyph glyph-name="uni04F1" unicode="&#x4f1;" horiz-adv-x="460" 
d="M193 -7l-187 491h98l135 -395h2l122 395h91l-243 -692h-94zM107 659h90v-94h-90v94zM277 659h90v-94h-90v94z" />
    <glyph glyph-name="uni04F2" unicode="&#x4f2;" horiz-adv-x="544" 
d="M574 649l-250 -534q-21 -45 -39 -71t-43 -40t-62 -14q-40 0 -84 10v70q29 -7 61 -7q33 0 52 19.5t40 64.5l11 25l-260 477h108l196 -381l174 381h96zM246 860h76l-70 -128h-76zM373 860h76l-70 -128h-76z" />
    <glyph glyph-name="uni04F3" unicode="&#x4f3;" horiz-adv-x="460" 
d="M193 -7l-187 491h98l135 -395h2l122 395h91l-243 -692h-94zM198 680h76l-70 -128h-76zM325 680h76l-70 -128h-76z" />
    <glyph glyph-name="uni04F4" unicode="&#x4f4;" horiz-adv-x="610" 
d="M526 649v-649h-97v249q-78 -40 -170 -40q-101 0 -145.5 40.5t-44.5 122.5v277h96v-269q0 -56 28.5 -79.5t88.5 -23.5q47 0 81.5 10t65.5 30v332h97zM175 849h90v-94h-90v94zM345 849h90v-94h-90v94z" />
    <glyph glyph-name="uni04F5" unicode="&#x4f5;" horiz-adv-x="573" 
d="M405 218q-13 -69 -159 -69q-93 0 -130.5 33.5t-37.5 105.5v196h90v-190q0 -46 24 -63t80 -17q55 0 83.5 7.5t39 24.5t10.5 48v190h90v-484h-90v218zM157 659h90v-94h-90v94zM327 659h90v-94h-90v94z" />
    <glyph glyph-name="uni04F6" unicode="&#x4f6;" horiz-adv-x="510" 
d="M181 581v-513h70v-204h-84v136h-83v649h396v-68h-299z" />
    <glyph glyph-name="uni04F7" unicode="&#x4f7;" horiz-adv-x="420" 
d="M174 418v-352h68v-190h-77v124h-81v484h316v-66h-226z" />
    <glyph glyph-name="uni04F8" unicode="&#x4f8;" horiz-adv-x="786" 
d="M84 649h97v-240h77q81 0 132.5 -8.5t83 -37.5t31.5 -86v-136q0 -141 -229 -141h-192v649zM605 649h97v-649h-97v649zM269 66q70 0 105.5 17t35.5 62v121q0 32 -13 48t-42.5 22.5t-83.5 6.5h-91v-277h89zM263 849h90v-94h-90v94zM433 849h90v-94h-90v94z" />
    <glyph glyph-name="uni04F9" unicode="&#x4f9;" horiz-adv-x="678" 
d="M78 484h92v-175h94q62 0 98.5 -9t53.5 -31.5t17 -63.5v-100q0 -105 -177 -105h-178v484zM510 484h90v-484h-90v484zM250 58q29 0 60 8q35 9 35 51v61q0 29 -7.5 44t-27 21t-58.5 6h-83v-191h81zM209 659h90v-94h-90v94zM379 659h90v-94h-90v94z" />
    <glyph glyph-name="uni051A" unicode="&#x51a;" horiz-adv-x="676" 
d="M64 176v297q0 186 273 186q274 0 274 -185v-268q0 -92 -89 -151h160v-55h-345q-273 0 -273 176zM518 177v299q0 120 -180 120q-40 0 -69 -4.5t-55 -16.5q-57 -27 -57 -99v-299q0 -112 182 -112q179 0 179 112z" />
    <glyph glyph-name="uni051B" unicode="&#x51b;" horiz-adv-x="579" 
d="M429 31q-20 -41 -146 -41q-46 0 -73 3t-53 12q-27 10 -43 28t-26 49q-10 30 -10 76v179q0 84 52.5 120.5t174.5 36.5q116 0 165 -36.5t49 -120.5v-545h-90v239zM380.5 59.5q26.5 7.5 37.5 28t11 60.5v177q0 46 -11 67.5t-37 29t-79 7.5q-62 0 -88.5 -7t-35 -28t-8.5 -69
v-177q0 -41 12 -61t39.5 -27.5t79.5 -7.5q53 0 79.5 7.5z" />
    <glyph glyph-name="uni051C" unicode="&#x51c;" horiz-adv-x="968" 
d="M8 649h103l161 -557h2l161 557h103l161 -557h2l161 557h98l-209 -649h-113l-155 540l-159 -540h-113z" />
    <glyph glyph-name="uni051D" unicode="&#x51d;" horiz-adv-x="792" 
d="M12 484h99l118 -398h6l114 398h101l118 -398h6l114 398h92l-159 -484h-107l-117 391l-115 -391h-107z" />
    <glyph glyph-name="uni0524" unicode="&#x524;" horiz-adv-x="687" 
d="M673 68v-204h-84v136h-83v582h-325v-582h-97v649h519v-581h70z" />
    <glyph glyph-name="uni0525" unicode="&#x525;" horiz-adv-x="577" 
d="M561 66v-190h-77v124h-81v418h-229v-418h-90v484h409v-418h68z" />
    <glyph glyph-name="Wgrave" unicode="&#x1e80;" horiz-adv-x="968" 
d="M324 830h109l90 -127h-74zM8 649h103l161 -557h2l161 557h103l161 -557h2l161 557h98l-209 -649h-113l-155 540l-159 -540h-113z" />
    <glyph glyph-name="wgrave" unicode="&#x1e81;" horiz-adv-x="792" 
d="M242 680h109l90 -127h-74zM12 484h99l118 -398h6l114 398h101l118 -398h6l114 398h92l-159 -484h-107l-117 391l-115 -391h-107z" />
    <glyph glyph-name="Wacute" unicode="&#x1e82;" horiz-adv-x="968" 
d="M520 830h109l-125 -127h-74zM8 649h103l161 -557h2l161 557h103l161 -557h2l161 557h98l-209 -649h-113l-155 540l-159 -540h-113z" />
    <glyph glyph-name="wacute" unicode="&#x1e83;" horiz-adv-x="792" 
d="M12 484h99l118 -398h6l114 398h101l118 -398h6l114 398h92l-159 -484h-107l-117 391l-115 -391h-107zM436 680h109l-125 -127h-74z" />
    <glyph glyph-name="Wdieresis" unicode="&#x1e84;" horiz-adv-x="968" 
d="M353 829h90v-94h-90v94zM523 829h90v-94h-90v94zM8 649h103l161 -557h2l161 557h103l161 -557h2l161 557h98l-209 -649h-113l-155 540l-159 -540h-113z" />
    <glyph glyph-name="wdieresis" unicode="&#x1e85;" horiz-adv-x="792" 
d="M267 659h90v-94h-90v94zM437 659h90v-94h-90v94zM12 484h99l118 -398h6l114 398h101l118 -398h6l114 398h92l-159 -484h-107l-117 391l-115 -391h-107z" />
    <glyph glyph-name="uni1EA0" unicode="&#x1ea0;" horiz-adv-x="652" 
d="M273 649h112l252 -649h-101l-74 197h-278l-73 -197h-96zM438 264l-110 293h-9l-110 -293h229zM278 -62h95v-89h-95v89z" />
    <glyph glyph-name="uni1EA1" unicode="&#x1ea1;" horiz-adv-x="538" 
d="M120.5 3q-37.5 13 -54 46t-16.5 95q0 55 15.5 85.5t53 43.5t106.5 13h145v77q0 27 -10.5 41.5t-35 20.5t-71.5 6q-75 0 -166 -12v66q99 9 179 9q84 0 124 -12.5t55 -43.5t15 -96v-342h-87v46q-11 -56 -146 -56q-69 0 -106.5 13zM242 49q49 0 83 7q45 9 45 42v132h-139
q-43 0 -62 -6.5t-25 -24.5t-6 -58q0 -36 7 -55.5t25 -28t54 -8.5h18zM221 -62h95v-89h-95v89z" />
    <glyph glyph-name="uni1EA2" unicode="&#x1ea2;" horiz-adv-x="652" 
d="M273 649h112l252 -649h-101l-74 197h-278l-73 -197h-96zM438 264l-110 293h-9l-110 -293h229zM297 746q0 15 5 22t15 15q13 9 17 19t4 27q0 16 -10 21.5t-34 5.5q-14 0 -25.5 -3t-14.5 -4v55q10 4 19.5 5.5t27.5 1.5q49 0 72.5 -21.5t23.5 -57.5q0 -17 -5 -33.5
t-14 -23.5q-14 -11 -20 -18t-6 -20h-55v9z" />
    <glyph glyph-name="uni1EA3" unicode="&#x1ea3;" horiz-adv-x="538" 
d="M120.5 3q-37.5 13 -54 46t-16.5 95q0 55 15.5 85.5t53 43.5t106.5 13h145v77q0 27 -10.5 41.5t-35 20.5t-71.5 6q-75 0 -166 -12v66q99 9 179 9q84 0 124 -12.5t55 -43.5t15 -96v-342h-87v46q-11 -56 -146 -56q-69 0 -106.5 13zM242 49q49 0 83 7q45 9 45 42v132h-139
q-43 0 -62 -6.5t-25 -24.5t-6 -58q0 -36 7 -55.5t25 -28t54 -8.5h18zM240 581q0 15 5 22t15 15q13 9 17 19t4 27q0 16 -10 21.5t-34 5.5q-14 0 -25.5 -3t-14.5 -4v55q10 4 19.5 5.5t27.5 1.5q49 0 72.5 -21.5t23.5 -57.5q0 -17 -5 -33.5t-14 -23.5q-14 -11 -20 -18t-6 -20
h-55v9z" />
    <glyph glyph-name="uni1EA4" unicode="&#x1ea4;" horiz-adv-x="652" 
d="M470 887h109l-75 -96h-74zM273 845h107l66 -127h-58l-62 87l-63 -87h-58zM273 649h112l252 -649h-101l-74 197h-278l-73 -197h-96zM438 264l-110 293h-9l-110 -293h229z" />
    <glyph glyph-name="uni1EA5" unicode="&#x1ea5;" horiz-adv-x="538" 
d="M413 722h109l-75 -96h-74zM216 680h107l66 -127h-58l-62 87l-63 -87h-58zM120.5 3q-37.5 13 -54 46t-16.5 95q0 55 15.5 85.5t53 43.5t106.5 13h145v77q0 27 -10.5 41.5t-35 20.5t-71.5 6q-75 0 -166 -12v66q99 9 179 9q84 0 124 -12.5t55 -43.5t15 -96v-342h-87v46
q-11 -56 -146 -56q-69 0 -106.5 13zM242 49q49 0 83 7q45 9 45 42v132h-139q-43 0 -62 -6.5t-25 -24.5t-6 -58q0 -36 7 -55.5t25 -28t54 -8.5h18z" />
    <glyph glyph-name="uni1EA6" unicode="&#x1ea6;" horiz-adv-x="652" 
d="M396 907h109l31 -96h-74zM273 845h107l66 -127h-58l-62 87l-63 -87h-58zM273 649h112l252 -649h-101l-74 197h-278l-73 -197h-96zM438 264l-110 293h-9l-110 -293h229z" />
    <glyph glyph-name="uni1EA7" unicode="&#x1ea7;" horiz-adv-x="538" 
d="M339 742h109l31 -96h-74zM216 680h107l66 -127h-58l-62 87l-63 -87h-58zM120.5 3q-37.5 13 -54 46t-16.5 95q0 55 15.5 85.5t53 43.5t106.5 13h145v77q0 27 -10.5 41.5t-35 20.5t-71.5 6q-75 0 -166 -12v66q99 9 179 9q84 0 124 -12.5t55 -43.5t15 -96v-342h-87v46
q-11 -56 -146 -56q-69 0 -106.5 13zM242 49q49 0 83 7q45 9 45 42v132h-139q-43 0 -62 -6.5t-25 -24.5t-6 -58q0 -36 7 -55.5t25 -28t54 -8.5h18z" />
    <glyph glyph-name="uni1EA8" unicode="&#x1ea8;" horiz-adv-x="652" 
d="M273 649h112l252 -649h-101l-74 197h-278l-73 -197h-96zM438 264l-110 293h-9l-110 -293h229zM273 845h107l66 -127h-58l-62 87l-63 -87h-58zM444 802q0 15 5 22t15 15q13 9 17 19t4 27q0 16 -10 21.5t-34 5.5q-14 0 -25.5 -3t-14.5 -4v55q10 4 19.5 5.5t27.5 1.5
q49 0 72.5 -21.5t23.5 -57.5q0 -17 -5 -33.5t-14 -23.5q-14 -11 -20 -18t-6 -20h-55v9z" />
    <glyph glyph-name="uni1EA9" unicode="&#x1ea9;" horiz-adv-x="538" 
d="M120.5 3q-37.5 13 -54 46t-16.5 95q0 55 15.5 85.5t53 43.5t106.5 13h145v77q0 27 -10.5 41.5t-35 20.5t-71.5 6q-75 0 -166 -12v66q99 9 179 9q84 0 124 -12.5t55 -43.5t15 -96v-342h-87v46q-11 -56 -146 -56q-69 0 -106.5 13zM242 49q49 0 83 7q45 9 45 42v132h-139
q-43 0 -62 -6.5t-25 -24.5t-6 -58q0 -36 7 -55.5t25 -28t54 -8.5h18zM216 680h107l66 -127h-58l-62 87l-63 -87h-58zM387 637q0 15 5 22t15 15q13 9 17 19t4 27q0 16 -10 21.5t-34 5.5q-14 0 -25.5 -3t-14.5 -4v55q10 4 19.5 5.5t27.5 1.5q49 0 72.5 -21.5t23.5 -57.5
q0 -17 -5 -33.5t-14 -23.5q-14 -11 -20 -18t-6 -20h-55v9z" />
    <glyph glyph-name="uni1EAA" unicode="&#x1eaa;" horiz-adv-x="652" 
d="M273 649h112l252 -649h-101l-74 197h-278l-73 -197h-96zM438 264l-110 293h-9l-110 -293h229zM273 845h107l66 -127h-58l-62 87l-63 -87h-58zM189 889q7 27 28 47.5t54 20.5q23 0 62 -15q37 -15 54 -15q15 0 28 8t19 24l31 -18q-8 -28 -31 -50t-56 -22q-23 0 -65 17
q-39 16 -51 16q-29 0 -42 -33z" />
    <glyph glyph-name="uni1EAB" unicode="&#x1eab;" horiz-adv-x="538" 
d="M120.5 3q-37.5 13 -54 46t-16.5 95q0 55 15.5 85.5t53 43.5t106.5 13h145v77q0 27 -10.5 41.5t-35 20.5t-71.5 6q-75 0 -166 -12v66q99 9 179 9q84 0 124 -12.5t55 -43.5t15 -96v-342h-87v46q-11 -56 -146 -56q-69 0 -106.5 13zM242 49q49 0 83 7q45 9 45 42v132h-139
q-43 0 -62 -6.5t-25 -24.5t-6 -58q0 -36 7 -55.5t25 -28t54 -8.5h18zM216 680h107l66 -127h-58l-62 87l-63 -87h-58zM132 724q7 27 28 47.5t54 20.5q23 0 62 -15q37 -15 54 -15q15 0 28 8t19 24l31 -18q-8 -28 -31 -50t-56 -22q-23 0 -65 17q-39 16 -51 16q-29 0 -42 -33z
" />
    <glyph glyph-name="uni1EAC" unicode="&#x1eac;" horiz-adv-x="652" 
d="M273 649h112l252 -649h-101l-74 197h-278l-73 -197h-96zM438 264l-110 293h-9l-110 -293h229zM278 -62h95v-89h-95v89zM273 832h107l66 -127h-58l-62 87l-63 -87h-58z" />
    <glyph glyph-name="uni1EAD" unicode="&#x1ead;" horiz-adv-x="538" 
d="M120.5 3q-37.5 13 -54 46t-16.5 95q0 55 15.5 85.5t53 43.5t106.5 13h145v77q0 27 -10.5 41.5t-35 20.5t-71.5 6q-75 0 -166 -12v66q99 9 179 9q84 0 124 -12.5t55 -43.5t15 -96v-342h-87v46q-11 -56 -146 -56q-69 0 -106.5 13zM242 49q49 0 83 7q45 9 45 42v132h-139
q-43 0 -62 -6.5t-25 -24.5t-6 -58q0 -36 7 -55.5t25 -28t54 -8.5h18zM221 -62h95v-89h-95v89zM216 680h107l66 -127h-58l-62 87l-63 -87h-58z" />
    <glyph glyph-name="uni1EAE" unicode="&#x1eae;" horiz-adv-x="652" 
d="M330 964h109l-75 -96h-74zM241.5 752.5q-31.5 34.5 -33.5 92.5h54q6 -68 64 -68t64 68h54q-1 -57 -33 -92t-85 -35t-84.5 34.5zM273 649h112l252 -649h-101l-74 197h-278l-73 -197h-96zM438 264l-110 293h-9l-110 -293h229z" />
    <glyph glyph-name="uni1EAF" unicode="&#x1eaf;" horiz-adv-x="538" 
d="M273 799h109l-75 -96h-74zM184.5 587.5q-31.5 34.5 -33.5 92.5h54q6 -68 64 -68t64 68h54q-1 -57 -33 -92t-85 -35t-84.5 34.5zM120.5 3q-37.5 13 -54 46t-16.5 95q0 55 15.5 85.5t53 43.5t106.5 13h145v77q0 27 -10.5 41.5t-35 20.5t-71.5 6q-75 0 -166 -12v66
q99 9 179 9q84 0 124 -12.5t55 -43.5t15 -96v-342h-87v46q-11 -56 -146 -56q-69 0 -106.5 13zM242 49q49 0 83 7q45 9 45 42v132h-139q-43 0 -62 -6.5t-25 -24.5t-6 -58q0 -36 7 -55.5t25 -28t54 -8.5h18z" />
    <glyph glyph-name="uni1EB0" unicode="&#x1eb0;" horiz-adv-x="652" 
d="M230 962h109l31 -96h-74zM241.5 752.5q-31.5 34.5 -33.5 92.5h54q6 -68 64 -68t64 68h54q-1 -57 -33 -92t-85 -35t-84.5 34.5zM273 649h112l252 -649h-101l-74 197h-278l-73 -197h-96zM438 264l-110 293h-9l-110 -293h229z" />
    <glyph glyph-name="uni1EB1" unicode="&#x1eb1;" horiz-adv-x="538" 
d="M173 797h109l31 -96h-74zM184.5 587.5q-31.5 34.5 -33.5 92.5h54q6 -68 64 -68t64 68h54q-1 -57 -33 -92t-85 -35t-84.5 34.5zM120.5 3q-37.5 13 -54 46t-16.5 95q0 55 15.5 85.5t53 43.5t106.5 13h145v77q0 27 -10.5 41.5t-35 20.5t-71.5 6q-75 0 -166 -12v66
q99 9 179 9q84 0 124 -12.5t55 -43.5t15 -96v-342h-87v46q-11 -56 -146 -56q-69 0 -106.5 13zM242 49q49 0 83 7q45 9 45 42v132h-139q-43 0 -62 -6.5t-25 -24.5t-6 -58q0 -36 7 -55.5t25 -28t54 -8.5h18z" />
    <glyph glyph-name="uni1EB2" unicode="&#x1eb2;" horiz-adv-x="652" 
d="M273 649h112l252 -649h-101l-74 197h-278l-73 -197h-96zM438 264l-110 293h-9l-110 -293h229zM241.5 752.5q-31.5 34.5 -33.5 92.5h54q6 -68 64 -68t64 68h54q-1 -57 -33 -92t-85 -35t-84.5 34.5zM297 870q0 15 5 22t15 15q13 9 17 19t4 27q0 16 -10 21.5t-34 5.5
q-14 0 -25.5 -3t-14.5 -4v55q10 4 19.5 5.5t27.5 1.5q49 0 72.5 -21.5t23.5 -57.5q0 -17 -5 -33.5t-14 -23.5q-14 -11 -20 -18t-6 -20h-55v9z" />
    <glyph glyph-name="uni1EB3" unicode="&#x1eb3;" horiz-adv-x="538" 
d="M120.5 3q-37.5 13 -54 46t-16.5 95q0 55 15.5 85.5t53 43.5t106.5 13h145v77q0 27 -10.5 41.5t-35 20.5t-71.5 6q-75 0 -166 -12v66q99 9 179 9q84 0 124 -12.5t55 -43.5t15 -96v-342h-87v46q-11 -56 -146 -56q-69 0 -106.5 13zM242 49q49 0 83 7q45 9 45 42v132h-139
q-43 0 -62 -6.5t-25 -24.5t-6 -58q0 -36 7 -55.5t25 -28t54 -8.5h18zM184.5 587.5q-31.5 34.5 -33.5 92.5h54q6 -68 64 -68t64 68h54q-1 -57 -33 -92t-85 -35t-84.5 34.5zM240 705q0 15 5 22t15 15q13 9 17 19t4 27q0 16 -10 21.5t-34 5.5q-14 0 -25.5 -3t-14.5 -4v55
q10 4 19.5 5.5t27.5 1.5q49 0 72.5 -21.5t23.5 -57.5q0 -17 -5 -33.5t-14 -23.5q-14 -11 -20 -18t-6 -20h-55v9z" />
    <glyph glyph-name="uni1EB4" unicode="&#x1eb4;" horiz-adv-x="652" 
d="M273 649h112l252 -649h-101l-74 197h-278l-73 -197h-96zM438 264l-110 293h-9l-110 -293h229zM241.5 752.5q-31.5 34.5 -33.5 92.5h54q6 -68 64 -68t64 68h54q-1 -57 -33 -92t-85 -35t-84.5 34.5zM199 897q7 27 28 47.5t54 20.5q23 0 62 -15q37 -15 54 -15q15 0 28 8
t19 24l31 -18q-8 -28 -31 -50t-56 -22q-23 0 -65 17q-39 16 -51 16q-29 0 -42 -33z" />
    <glyph glyph-name="uni1EB5" unicode="&#x1eb5;" horiz-adv-x="538" 
d="M120.5 3q-37.5 13 -54 46t-16.5 95q0 55 15.5 85.5t53 43.5t106.5 13h145v77q0 27 -10.5 41.5t-35 20.5t-71.5 6q-75 0 -166 -12v66q99 9 179 9q84 0 124 -12.5t55 -43.5t15 -96v-342h-87v46q-11 -56 -146 -56q-69 0 -106.5 13zM242 49q49 0 83 7q45 9 45 42v132h-139
q-43 0 -62 -6.5t-25 -24.5t-6 -58q0 -36 7 -55.5t25 -28t54 -8.5h18zM184.5 587.5q-31.5 34.5 -33.5 92.5h54q6 -68 64 -68t64 68h54q-1 -57 -33 -92t-85 -35t-84.5 34.5zM142 732q7 27 28 47.5t54 20.5q23 0 62 -15q37 -15 54 -15q15 0 28 8t19 24l31 -18q-8 -28 -31 -50
t-56 -22q-23 0 -65 17q-39 16 -51 16q-29 0 -42 -33z" />
    <glyph glyph-name="uni1EB6" unicode="&#x1eb6;" horiz-adv-x="652" 
d="M273 649h112l252 -649h-101l-74 197h-278l-73 -197h-96zM438 264l-110 293h-9l-110 -293h229zM278 -62h95v-89h-95v89zM242 748q-31 34 -34 93h36q13 -37 31 -52.5t51 -15.5t51.5 16t29.5 52h37q-4 -59 -35 -93t-83 -34q-53 0 -84 34z" />
    <glyph glyph-name="uni1EB7" unicode="&#x1eb7;" horiz-adv-x="538" 
d="M120.5 3q-37.5 13 -54 46t-16.5 95q0 55 15.5 85.5t53 43.5t106.5 13h145v77q0 27 -10.5 41.5t-35 20.5t-71.5 6q-75 0 -166 -12v66q99 9 179 9q84 0 124 -12.5t55 -43.5t15 -96v-342h-87v46q-11 -56 -146 -56q-69 0 -106.5 13zM242 49q49 0 83 7q45 9 45 42v132h-139
q-43 0 -62 -6.5t-25 -24.5t-6 -58q0 -36 7 -55.5t25 -28t54 -8.5h18zM221 -62h95v-89h-95v89zM184.5 587.5q-31.5 34.5 -33.5 92.5h54q6 -68 64 -68t64 68h54q-1 -57 -33 -92t-85 -35t-84.5 34.5z" />
    <glyph glyph-name="uni1EB8" unicode="&#x1eb8;" 
d="M84 649h436v-68h-339v-212h306v-68h-306v-233h349v-68h-446v649zM242 -62h95v-89h-95v89z" />
    <glyph glyph-name="uni1EB9" unicode="&#x1eb9;" horiz-adv-x="535" 
d="M60 138v191q0 88 50.5 126.5t163.5 38.5q107 0 154.5 -37t47.5 -128v-107h-325v-73q0 -50 35 -72t108 -22q69 0 163 24v-69q-92 -20 -175 -20q-222 0 -222 148zM386 281v76q0 44 -26.5 60.5t-90.5 16.5q-62 0 -90 -16.5t-28 -60.5v-76h235zM220 -62h95v-89h-95v89z" />
    <glyph glyph-name="uni1EBA" unicode="&#x1eba;" 
d="M84 649h436v-68h-339v-212h306v-68h-306v-233h349v-68h-446v649zM261 746q0 15 5 22t15 15q13 9 17 19t4 27q0 16 -10 21.5t-34 5.5q-14 0 -25.5 -3t-14.5 -4v55q10 4 19.5 5.5t27.5 1.5q49 0 72.5 -21.5t23.5 -57.5q0 -17 -5 -33.5t-14 -23.5q-14 -11 -20 -18t-6 -20
h-55v9z" />
    <glyph glyph-name="uni1EBB" unicode="&#x1ebb;" horiz-adv-x="535" 
d="M60 138v191q0 88 50.5 126.5t163.5 38.5q107 0 154.5 -37t47.5 -128v-107h-325v-73q0 -50 35 -72t108 -22q69 0 163 24v-69q-92 -20 -175 -20q-222 0 -222 148zM386 281v76q0 44 -26.5 60.5t-90.5 16.5q-62 0 -90 -16.5t-28 -60.5v-76h235zM239 581q0 15 5 22t15 15
q13 9 17 19t4 27q0 16 -10 21.5t-34 5.5q-14 0 -25.5 -3t-14.5 -4v55q10 4 19.5 5.5t27.5 1.5q49 0 72.5 -21.5t23.5 -57.5q0 -17 -5 -33.5t-14 -23.5q-14 -11 -20 -18t-6 -20h-55v9z" />
    <glyph glyph-name="uni1EBC" unicode="&#x1ebc;" 
d="M84 649h436v-68h-339v-212h306v-68h-306v-233h349v-68h-446v649zM160.5 786.5q28.5 21.5 70.5 21.5q20 0 43 -6.5t27 -7.5q33 -11 47 -11q33 0 33 33l65 -1q-1 -53 -26.5 -74.5t-71.5 -21.5q-9 0 -23.5 4.5t-29.5 9.5q-17 5 -34.5 10t-29.5 5q-35 0 -36 -29h-64
q1 46 29.5 67.5z" />
    <glyph glyph-name="uni1EBD" unicode="&#x1ebd;" horiz-adv-x="535" 
d="M60 138v191q0 88 50.5 126.5t163.5 38.5q107 0 154.5 -37t47.5 -128v-107h-325v-73q0 -50 35 -72t108 -22q69 0 163 24v-69q-92 -20 -175 -20q-222 0 -222 148zM386 281v76q0 44 -26.5 60.5t-90.5 16.5q-62 0 -90 -16.5t-28 -60.5v-76h235zM131 576q7 27 28 47.5t54 20.5
q23 0 62 -15q37 -15 54 -15q15 0 28 8t19 24l31 -18q-8 -28 -31 -50t-56 -22q-23 0 -65 17q-39 16 -51 16q-29 0 -42 -33z" />
    <glyph glyph-name="uni1EBE" unicode="&#x1ebe;" 
d="M434 887h109l-75 -96h-74zM237 845h107l66 -127h-58l-62 87l-63 -87h-58zM84 649h436v-68h-339v-212h306v-68h-306v-233h349v-68h-446v649z" />
    <glyph glyph-name="uni1EBF" unicode="&#x1ebf;" horiz-adv-x="535" 
d="M412 722h109l-75 -96h-74zM215 680h107l66 -127h-58l-62 87l-63 -87h-58zM60 138v191q0 88 50.5 126.5t163.5 38.5q107 0 154.5 -37t47.5 -128v-107h-325v-73q0 -50 35 -72t108 -22q69 0 163 24v-69q-92 -20 -175 -20q-222 0 -222 148zM386 281v76q0 44 -26.5 60.5
t-90.5 16.5q-62 0 -90 -16.5t-28 -60.5v-76h235z" />
    <glyph glyph-name="uni1EC0" unicode="&#x1ec0;" 
d="M360 907h109l31 -96h-74zM237 845h107l66 -127h-58l-62 87l-63 -87h-58zM84 649h436v-68h-339v-212h306v-68h-306v-233h349v-68h-446v649z" />
    <glyph glyph-name="uni1EC1" unicode="&#x1ec1;" horiz-adv-x="535" 
d="M338 742h109l31 -96h-74zM215 680h107l66 -127h-58l-62 87l-63 -87h-58zM60 138v191q0 88 50.5 126.5t163.5 38.5q107 0 154.5 -37t47.5 -128v-107h-325v-73q0 -50 35 -72t108 -22q69 0 163 24v-69q-92 -20 -175 -20q-222 0 -222 148zM386 281v76q0 44 -26.5 60.5
t-90.5 16.5q-62 0 -90 -16.5t-28 -60.5v-76h235z" />
    <glyph glyph-name="uni1EC2" unicode="&#x1ec2;" 
d="M84 649h436v-68h-339v-212h306v-68h-306v-233h349v-68h-446v649zM237 845h107l66 -127h-58l-62 87l-63 -87h-58zM408 802q0 15 5 22t15 15q13 9 17 19t4 27q0 16 -10 21.5t-34 5.5q-14 0 -25.5 -3t-14.5 -4v55q10 4 19.5 5.5t27.5 1.5q49 0 72.5 -21.5t23.5 -57.5
q0 -17 -5 -33.5t-14 -23.5q-14 -11 -20 -18t-6 -20h-55v9z" />
    <glyph glyph-name="uni1EC3" unicode="&#x1ec3;" horiz-adv-x="535" 
d="M60 138v191q0 88 50.5 126.5t163.5 38.5q107 0 154.5 -37t47.5 -128v-107h-325v-73q0 -50 35 -72t108 -22q69 0 163 24v-69q-92 -20 -175 -20q-222 0 -222 148zM386 281v76q0 44 -26.5 60.5t-90.5 16.5q-62 0 -90 -16.5t-28 -60.5v-76h235zM215 680h107l66 -127h-58
l-62 87l-63 -87h-58zM386 637q0 15 5 22t15 15q13 9 17 19t4 27q0 16 -10 21.5t-34 5.5q-14 0 -25.5 -3t-14.5 -4v55q10 4 19.5 5.5t27.5 1.5q49 0 72.5 -21.5t23.5 -57.5q0 -17 -5 -33.5t-14 -23.5q-14 -11 -20 -18t-6 -20h-55v9z" />
    <glyph glyph-name="uni1EC4" unicode="&#x1ec4;" 
d="M84 649h436v-68h-339v-212h306v-68h-306v-233h349v-68h-446v649zM237 845h107l66 -127h-58l-62 87l-63 -87h-58zM153 889q7 27 28 47.5t54 20.5q23 0 62 -15q37 -15 54 -15q15 0 28 8t19 24l31 -18q-8 -28 -31 -50t-56 -22q-23 0 -65 17q-39 16 -51 16q-29 0 -42 -33z
" />
    <glyph glyph-name="uni1EC5" unicode="&#x1ec5;" horiz-adv-x="535" 
d="M60 138v191q0 88 50.5 126.5t163.5 38.5q107 0 154.5 -37t47.5 -128v-107h-325v-73q0 -50 35 -72t108 -22q69 0 163 24v-69q-92 -20 -175 -20q-222 0 -222 148zM386 281v76q0 44 -26.5 60.5t-90.5 16.5q-62 0 -90 -16.5t-28 -60.5v-76h235zM215 680h107l66 -127h-58
l-62 87l-63 -87h-58zM131 724q7 27 28 47.5t54 20.5q23 0 62 -15q37 -15 54 -15q15 0 28 8t19 24l31 -18q-8 -28 -31 -50t-56 -22q-23 0 -65 17q-39 16 -51 16q-29 0 -42 -33z" />
    <glyph glyph-name="uni1EC6" unicode="&#x1ec6;" 
d="M84 649h436v-68h-339v-212h306v-68h-306v-233h349v-68h-446v649zM242 -62h95v-89h-95v89zM237 832h107l66 -127h-58l-62 87l-63 -87h-58z" />
    <glyph glyph-name="uni1EC7" unicode="&#x1ec7;" horiz-adv-x="535" 
d="M60 138v191q0 88 50.5 126.5t163.5 38.5q107 0 154.5 -37t47.5 -128v-107h-325v-73q0 -50 35 -72t108 -22q69 0 163 24v-69q-92 -20 -175 -20q-222 0 -222 148zM386 281v76q0 44 -26.5 60.5t-90.5 16.5q-62 0 -90 -16.5t-28 -60.5v-76h235zM220 -62h95v-89h-95v89z
M215 680h107l66 -127h-58l-62 87l-63 -87h-58z" />
    <glyph glyph-name="uni1EC8" unicode="&#x1ec8;" horiz-adv-x="265" 
d="M84 649h97v-649h-97v649zM104 746q0 15 5 22t15 15q13 9 17 19t4 27q0 16 -10 21.5t-34 5.5q-14 0 -25.5 -3t-14.5 -4v55q10 4 19.5 5.5t27.5 1.5q49 0 72.5 -21.5t23.5 -57.5q0 -17 -5 -33.5t-14 -23.5q-14 -11 -20 -18t-6 -20h-55v9z" />
    <glyph glyph-name="uni1EC9" unicode="&#x1ec9;" horiz-adv-x="246" 
d="M79 484h90v-484h-90v484zM94 581q0 15 5 22t15 15q13 9 17 19t4 27q0 16 -10 21.5t-34 5.5q-14 0 -25.5 -3t-14.5 -4v55q10 4 19.5 5.5t27.5 1.5q49 0 72.5 -21.5t23.5 -57.5q0 -17 -5 -33.5t-14 -23.5q-14 -11 -20 -18t-6 -20h-55v9z" />
    <glyph glyph-name="uni1ECA" unicode="&#x1eca;" horiz-adv-x="265" 
d="M84 649h97v-649h-97v649zM85 -62h95v-89h-95v89z" />
    <glyph glyph-name="uni1ECB" unicode="&#x1ecb;" horiz-adv-x="246" 
d="M78 659h90v-94h-90v94zM78 484h90v-484h-90v484zM75 -62h95v-89h-95v89z" />
    <glyph glyph-name="uni1ECC" unicode="&#x1ecc;" horiz-adv-x="679" 
d="M66 166v307q0 186 272 186q275 0 275 -185v-308q0 -94 -76 -135t-199 -41q-272 0 -272 176zM519 167v309q0 120 -180 120q-87 0 -133.5 -27t-46.5 -93v-309q0 -112 181 -112q179 0 179 112zM292 -62h95v-89h-95v89z" />
    <glyph glyph-name="uni1ECD" unicode="&#x1ecd;" horiz-adv-x="568" 
d="M187 -5.5q-32 4.5 -64 19.5q-33 15 -48 48.5t-15 90.5v168q0 45 11 79t29 53q15 17 45.5 26.5t62.5 12.5q36 2 75 2q52 0 78.5 -2.5t56.5 -10.5q31 -9 48 -27t29 -52q11 -35 11 -81v-168q0 -85 -39 -124q-16 -16 -46 -25t-62 -12q-38 -2 -76 -2q-64 0 -96 4.5zM344 51
q19 2 37 11q18 8 25.5 26.5t7.5 51.5v196q0 45 -11 65.5t-37.5 27t-82.5 6.5t-82.5 -6.5t-37.5 -27t-11 -65.5v-196q0 -33 7.5 -51.5t25.5 -26.5q18 -9 37 -11t61 -2t61 2zM236 -62h95v-89h-95v89z" />
    <glyph glyph-name="uni1ECE" unicode="&#x1ece;" horiz-adv-x="679" 
d="M66 166v307q0 186 272 186q275 0 275 -185v-308q0 -94 -76 -135t-199 -41q-272 0 -272 176zM519 167v309q0 120 -180 120q-87 0 -133.5 -27t-46.5 -93v-309q0 -112 181 -112q179 0 179 112zM311 746q0 15 5 22t15 15q13 9 17 19t4 27q0 16 -10 21.5t-34 5.5
q-14 0 -25.5 -3t-14.5 -4v55q10 4 19.5 5.5t27.5 1.5q49 0 72.5 -21.5t23.5 -57.5q0 -17 -5 -33.5t-14 -23.5q-14 -11 -20 -18t-6 -20h-55v9z" />
    <glyph glyph-name="uni1ECF" unicode="&#x1ecf;" horiz-adv-x="568" 
d="M187 -5.5q-32 4.5 -64 19.5q-33 15 -48 48.5t-15 90.5v168q0 45 11 79t29 53q15 17 45.5 26.5t62.5 12.5q36 2 75 2q52 0 78.5 -2.5t56.5 -10.5q31 -9 48 -27t29 -52q11 -35 11 -81v-168q0 -85 -39 -124q-16 -16 -46 -25t-62 -12q-38 -2 -76 -2q-64 0 -96 4.5zM344 51
q19 2 37 11q18 8 25.5 26.5t7.5 51.5v196q0 45 -11 65.5t-37.5 27t-82.5 6.5t-82.5 -6.5t-37.5 -27t-11 -65.5v-196q0 -33 7.5 -51.5t25.5 -26.5q18 -9 37 -11t61 -2t61 2zM255 581q0 15 5 22t15 15q13 9 17 19t4 27q0 16 -10 21.5t-34 5.5q-14 0 -25.5 -3t-14.5 -4v55
q10 4 19.5 5.5t27.5 1.5q49 0 72.5 -21.5t23.5 -57.5q0 -17 -5 -33.5t-14 -23.5q-14 -11 -20 -18t-6 -20h-55v9z" />
    <glyph glyph-name="uni1ED0" unicode="&#x1ed0;" horiz-adv-x="679" 
d="M484 887h109l-75 -96h-74zM287 845h107l66 -127h-58l-62 87l-63 -87h-58zM66 166v307q0 186 272 186q275 0 275 -185v-308q0 -94 -76 -135t-199 -41q-272 0 -272 176zM519 167v309q0 120 -180 120q-87 0 -133.5 -27t-46.5 -93v-309q0 -112 181 -112q179 0 179 112z" />
    <glyph glyph-name="uni1ED1" unicode="&#x1ed1;" horiz-adv-x="568" 
d="M428 722h109l-75 -96h-74zM231 680h107l66 -127h-58l-62 87l-63 -87h-58zM187 -5.5q-32 4.5 -64 19.5q-33 15 -48 48.5t-15 90.5v168q0 45 11 79t29 53q15 17 45.5 26.5t62.5 12.5q36 2 75 2q52 0 78.5 -2.5t56.5 -10.5q31 -9 48 -27t29 -52q11 -35 11 -81v-168
q0 -85 -39 -124q-16 -16 -46 -25t-62 -12q-38 -2 -76 -2q-64 0 -96 4.5zM344 51q19 2 37 11q18 8 25.5 26.5t7.5 51.5v196q0 45 -11 65.5t-37.5 27t-82.5 6.5t-82.5 -6.5t-37.5 -27t-11 -65.5v-196q0 -33 7.5 -51.5t25.5 -26.5q18 -9 37 -11t61 -2t61 2z" />
    <glyph glyph-name="uni1ED2" unicode="&#x1ed2;" horiz-adv-x="679" 
d="M410 907h109l31 -96h-74zM287 845h107l66 -127h-58l-62 87l-63 -87h-58zM66 166v307q0 186 272 186q275 0 275 -185v-308q0 -94 -76 -135t-199 -41q-272 0 -272 176zM519 167v309q0 120 -180 120q-87 0 -133.5 -27t-46.5 -93v-309q0 -112 181 -112q179 0 179 112z" />
    <glyph glyph-name="uni1ED3" unicode="&#x1ed3;" horiz-adv-x="568" 
d="M354 742h109l31 -96h-74zM231 680h107l66 -127h-58l-62 87l-63 -87h-58zM187 -5.5q-32 4.5 -64 19.5q-33 15 -48 48.5t-15 90.5v168q0 45 11 79t29 53q15 17 45.5 26.5t62.5 12.5q36 2 75 2q52 0 78.5 -2.5t56.5 -10.5q31 -9 48 -27t29 -52q11 -35 11 -81v-168
q0 -85 -39 -124q-16 -16 -46 -25t-62 -12q-38 -2 -76 -2q-64 0 -96 4.5zM344 51q19 2 37 11q18 8 25.5 26.5t7.5 51.5v196q0 45 -11 65.5t-37.5 27t-82.5 6.5t-82.5 -6.5t-37.5 -27t-11 -65.5v-196q0 -33 7.5 -51.5t25.5 -26.5q18 -9 37 -11t61 -2t61 2z" />
    <glyph glyph-name="uni1ED4" unicode="&#x1ed4;" horiz-adv-x="679" 
d="M66 166v307q0 186 272 186q275 0 275 -185v-308q0 -94 -76 -135t-199 -41q-272 0 -272 176zM519 167v309q0 120 -180 120q-87 0 -133.5 -27t-46.5 -93v-309q0 -112 181 -112q179 0 179 112zM287 845h107l66 -127h-58l-62 87l-63 -87h-58zM458 802q0 15 5 22t15 15
q13 9 17 19t4 27q0 16 -10 21.5t-34 5.5q-14 0 -25.5 -3t-14.5 -4v55q10 4 19.5 5.5t27.5 1.5q49 0 72.5 -21.5t23.5 -57.5q0 -17 -5 -33.5t-14 -23.5q-14 -11 -20 -18t-6 -20h-55v9z" />
    <glyph glyph-name="uni1ED5" unicode="&#x1ed5;" horiz-adv-x="568" 
d="M187 -5.5q-32 4.5 -64 19.5q-33 15 -48 48.5t-15 90.5v168q0 45 11 79t29 53q15 17 45.5 26.5t62.5 12.5q36 2 75 2q52 0 78.5 -2.5t56.5 -10.5q31 -9 48 -27t29 -52q11 -35 11 -81v-168q0 -85 -39 -124q-16 -16 -46 -25t-62 -12q-38 -2 -76 -2q-64 0 -96 4.5zM344 51
q19 2 37 11q18 8 25.5 26.5t7.5 51.5v196q0 45 -11 65.5t-37.5 27t-82.5 6.5t-82.5 -6.5t-37.5 -27t-11 -65.5v-196q0 -33 7.5 -51.5t25.5 -26.5q18 -9 37 -11t61 -2t61 2zM231 680h107l66 -127h-58l-62 87l-63 -87h-58zM402 637q0 15 5 22t15 15q13 9 17 19t4 27
q0 16 -10 21.5t-34 5.5q-14 0 -25.5 -3t-14.5 -4v55q10 4 19.5 5.5t27.5 1.5q49 0 72.5 -21.5t23.5 -57.5q0 -17 -5 -33.5t-14 -23.5q-14 -11 -20 -18t-6 -20h-55v9z" />
    <glyph glyph-name="uni1ED6" unicode="&#x1ed6;" horiz-adv-x="679" 
d="M66 166v307q0 186 272 186q275 0 275 -185v-308q0 -94 -76 -135t-199 -41q-272 0 -272 176zM519 167v309q0 120 -180 120q-87 0 -133.5 -27t-46.5 -93v-309q0 -112 181 -112q179 0 179 112zM287 845h107l66 -127h-58l-62 87l-63 -87h-58zM203 889q7 27 28 47.5t54 20.5
q23 0 62 -15q37 -15 54 -15q15 0 28 8t19 24l31 -18q-8 -28 -31 -50t-56 -22q-23 0 -65 17q-39 16 -51 16q-29 0 -42 -33z" />
    <glyph glyph-name="uni1ED7" unicode="&#x1ed7;" horiz-adv-x="568" 
d="M187 -5.5q-32 4.5 -64 19.5q-33 15 -48 48.5t-15 90.5v168q0 45 11 79t29 53q15 17 45.5 26.5t62.5 12.5q36 2 75 2q52 0 78.5 -2.5t56.5 -10.5q31 -9 48 -27t29 -52q11 -35 11 -81v-168q0 -85 -39 -124q-16 -16 -46 -25t-62 -12q-38 -2 -76 -2q-64 0 -96 4.5zM344 51
q19 2 37 11q18 8 25.5 26.5t7.5 51.5v196q0 45 -11 65.5t-37.5 27t-82.5 6.5t-82.5 -6.5t-37.5 -27t-11 -65.5v-196q0 -33 7.5 -51.5t25.5 -26.5q18 -9 37 -11t61 -2t61 2zM231 680h107l66 -127h-58l-62 87l-63 -87h-58zM147 724q7 27 28 47.5t54 20.5q23 0 62 -15
q37 -15 54 -15q15 0 28 8t19 24l31 -18q-8 -28 -31 -50t-56 -22q-23 0 -65 17q-39 16 -51 16q-29 0 -42 -33z" />
    <glyph glyph-name="uni1ED8" unicode="&#x1ed8;" horiz-adv-x="679" 
d="M66 166v307q0 186 272 186q275 0 275 -185v-308q0 -94 -76 -135t-199 -41q-272 0 -272 176zM519 167v309q0 120 -180 120q-87 0 -133.5 -27t-46.5 -93v-309q0 -112 181 -112q179 0 179 112zM292 -62h95v-89h-95v89zM287 832h107l66 -127h-58l-62 87l-63 -87h-58z" />
    <glyph glyph-name="uni1ED9" unicode="&#x1ed9;" horiz-adv-x="568" 
d="M187 -5.5q-32 4.5 -64 19.5q-33 15 -48 48.5t-15 90.5v168q0 45 11 79t29 53q15 17 45.5 26.5t62.5 12.5q36 2 75 2q52 0 78.5 -2.5t56.5 -10.5q31 -9 48 -27t29 -52q11 -35 11 -81v-168q0 -85 -39 -124q-16 -16 -46 -25t-62 -12q-38 -2 -76 -2q-64 0 -96 4.5zM344 51
q19 2 37 11q18 8 25.5 26.5t7.5 51.5v196q0 45 -11 65.5t-37.5 27t-82.5 6.5t-82.5 -6.5t-37.5 -27t-11 -65.5v-196q0 -33 7.5 -51.5t25.5 -26.5q18 -9 37 -11t61 -2t61 2zM236 -62h95v-89h-95v89zM231 680h107l66 -127h-58l-62 87l-63 -87h-58z" />
    <glyph glyph-name="uni1EDA" unicode="&#x1eda;" horiz-adv-x="679" 
d="M613 474v-308q0 -94 -76 -135t-199 -41q-272 0 -272 176v307q0 186 272 186q66 0 113 -10q40 1 57.5 7t23.5 23.5t6 57.5l83 -1q0 -59 -12.5 -90.5t-47.5 -45.5q52 -45 52 -126zM519 476q0 120 -180 120q-87 0 -133.5 -27t-46.5 -93v-309q0 -112 181 -112q179 0 179 112
v309zM380 842h109l-125 -127h-74z" />
    <glyph glyph-name="uni1EDB" unicode="&#x1edb;" horiz-adv-x="568" 
d="M553 471q-18 -32 -69 -44q8 -16 11 -25q11 -35 11 -81v-168q0 -85 -39 -124q-16 -16 -46 -25t-62 -12q-38 -2 -76 -2q-64 0 -96 4.5t-64 19.5q-33 15 -48 48.5t-15 90.5v168q0 45 11 79t29 53q15 17 45.5 26.5t62.5 12.5q36 2 75 2q47 0 72 -2t51 -8q37 1 53.5 7t22.5 24
t6 57l83 -1q0 -68 -18 -100zM414 336q0 45 -11 65.5t-37.5 27t-82.5 6.5t-82.5 -6.5t-37.5 -27t-11 -65.5v-196q0 -33 7.5 -51.5t25.5 -26.5q18 -9 37 -11t61 -2t61 2t37 11q18 8 25.5 26.5t7.5 51.5v196zM324 680h109l-125 -127h-74z" />
    <glyph glyph-name="uni1EDC" unicode="&#x1edc;" horiz-adv-x="679" 
d="M613 474v-308q0 -94 -76 -135t-199 -41q-272 0 -272 176v307q0 186 272 186q66 0 113 -10q40 1 57.5 7t23.5 23.5t6 57.5l83 -1q0 -59 -12.5 -90.5t-47.5 -45.5q52 -45 52 -126zM519 476q0 120 -180 120q-87 0 -133.5 -27t-46.5 -93v-309q0 -112 181 -112q179 0 179 112
v309zM176 839h109l90 -127h-74z" />
    <glyph glyph-name="uni1EDD" unicode="&#x1edd;" horiz-adv-x="568" 
d="M553 471q-18 -32 -69 -44q8 -16 11 -25q11 -35 11 -81v-168q0 -85 -39 -124q-16 -16 -46 -25t-62 -12q-38 -2 -76 -2q-64 0 -96 4.5t-64 19.5q-33 15 -48 48.5t-15 90.5v168q0 45 11 79t29 53q15 17 45.5 26.5t62.5 12.5q36 2 75 2q47 0 72 -2t51 -8q37 1 53.5 7t22.5 24
t6 57l83 -1q0 -68 -18 -100zM414 336q0 45 -11 65.5t-37.5 27t-82.5 6.5t-82.5 -6.5t-37.5 -27t-11 -65.5v-196q0 -33 7.5 -51.5t25.5 -26.5q18 -9 37 -11t61 -2t61 2t37 11q18 8 25.5 26.5t7.5 51.5v196zM118 680h109l90 -127h-74z" />
    <glyph glyph-name="uni1EDE" unicode="&#x1ede;" horiz-adv-x="679" 
d="M613 474v-308q0 -94 -76 -135t-199 -41q-272 0 -272 176v307q0 186 272 186q66 0 113 -10q40 1 57.5 7t23.5 23.5t6 57.5l83 -1q0 -59 -12.5 -90.5t-47.5 -45.5q52 -45 52 -126zM519 476q0 120 -180 120q-87 0 -133.5 -27t-46.5 -93v-309q0 -112 181 -112q179 0 179 112
v309zM311 746q0 15 5 22t15 15q13 9 17 19t4 27q0 16 -10 21.5t-34 5.5q-14 0 -25.5 -3t-14.5 -4v55q10 4 19.5 5.5t27.5 1.5q49 0 72.5 -21.5t23.5 -57.5q0 -17 -5 -33.5t-14 -23.5q-14 -11 -20 -18t-6 -20h-55v9z" />
    </font>
</defs>
</svg>
